#VERSION:0.83;
#TITLE:El ritmo te controla;
#SUBTITLE:;
#ARTIST:Jeanette Herrera;
#TITLETRANSLIT:;
#SUBTITLETRANSLIT:;
#ARTISTTRANSLIT:;
#GENRE:;
#ORIGIN:;
#CREDIT:;
#BANNER:El ritmo te controla.png;
#BACKGROUND:El ritmo te controla-bg.png;
#PREVIEWVID:;
#JACKET:El ritmo te controla-jacket.png;
#CDIMAGE:;
#DISCIMAGE:;
#LYRICSPATH:;
#CDTITLE:;
#MUSIC:El ritmo te controla.ogg;
#OFFSET:0.000000;
#SAMPLESTART:58.720001;
#SAMPLELENGTH:15.000000;
#SELECTABLE:YES;
#DISPLAYBPM:118.000000;
#BPMS:0.000=118.001;
#STOPS:;
#DELAYS:;
#WARPS:;
#TIMESIGNATURES:0.000=4=4;
#TICKCOUNTS:0.000=4;
#COMBOS:0.000=1;
#SPEEDS:0.000=1.000=0.000=0;
#SCROLLS:0.000=1.000;
#FAKES:;
#LABELS:0.000=Song Start;
#BGCHANGES:;
#KEYSOUNDS:;
#ATTACKS:
;

//---------------dance-single - ----------------
#NOTEDATA:;
#CHARTNAME:;
#STEPSTYPE:dance-single;
#DESCRIPTION:;
#CHARTSTYLE:;
#DIFFICULTY:Beginner;
#METER:2;
#RADARVALUES:0.136006,0.187270,0.000000,0.000000,0.000000,91.000000,91.000000,0.000000,0.000000,0.000000,0.000000,0.000000,0.000000,0.000000,0.136006,0.187270,0.000000,0.000000,0.000000,91.000000,91.000000,0.000000,0.000000,0.000000,0.000000,0.000000,0.000000,0.000000;
#CREDIT:;
#DISPLAYBPM:118.000000;
#NOTES:
0000
0000
0000
0000
,
0000
0000
0000
0000
,
0000
0000
0000
0000
,
0000
0000
0000
0000
,
0000
0000
0000
0000
,
0001
0000
0000
0000
,
0010
0000
0000
0000
,
1000
0000
0001
0000
,
1000
0000
0001
0000
,
0001
0000
0000
0000
,
1000
0000
0000
0000
,
0001
0000
0000
0000
,
1000
1000
1000
0000
,
1000
0000
0000
0000
,
0001
0000
0000
0000
,
1000
0000
0000
0000
,
0001
0001
0001
0000
,
1000
1000
0000
1000
,
1000
0000
0000
0000
,
0001
0001
0000
0001
,
0001
0000
0001
0000
,
0010
0000
0010
0000
,
0001
0000
0001
0000
,
1000
0000
1000
0000
,
0001
0000
1000
1000
,
0001
0000
1000
1000
,
0001
1000
0001
1000
,
0001
0000
1000
0000
,
0010
0000
1000
0000
,
1000
0000
0001
0001
,
1000
0000
0001
0001
,
1000
0001
1000
0001
,
1000
0000
0001
0001
,
0001
0000
1000
1000
,
0001
1000
0001
1000
,
0001
0000
1000
0000
,
0010
0000
1000
0000
,
1000
0000
0001
0001
,
1000
0000
0001
0001
,
1000
0001
1000
0001
,
1000
0000
0001
0001
,
0001
0000
0000
0000
,
0100
0000
0000
0000
,
1000
0000
0001
0000
,
1000
0000
0001
0001
;

//---------------dance-single - ----------------
#NOTEDATA:;
#CHARTNAME:;
#STEPSTYPE:dance-single;
#DESCRIPTION:;
#CHARTSTYLE:;
#DIFFICULTY:Easy;
#METER:5;
#RADARVALUES:0.168887,0.211267,0.115082,0.000000,0.000000,113.000000,102.000000,11.000000,0.000000,0.000000,0.000000,0.000000,0.000000,0.000000,0.168887,0.211267,0.115082,0.000000,0.000000,113.000000,102.000000,11.000000,0.000000,0.000000,0.000000,0.000000,0.000000,0.000000;
#CREDIT:;
#DISPLAYBPM:118.000000;
#NOTES:
0000
0000
0000
0000
,
0000
0000
0000
0000
,
0000
0000
0000
0000
,
0000
0000
0000
0000
,
0000
0000
0000
0000
,
1000
0000
0001
0000
,
0010
0000
1001
0000
,
0001
0001
1000
1000
,
0001
0000
1000
0100
,
1000
0000
0001
0000
,
0001
0000
0010
0000
,
1000
0000
0010
0000
,
0001
1000
0001
1000
,
0001
0000
1000
0000
,
1000
0000
0010
0000
,
0001
0000
0001
0000
,
1000
0000
1000
0000
,
1001
0000
1000
0010
,
1000
0000
0000
0000
,
1001
0000
0001
0010
,
0001
0000
0000
0000
,
0110
0000
0001
0000
,
1001
0000
1000
0000
,
0110
0000
0010
1000
,
0001
1000
0001
0001
,
1000
0000
0010
0000
,
1000
0001
0100
0010
,
1000
0000
0001
0000
,
0110
0000
1001
0000
,
0001
0000
0010
0000
,
0001
1000
0100
0010
,
0001
0000
1000
0000
,
1000
0001
1000
0000
,
1000
0000
0010
0000
,
1000
0001
0100
0010
,
1000
0000
0001
0000
,
0110
0000
1001
0000
,
0001
0000
0010
0000
,
0001
1000
0100
0010
,
0001
0000
1000
0000
,
1000
0001
1000
0000
,
1000
0000
0001
0000
,
0100
0000
1001
0000
,
0001
0001
1000
1000
,
0001
0000
0000
0000
1000
0000
0001
1000
,
;

//---------------dance-single - ----------------
#NOTEDATA:;
#CHARTNAME:;
#STEPSTYPE:dance-single;
#DESCRIPTION:;
#CHARTSTYLE:;
#DIFFICULTY:Medium;
#METER:9;
#RADARVALUES:0.303398,0.305164,0.167392,0.000000,0.052310,203.000000,187.000000,16.000000,0.000000,0.000000,0.000000,0.000000,0.000000,0.000000,0.303398,0.305164,0.167392,0.000000,0.052310,203.000000,187.000000,16.000000,0.000000,0.000000,0.000000,0.000000,0.000000,0.000000;
#CREDIT:;
#DISPLAYBPM:118.000000;
#NOTES:
0000
0000
0000
0000
,
0000
0000
0000
0000
,
0000
0000
0000
0000
,
0000
0000
0000
0000
,
0000
0000
0000
0000
,
0001
0001
1000
1000
,
0010
0010
0101
0010
,
1000
0100
1000
0000
0001
0000
0001
0000
,
1000
0001
0001
1000
,
0001
0000
0000
0000
1000
0000
0100
0100
,
1000
0000
0000
0000
0010
0000
0100
0100
,
0001
0000
0000
0000
0010
0000
0100
0100
,
1000
0001
1000
0101
,
1000
0000
0000
0000
0001
0000
0100
0100
,
0001
0000
0000
0000
0010
0000
0100
0100
,
1000
0000
0000
0000
0010
0000
0100
0100
,
0001
0000
0000
0000
0000
0000
0000
0000
0000
0000
0000
0000
0000
0000
0000
0000
0000
0000
0000
0000
0000
0000
0000
0000
0000
0000
0000
0000
0000
0000
0000
0000
0000
0000
0000
0000
0000
0000
0000
0000
0000
0000
0000
0000
0000
0000
0000
0000
0100
0000
0000
0000
0000
0000
0000
0000
0000
0000
0000
0000
0000
0000
0000
0000
0000
0000
0000
0000
0000
0000
0000
0000
0000
0000
0000
0000
0000
0000
0000
0000
0000
0000
0000
0000
0000
0000
0000
0000
0000
0000
0000
0000
0000
0000
0000
0000
0001
0000
0000
0000
0000
0000
0000
0000
0000
0000
0000
0000
0000
0000
0000
0000
1000
0000
0000
0000
0000
0000
0000
0000
0000
0000
0000
0000
0000
0000
0000
0000
0001
0000
0000
0000
0000
0000
0000
0000
0000
0000
0000
0000
0000
0000
0000
0000
1000
0000
0000
0000
0000
0000
0000
0000
0000
0000
0000
0000
0000
0000
0000
0000
0000
0000
0000
0000
0000
0000
0000
0000
0000
0000
0000
0000
0000
0000
0000
0000
0000
0000
0000
0000
0000
0000
0000
0000
0000
0000
0000
0000
0000
0000
0000
0000
,
0000
0000
1100
0000
0001
0100
0001
0100
,
0010
0000
0100
0100
,
0000
0000
0101
0000
1000
0100
1000
0100
,
0010
0000
0001
0001
,
1000
0000
1010
0000
0000
0010
1000
0000
,
0001
0000
0011
0000
0000
0010
0001
0000
,
0100
0000
0110
0000
0000
0010
0100
0000
,
0001
0000
0000
0000
0000
0000
0000
0000
0000
0000
0000
0000
0000
0000
0000
0000
0000
0000
0000
0000
0000
0000
0000
0000
0000
0000
0000
0000
0000
0000
0000
0000
0000
0000
0000
0000
0000
0000
0000
0000
0000
0000
0000
0000
0000
0000
0000
0000
0000
0000
0000
0000
0000
0000
0000
0000
0000
0000
0000
0000
0000
0000
0000
0000
0000
0000
0000
0000
0000
0000
0000
0000
0000
0000
0000
0000
0000
0000
0000
0000
0000
0000
0000
0000
0000
0000
0000
0000
0000
0000
0000
0000
0000
0000
0000
0000
1000
0000
0000
0000
0000
0000
0000
0000
0000
0000
0000
0000
0000
0000
0000
0000
0001
0000
0000
0000
0000
0000
0000
0000
0000
0000
0000
0000
0000
0000
0000
0000
1000
0000
0000
0000
0000
0000
0000
0000
0000
0000
0000
0000
0000
0000
0000
0000
0001
0000
0000
0000
0000
0000
0000
0000
0000
0000
0000
0000
0000
0000
0000
0000
0000
0000
0000
0000
0000
0000
0000
0000
0000
0000
0000
0000
0000
0000
0000
0000
0000
0000
0000
0000
0000
0000
0000
0000
0000
0000
0000
0000
0000
0000
0000
0000
,
0001
0000
1000
0100
0010
0000
0100
1000
,
0001
0000
0001
0000
0010
1000
0100
0010
,
0001
0100
0010
1010
,
0100
0110
1000
0101
,
1000
0000
0001
0100
0010
0000
0100
0001
,
1000
0000
1000
0000
0010
0001
0100
0010
,
1000
0100
0010
0011
,
1000
0000
0000
0000
0000
0000
0000
0000
0000
0000
0000
0000
0000
0000
0000
0000
0000
0000
0000
0000
0000
0000
0000
0000
0000
0000
0000
0000
0000
0000
0000
0000
0000
0000
0000
0000
0000
0000
0000
0000
0000
0000
0000
0000
0000
0000
0000
0000
0001
0000
0000
0000
0000
0000
0000
0000
0000
0000
0000
0000
0000
0000
0000
0000
0000
0000
0000
0000
0000
0000
0000
0000
0000
0000
0000
0000
0000
0000
0000
0000
0000
0000
0000
0000
0000
0000
0000
0000
0000
0000
0000
0000
0000
0000
0000
0000
1000
0000
0000
0000
0000
0000
0000
0000
0000
0000
0000
0000
0000
0000
0000
0000
0001
0000
0000
0000
0000
0000
0000
0000
0000
0000
0000
0000
0000
0000
0000
0000
1000
0000
0000
0000
0000
0000
0000
0000
0000
0000
0000
0000
0000
0000
0000
0000
0001
0000
0000
0000
0000
0000
0000
0000
0000
0000
0000
0000
0000
0000
0000
0000
0000
0000
0000
0000
0000
0000
0000
0000
0000
0000
0000
0000
0000
0000
0000
0000
0000
0000
0000
0000
0000
0000
0000
0000
0000
0000
0000
0000
0000
0000
0000
0000
,
0001
0000
1000
0100
0010
0000
0100
1000
,
0001
0000
0001
0000
0010
1000
0100
0010
,
0001
0100
0010
1010
,
0100
0110
1000
0101
,
1000
0000
0001
0100
0010
0000
0100
0001
,
1000
0000
1000
0000
0010
0001
0100
0010
,
1000
0100
0010
0011
,
1000
0000
0000
0000
0000
0000
0000
0000
0000
0000
0000
0000
0000
0000
0000
0000
0000
0000
0000
0000
0000
0000
0000
0000
0000
0000
0000
0000
0000
0000
0000
0000
0000
0000
0000
0000
0000
0000
0000
0000
0000
0000
0000
0000
0000
0000
0000
0000
0001
0000
0000
0000
0000
0000
0000
0000
0000
0000
0000
0000
0000
0000
0000
0000
0000
0000
0000
0000
0000
0000
0000
0000
0000
0000
0000
0000
0000
0000
0000
0000
0000
0000
0000
0000
0000
0000
0000
0000
0000
0000
0000
0000
0000
0000
0000
0000
1000
0000
0000
0000
0000
0000
0000
0000
0000
0000
0000
0000
0000
0000
0000
0000
0001
0000
0000
0000
0000
0000
0000
0000
0000
0000
0000
0000
0000
0000
0000
0000
1000
0000
0000
0000
0000
0000
0000
0000
0000
0000
0000
0000
0000
0000
0000
0000
0001
0000
0000
0000
0000
0000
0000
0000
0000
0000
0000
0000
0000
0000
0000
0000
0000
0000
0000
0000
0000
0000
0000
0000
0000
0000
0000
0000
0000
0000
0000
0000
0000
0000
0000
0000
0000
0000
0000
0000
0000
0000
0000
0000
0000
0000
0000
0000
,
1000
1000
0001
0001
,
0100
0100
1010
0100
,
0001
0010
0001
0000
1000
0000
1000
0000
,
0001
0000
0000
0000
0000
0000
0000
0000
0000
0000
0000
0000
0000
0000
0000
0000
0000
0000
0000
0000
0000
0000
0000
0000
0000
0000
0000
0000
0000
0000
0000
0000
0000
0000
0000
0000
0000
0000
0000
0000
0000
0000
0000
0000
0000
0000
0000
0000
0000
0000
0000
0000
0000
0000
0000
0000
0000
0000
0000
0000
0000
0000
0000
0000
0000
0000
0000
0000
0000
0000
0000
0000
0000
0000
0000
0000
0000
0000
0000
0000
0000
0000
0000
0000
0000
0000
0000
0000
0000
0000
0000
0000
0000
0000
0000
0000
1000
0000
0000
0000
0000
0000
0000
0000
0000
0000
0000
0000
0000
0000
0000
0000
0001
0000
0000
0000
0000
0000
0000
0000
0000
0000
0000
0000
0000
0000
0000
0000
1000
0000
0000
0000
0000
0000
0000
0000
0000
0000
0000
0000
0000
0000
0000
0000
0001
0000
0000
0000
0000
0000
0000
0000
0000
0000
0000
0000
0000
0000
0000
0000
0000
0000
0000
0000
0000
0000
0000
0000
1000
0000
0000
0000
0000
0000
0000
0000
0000
0000
0000
0000
0000
0000
0000
0000
0000
0000
0000
0000
0000
0000
0000
0000
,
;

//---------------dance-single - ----------------
#NOTEDATA:;
#CHARTNAME:;
#STEPSTYPE:dance-single;
#DESCRIPTION:;
#CHARTSTYLE:;
#DIFFICULTY:Hard;
#METER:11;
#RADARVALUES:0.403534,0.422534,0.428942,0.000000,0.146468,270.000000,229.000000,41.000000,0.000000,0.000000,0.000000,0.000000,0.000000,0.000000,0.403534,0.422534,0.428942,0.000000,0.146468,270.000000,229.000000,41.000000,0.000000,0.000000,0.000000,0.000000,0.000000,0.000000;
#CREDIT:;
#DISPLAYBPM:118.000000;
#NOTES:
0000
0000
0000
0000
,
0000
0000
0000
0000
,
0000
0000
0000
0000
,
0000
0000
0000
0000
,
0000
0000
0000
0000
,
1000
0000
0000
0100
1000
0000
0000
0000
0001
0000
0000
0100
0001
0000
0000
0000
,
0001
0000
0000
0010
0001
0000
0000
0000
1000
0000
0000
0010
1000
0000
0000
0000
,
1000
0000
0000
0001
0100
0000
0000
0000
0001
0000
0000
1000
0100
0000
0000
0000
,
0001
0010
0100
1000
,
1000
0000
0000
0100
0000
0000
1000
0000
0101
0000
0000
0000
0010
0000
0001
0000
,
1100
0000
0010
0100
1010
0000
0001
0100
,
0110
0000
1000
0100
1100
0000
0001
0000
,
0010
0100
0010
1000
1100
0000
0101
0000
,
0001
0000
0000
0100
0000
0000
0001
0000
1100
0000
0000
0000
0010
0000
1000
0000
,
0101
0000
0010
0100
0011
0000
1000
0100
,
0110
0000
0001
0100
0101
0000
1000
0000
,
0110
0000
0000
1001
0000
0000
0100
0010
1000
0001
0000
0000
,
1000
0000
0000
1000
0000
0000
0001
0000
0000
0000
0100
0000
0010
0000
0000
0000
,
0100
0000
0000
0100
0000
0000
0010
0000
0000
0000
1000
0000
0100
0000
0010
0000
,
0001
0000
0000
0001
0000
0000
0100
0000
0000
0000
0001
0000
1000
0000
0000
0000
,
0100
0000
0000
0100
0000
0000
1000
0000
0100
0000
1000
0000
0001
0000
0000
0000
,
1001
0000
0000
1000
0000
0000
0100
0000
0000
0000
0010
0000
0001
0000
0000
0000
,
1001
0000
0000
0001
0000
0000
0100
0000
0000
0000
0010
0000
0100
0000
0000
0000
,
1001
0000
0000
1000
0000
0000
0010
0000
0000
0000
1000
0000
0001
0000
0000
0000
,
0100
0000
0000
0000
0000
0000
0000
0000
0000
0010
0000
0000
0000
0000
0000
0000
0000
0000
0100
0000
0000
0000
0000
0000
1000
0000
0000
0000
0001
0000
0000
0000
1000
0000
0000
0000
0001
0000
0000
0000
0000
0000
0000
0000
0000
0000
0000
0000
,
1100
0000
0001
1000
1100
0000
0001
0000
,
1000
0100
1000
0010
1000
0001
1000
0000
,
0110
0000
0100
0010
1001
0000
0100
0000
,
0010
0001
0010
0100
0011
0000
1010
0000
,
0101
0000
1000
0001
0101
0000
1000
0000
,
0001
0100
0001
0010
0001
1000
0001
0000
,
0110
0000
0100
0010
1001
0000
0100
0000
,
0010
0100
1000
0100
1100
0000
0011
0000
,
1100
0000
0001
1000
1100
0000
0001
0000
,
1000
0100
1000
0010
1000
0001
1000
0000
,
0110
0000
0100
0010
1001
0000
0100
0000
,
0010
0001
0010
0100
0011
0000
1010
0000
,
0101
0000
1000
0001
0101
0000
1000
0000
,
0001
0100
0001
0010
0001
1000
0001
0000
,
0110
0000
0100
0010
1001
0000
0100
0000
,
0010
0100
1000
0100
1100
0000
0011
0000
,
0001
0000
0000
0100
0001
0000
0000
0000
1000
0000
0000
0100
1000
0000
0000
0000
,
1000
0000
0000
0010
1000
0000
0000
0000
0001
0000
0000
0010
0001
0000
0000
0000
,
0001
0000
0000
1000
0100
0000
0000
0000
1000
0000
0000
0001
0100
0000
0000
0000
,
1000
0000
0000
0000
0000
0000
0010
0000
0000
0000
0000
0000
0100
0000
0010
0000
1000
0000
0001
0000
0000
1000
0000
0000
;

//---------------dance-double - ----------------
#NOTEDATA:;
#CHARTNAME:;
#STEPSTYPE:dance-double;
#DESCRIPTION:;
#CHARTSTYLE:;
#DIFFICULTY:Easy;
#METER:5;
#RADARVALUES:0.168887,0.211267,0.115082,0.000000,0.000000,113.000000,102.000000,11.000000,0.000000,0.000000,0.000000,0.000000,0.000000,0.000000,0.168887,0.211267,0.115082,0.000000,0.000000,113.000000,102.000000,11.000000,0.000000,0.000000,0.000000,0.000000,0.000000,0.000000;
#CREDIT:;
#DISPLAYBPM:118.000000;
#NOTES:
00000000
00000000
00000000
00000000
,
00000000
00000000
00000000
00000000
,
00000000
00000000
00000000
00000000
,
00000000
00000000
00000000
00000000
,
00000000
00000000
00000000
00000000
,
00100000
00000000
00001000
00000000
,
00100000
00000000
00101000
00000000
,
00010000
00010000
00000100
00000100
,
00000010
00000000
00000001
00000100
,
00001000
00000000
00000100
00000000
,
00010000
00000000
00001000
00000000
,
01000000
00000000
00100000
00000000
,
10000000
01000000
10000000
00010000
,
00100000
00000000
00001000
00000000
,
00010000
00000000
00000010
00000000
,
00001000
00000000
00001000
00000000
,
00000001
00000000
00000001
00000000
,
00001001
00000000
00000010
00010000
,
00000010
00000000
00000000
00000000
,
00011000
00000000
00001000
01000000
,
00001000
00000000
00000000
00000000
,
01100000
00000000
10000000
00000000
,
10010000
00000000
01000000
00000000
,
01100000
00000000
00100000
00001000
,
00010000
00000100
00001000
00000100
,
00000001
00000000
00000100
00000000
,
00000010
00010000
00001000
00100000
,
00010000
00000000
01000000
00000000
,
01100000
00000000
10010000
00000000
,
10000000
00000000
00100000
00000000
,
01000000
00001000
00010000
00000100
,
00001000
00000000
00000010
00000000
,
00001000
00000001
00001000
00000000
,
00000001
00000000
00000100
00000000
,
00000010
00010000
00001000
00100000
,
00010000
00000000
01000000
00000000
,
01100000
00000000
10010000
00000000
,
10000000
00000000
00100000
00000000
,
01000000
00001000
00010000
00000100
,
00001000
00000000
00000010
00000000
,
00001000
00000001
00001000
00000000
,
00000100
00000000
00010000
00000000
,
00000100
00000000
00010100
00000000
,
00001000
00001000
01000000
01000000
,
00010000
00000000
00000000
00000000
00100000
00000000
00001000
00010000
,
;

//---------------dance-double - ----------------
#NOTEDATA:;
#CHARTNAME:;
#STEPSTYPE:dance-double;
#DESCRIPTION:;
#CHARTSTYLE:;
#DIFFICULTY:Medium;
#METER:9;
#RADARVALUES:0.303398,0.305164,0.167392,0.000000,0.052310,203.000000,187.000000,16.000000,0.000000,0.000000,0.000000,0.000000,0.000000,0.000000,0.303398,0.305164,0.167392,0.000000,0.052310,203.000000,187.000000,16.000000,0.000000,0.000000,0.000000,0.000000,0.000000,0.000000;
#CREDIT:;
#DISPLAYBPM:118.000000;
#NOTES:
00000000
00000000
00000000
00000000
,
00000000
00000000
00000000
00000000
,
00000000
00000000
00000000
00000000
,
00000000
00000000
00000000
00000000
,
00000000
00000000
00000000
00000000
,
00000010
00000010
00010000
00010000
,
00001000
00001000
00110000
01000000
,
00010000
01000000
00010000
00000000
00001000
00000000
00001000
00000000
,
00010000
00001000
00010000
00000100
,
00000010
00000000
00000000
00000000
00000001
00000000
00000100
00000100
,
00000010
00000000
00000000
00000000
00010000
00000000
00001000
00001000
,
01000000
00000000
00000000
00000000
00100000
00000000
10000000
10000000
,
01000000
00010000
00001000
00000011
,
00000010
00000000
00000000
00000000
00000001
00000000
00000100
00000100
,
00000010
00000000
00000000
00000000
00010000
00000000
00001000
00001000
,
01000000
00000000
00000000
00000000
00100000
00000000
10000000
10000000
,
01000000
00000000
00000000
00000000
00000000
00000000
00000000
00000000
00000000
00000000
00000000
00000000
00000000
00000000
00000000
00000000
00000000
00000000
00000000
00000000
00000000
00000000
00000000
00000000
00000000
00000000
00000000
00000000
00000000
00000000
00000000
00000000
00000000
00000000
00000000
00000000
00000000
00000000
00000000
00000000
00000000
00000000
00000000
00000000
00000000
00000000
00000000
00000000
00100000
00000000
00000000
00000000
00000000
00000000
00000000
00000000
00000000
00000000
00000000
00000000
00000000
00000000
00000000
00000000
00000000
00000000
00000000
00000000
00000000
00000000
00000000
00000000
00000000
00000000
00000000
00000000
00000000
00000000
00000000
00000000
00000000
00000000
00000000
00000000
00000000
00000000
00000000
00000000
00000000
00000000
00000000
00000000
00000000
00000000
00000000
00000000
00001000
00000000
00000000
00000000
00000000
00000000
00000000
00000000
00000000
00000000
00000000
00000000
00000000
00000000
00000000
00000000
00010000
00000000
00000000
00000000
00000000
00000000
00000000
00000000
00000000
00000000
00000000
00000000
00000000
00000000
00000000
00000000
00001000
00000000
00000000
00000000
00000000
00000000
00000000
00000000
00000000
00000000
00000000
00000000
00000000
00000000
00000000
00000000
00010000
00000000
00000000
00000000
00000000
00000000
00000000
00000000
00000000
00000000
00000000
00000000
00000000
00000000
00000000
00000000
00000000
00000000
00000000
00000000
00000000
00000000
00000000
00000000
00000000
00000000
00000000
00000000
00000000
00000000
00000000
00000000
00000000
00000000
00000000
00000000
00000000
00000000
00000000
00000000
00000000
00000000
00000000
00000000
00000000
00000000
00000000
00000000
,
00000000
00000000
00001100
00000000
00000001
00000100
00000001
00000100
,
00000010
00000000
00010000
00010000
,
00000000
00000000
01010000
00000000
10000000
01000000
10000000
01000000
,
00100000
00000000
00001000
00001000
,
00010000
00000000
00001010
00000000
00000000
00000100
00001000
00000000
,
00010000
00000000
00101000
00000000
00000000
01000000
00010000
00000000
,
00100000
00000000
10100000
00000000
00000000
01000000
00100000
00000000
,
00001000
00000000
00000000
00000000
00000000
00000000
00000000
00000000
00000000
00000000
00000000
00000000
00000000
00000000
00000000
00000000
00000000
00000000
00000000
00000000
00000000
00000000
00000000
00000000
00000000
00000000
00000000
00000000
00000000
00000000
00000000
00000000
00000000
00000000
00000000
00000000
00000000
00000000
00000000
00000000
00000000
00000000
00000000
00000000
00000000
00000000
00000000
00000000
00000000
00000000
00000000
00000000
00000000
00000000
00000000
00000000
00000000
00000000
00000000
00000000
00000000
00000000
00000000
00000000
00000000
00000000
00000000
00000000
00000000
00000000
00000000
00000000
00000000
00000000
00000000
00000000
00000000
00000000
00000000
00000000
00000000
00000000
00000000
00000000
00000000
00000000
00000000
00000000
00000000
00000000
00000000
00000000
00000000
00000000
00000000
00000000
00010000
00000000
00000000
00000000
00000000
00000000
00000000
00000000
00000000
00000000
00000000
00000000
00000000
00000000
00000000
00000000
00001000
00000000
00000000
00000000
00000000
00000000
00000000
00000000
00000000
00000000
00000000
00000000
00000000
00000000
00000000
00000000
00010000
00000000
00000000
00000000
00000000
00000000
00000000
00000000
00000000
00000000
00000000
00000000
00000000
00000000
00000000
00000000
00001000
00000000
00000000
00000000
00000000
00000000
00000000
00000000
00000000
00000000
00000000
00000000
00000000
00000000
00000000
00000000
00000000
00000000
00000000
00000000
00000000
00000000
00000000
00000000
00000000
00000000
00000000
00000000
00000000
00000000
00000000
00000000
00000000
00000000
00000000
00000000
00000000
00000000
00000000
00000000
00000000
00000000
00000000
00000000
00000000
00000000
00000000
00000000
,
01000000
00000000
00100000
10000000
01000000
00000000
01000000
00100000
,
00010000
00000000
00100000
00000000
00001000
00010000
00000100
00001000
,
00000001
00000100
00000010
00010100
,
00001000
00011000
01000000
01010000
,
00100000
00000000
01000000
10000000
00100000
00000000
00100000
01000000
,
00010000
00000000
01000000
00000000
00001000
00010000
00000010
00001000
,
00000001
00000010
00000100
00010010
,
00001000
00000000
00000000
00000000
00000000
00000000
00000000
00000000
00000000
00000000
00000000
00000000
00000000
00000000
00000000
00000000
00000000
00000000
00000000
00000000
00000000
00000000
00000000
00000000
00000000
00000000
00000000
00000000
00000000
00000000
00000000
00000000
00000000
00000000
00000000
00000000
00000000
00000000
00000000
00000000
00000000
00000000
00000000
00000000
00000000
00000000
00000000
00000000
00010000
00000000
00000000
00000000
00000000
00000000
00000000
00000000
00000000
00000000
00000000
00000000
00000000
00000000
00000000
00000000
00000000
00000000
00000000
00000000
00000000
00000000
00000000
00000000
00000000
00000000
00000000
00000000
00000000
00000000
00000000
00000000
00000000
00000000
00000000
00000000
00000000
00000000
00000000
00000000
00000000
00000000
00000000
00000000
00000000
00000000
00000000
00000000
00000100
00000000
00000000
00000000
00000000
00000000
00000000
00000000
00000000
00000000
00000000
00000000
00000000
00000000
00000000
00000000
00010000
00000000
00000000
00000000
00000000
00000000
00000000
00000000
00000000
00000000
00000000
00000000
00000000
00000000
00000000
00000000
00001000
00000000
00000000
00000000
00000000
00000000
00000000
00000000
00000000
00000000
00000000
00000000
00000000
00000000
00000000
00000000
01000000
00000000
00000000
00000000
00000000
00000000
00000000
00000000
00000000
00000000
00000000
00000000
00000000
00000000
00000000
00000000
00000000
00000000
00000000
00000000
00000000
00000000
00000000
00000000
00000000
00000000
00000000
00000000
00000000
00000000
00000000
00000000
00000000
00000000
00000000
00000000
00000000
00000000
00000000
00000000
00000000
00000000
00000000
00000000
00000000
00000000
00000000
00000000
,
00100000
00000000
01000000
10000000
00100000
00000000
00100000
01000000
,
00010000
00000000
01000000
00000000
00001000
00010000
00000010
00001000
,
00000001
00000010
00000100
00010010
,
00001000
00011000
00100000
00110000
,
01000000
00000000
00100000
10000000
01000000
00000000
01000000
00100000
,
00010000
00000000
00100000
00000000
00001000
00010000
00000100
00001000
,
00000001
00000100
00000010
00010100
,
00001000
00000000
00000000
00000000
00000000
00000000
00000000
00000000
00000000
00000000
00000000
00000000
00000000
00000000
00000000
00000000
00000000
00000000
00000000
00000000
00000000
00000000
00000000
00000000
00000000
00000000
00000000
00000000
00000000
00000000
00000000
00000000
00000000
00000000
00000000
00000000
00000000
00000000
00000000
00000000
00000000
00000000
00000000
00000000
00000000
00000000
00000000
00000000
00010000
00000000
00000000
00000000
00000000
00000000
00000000
00000000
00000000
00000000
00000000
00000000
00000000
00000000
00000000
00000000
00000000
00000000
00000000
00000000
00000000
00000000
00000000
00000000
00000000
00000000
00000000
00000000
00000000
00000000
00000000
00000000
00000000
00000000
00000000
00000000
00000000
00000000
00000000
00000000
00000000
00000000
00000000
00000000
00000000
00000000
00000000
00000000
00000010
00000000
00000000
00000000
00000000
00000000
00000000
00000000
00000000
00000000
00000000
00000000
00000000
00000000
00000000
00000000
00010000
00000000
00000000
00000000
00000000
00000000
00000000
00000000
00000000
00000000
00000000
00000000
00000000
00000000
00000000
00000000
00001000
00000000
00000000
00000000
00000000
00000000
00000000
00000000
00000000
00000000
00000000
00000000
00000000
00000000
00000000
00000000
00100000
00000000
00000000
00000000
00000000
00000000
00000000
00000000
00000000
00000000
00000000
00000000
00000000
00000000
00000000
00000000
00000000
00000000
00000000
00000000
00000000
00000000
00000000
00000000
00000000
00000000
00000000
00000000
00000000
00000000
00000000
00000000
00000000
00000000
00000000
00000000
00000000
00000000
00000000
00000000
00000000
00000000
00000000
00000000
00000000
00000000
00000000
00000000
,
01000000
01000000
00001000
00001000
,
00010000
00010000
00001100
00000010
,
00001000
00000010
00001000
00000000
00010000
00000000
00010000
00000000
,
00001000
00000000
00000000
00000000
00000000
00000000
00000000
00000000
00000000
00000000
00000000
00000000
00000000
00000000
00000000
00000000
00000000
00000000
00000000
00000000
00000000
00000000
00000000
00000000
00000000
00000000
00000000
00000000
00000000
00000000
00000000
00000000
00000000
00000000
00000000
00000000
00000000
00000000
00000000
00000000
00000000
00000000
00000000
00000000
00000000
00000000
00000000
00000000
00000000
00000000
00000000
00000000
00000000
00000000
00000000
00000000
00000000
00000000
00000000
00000000
00000000
00000000
00000000
00000000
00000000
00000000
00000000
00000000
00000000
00000000
00000000
00000000
00000000
00000000
00000000
00000000
00000000
00000000
00000000
00000000
00000000
00000000
00000000
00000000
00000000
00000000
00000000
00000000
00000000
00000000
00000000
00000000
00000000
00000000
00000000
00000000
01000000
00000000
00000000
00000000
00000000
00000000
00000000
00000000
00000000
00000000
00000000
00000000
00000000
00000000
00000000
00000000
00001000
00000000
00000000
00000000
00000000
00000000
00000000
00000000
00000000
00000000
00000000
00000000
00000000
00000000
00000000
00000000
00010000
00000000
00000000
00000000
00000000
00000000
00000000
00000000
00000000
00000000
00000000
00000000
00000000
00000000
00000000
00000000
00000100
00000000
00000000
00000000
00000000
00000000
00000000
00000000
00000000
00000000
00000000
00000000
00000000
00000000
00000000
00000000
00000000
00000000
00000000
00000000
00000000
00000000
00000000
00000000
00000010
00000000
00000000
00000000
00000000
00000000
00000000
00000000
00000000
00000000
00000000
00000000
00000000
00000000
00000000
00000000
00000000
00000000
00000000
00000000
00000000
00000000
00000000
00000000
,
;

//---------------dance-double - ----------------
#NOTEDATA:;
#CHARTNAME:;
#STEPSTYPE:dance-double;
#DESCRIPTION:;
#CHARTSTYLE:;
#DIFFICULTY:Hard;
#METER:11;
#RADARVALUES:0.403534,0.422534,0.428942,0.000000,0.146468,270.000000,229.000000,41.000000,0.000000,0.000000,0.000000,0.000000,0.000000,0.000000,0.403534,0.422534,0.428942,0.000000,0.146468,270.000000,229.000000,41.000000,0.000000,0.000000,0.000000,0.000000,0.000000,0.000000;
#CREDIT:;
#DISPLAYBPM:118.000000;
#NOTES:
00000000
00000000
00000000
00000000
,
00000000
00000000
00000000
00000000
,
00000000
00000000
00000000
00000000
,
00000000
00000000
00000000
00000000
,
00000000
00000000
00000000
00000000
,
00100000
00000000
00000000
00001000
00010000
00000000
00000000
00000000
00000010
00000000
00000000
00010000
00001000
00000000
00000000
00000000
,
01000000
00000000
00000000
00001000
00010000
00000000
00000000
00000000
00000100
00000000
00000000
00010000
00001000
00000000
00000000
00000000
,
00100000
00000000
00000000
00001000
00010000
00000000
00000000
00000000
00000010
00000000
00000000
00010000
00001000
00000000
00000000
00000000
,
00010000
00001000
01000000
00100000
,
10000000
00000000
00000000
01000000
00000000
00000000
00010000
00000000
00101000
00000000
00000000
00000000
00010000
00000000
01000000
00000000
,
00011000
00000000
00000100
00001000
00011000
00000000
00100000
00010000
,
01001000
00000000
00010000
00001000
00001100
00000000
00000001
00000000
,
00000010
00000100
00010000
00001000
00011000
00000000
00001001
00000000
,
00000001
00000000
00000000
00000100
00000000
00000000
00001000
00000000
00010010
00000000
00000000
00000000
00001000
00000000
00000100
00000000
,
00011000
00000000
01000000
00010000
00011000
00000000
00000010
00001000
,
00010100
00000000
00001000
00010000
01010000
00000000
10000000
00000000
,
01100000
00000000
00000000
00000000
00000000
00000000
00000000
00000000
00000000
00000000
00000000
00000000
00000000
00000000
00000000
00000000
00000000
00000000
00000000
00000000
00000000
00000000
00000000
00000000
00000000
00000000
00000000
00000000
00000000
00000000
00000000
00000000
00000000
00000000
00000000
00000000
00000000
00000000
00000000
00000000
00000000
00000000
00000000
00000000
00000000
00000000
00000000
00000000
11000000
00000000
00000000
00000000
00000000
00000000
00000000
00000000
00000000
00000000
00000000
00000000
00000000
00000000
00000000
00000000
00000000
00000000
00000000
00000000
00000000
00000000
00000000
00000000
00000000
00000000
00000000
00000000
00000000
00000000
00000000
00000000
00000000
00000000
00000000
00000000
00000000
00000000
00000000
00000000
00000000
00000000
00000000
00000000
00000000
00000000
00000000
00000000
01000000
00000000
00000000
00000000
00000000
00000000
00000000
00000000
00000000
00000000
00000000
00000000
00000000
00000000
00000000
00000000
00010000
00000000
00000000
00000000
00000000
00000000
00000000
00000000
00000000
00000000
00000000
00000000
00000000
00000000
00000000
00000000
00001000
00000000
00000000
00000000
00000000
00000000
00000000
00000000
00000000
00000000
00000000
00000000
00000000
00000000
00000000
00000000
00000010
00000000
00000000
00000000
00000000
00000000
00000000
00000000
00000000
00000000
00000000
00000000
00000000
00000000
00000000
00000000
00000000
00000000
00000000
00000000
00000000
00000000
00000000
00000000
00000000
00000000
00000000
00000000
00000000
00000000
00000000
00000000
00000000
00000000
00000000
00000000
00000000
00000000
00000000
00000000
00000000
00000000
00000000
00000000
00000000
00000000
00000000
00000000
,
00000001
00000000
00000000
00000100
00000000
00000000
00000010
00000000
00000000
00000000
00001000
00000000
00000100
00000000
00000000
00000000
,
00010000
00000000
00000000
00001000
00000000
00000000
00000100
00000000
00000000
00000000
00000001
00000000
00000100
00000000
00001000
00000000
,
00010000
00000000
00000000
01000000
00000000
00000000
00100000
00000000
00000000
00000000
00010000
00000000
10000000
00000000
00000000
00000000
,
00100000
00000000
00000000
01000000
00000000
00000000
00001000
00000000
00010000
00000000
00000100
00000000
00000010
00000000
00000000
00000000
,
00001001
00000000
00000000
00000001
00000000
00000000
00000100
00000000
00000000
00000000
00000010
00000000
00001000
00000000
00000000
00000000
,
00011000
00000000
00000000
00000100
00000000
00000000
00010000
00000000
00000000
00000000
00001000
00000000
01000000
00000000
00000000
00000000
,
10010000
00000000
00000000
10000000
00000000
00000000
00100000
00000000
00000000
00000000
01000000
00000000
00001000
00000000
00000000
00000000
,
00010000
00000000
00000000
00000000
00000000
00000000
00000000
00000000
00000000
00000000
00000000
00000000
00000000
00000000
00000000
00000000
00000000
00000000
00000000
00000000
00000000
00000000
00000000
00000000
00000000
00000000
00000000
00000000
00000000
00000000
00000000
00000000
00000000
00000000
00000000
00000000
00000100
00000000
00000000
00000000
00000000
00000000
00000000
00000000
00000000
00000000
00000000
00000000
00000000
00000000
00000000
00000000
00000000
00000000
00000000
00000000
00000000
00000000
00000000
00000000
00000000
00000000
00000000
00000000
00000000
00000000
00000000
00000000
00000000
00000000
00000000
00000000
00000010
00000000
00000000
00000000
00000000
00000000
00000000
00000000
00000000
00000000
00000000
00000000
00000000
00000000
00000000
00000000
00000000
00000000
00000000
00000000
00000000
00000000
00000000
00000000
00000100
00000000
00000000
00000000
00000000
00000000
00000000
00000000
00000000
00000000
00000000
00000000
00000000
00000000
00000000
00000000
00001000
00000000
00000000
00000000
00000000
00000000
00000000
00000000
00000000
00000000
00000000
00000000
00000000
00000000
00000000
00000000
00010000
00000000
00000000
00000000
00000000
00000000
00000000
00000000
00000000
00000000
00000000
00000000
00000000
00000000
00000000
00000000
00100000
00000000
00000000
00000000
00000000
00000000
00000000
00000000
00000000
00000000
00000000
00000000
00000000
00000000
00000000
00000000
00000000
00000000
00000000
00000000
00000000
00000000
00000000
00000000
00000000
00000000
00000000
00000000
00000000
00000000
00000000
00000000
00000000
00000000
00000000
00000000
00000000
00000000
00000000
00000000
00000000
00000000
00000000
00000000
00000000
00000000
00000000
00000000
,
01010000
00000000
00001000
00010000
01010000
00000000
00001000
00000000
,
00010000
00100000
00010000
00001000
00000010
00001000
00010000
00000000
,
00001100
00000000
00000010
00000001
00000011
00000000
00001000
00000000
,
00000100
00010000
00001000
01000000
10100000
00000000
00110000
00000000
,
01010000
00000000
00001000
00010000
01010000
00000000
00001000
00000000
,
00010000
00100000
00010000
00001000
00000010
00001000
00010000
00000000
,
00001100
00000000
00000010
00000001
00000011
00000000
00001000
00000000
,
00000100
00010000
00001000
01000000
10100000
00000000
01010000
00000000
,
00110000
00000000
00001000
00010000
01010000
00000000
00001000
00000000
,
00010000
00100000
00010000
00001000
00000010
00001000
00010000
00000000
,
00001100
00000000
00000010
00000001
00000011
00000000
00001000
00000000
,
00000100
00010000
00001000
01000000
10100000
00000000
00110000
00000000
,
01010000
00000000
00001000
00010000
01010000
00000000
00001000
00000000
,
00010000
00100000
00010000
00001000
00000010
00001000
00010000
00000000
,
00001100
00000000
00000010
00000001
00000011
00000000
00001000
00000000
,
00000100
00010000
00001000
01000000
10100000
00000000
00110000
00000000
,
00100000
00000000
00000000
00001000
00010000
00000000
00000000
00000000
00000010
00000000
00000000
00010000
00001000
00000000
00000000
00000000
,
01000000
00000000
00000000
00001000
00010000
00000000
00000000
00000000
00000100
00000000
00000000
00010000
00001000
00000000
00000000
00000000
,
00100000
00000000
00000000
00001000
00010000
00000000
00000000
00000000
00000010
00000000
00000000
00010000
00001000
00000000
00000000
00000000
,
00010000
00000000
00000000
00000000
00000000
00000000
00000000
00000000
00000000
00000000
00000000
00000000
00000000
00000000
00000000
00000000
00000000
00000000
00000000
00000000
00000000
00000000
00000000
00000000
00000000
00000000
00000000
00000000
00000000
00000000
00000000
00000000
00000000
00000000
00000000
00000000
00000000
00000000
00000000
00000000
00000000
00000000
00000000
00000000
00000000
00000000
00000000
00000000
00001000
00000000
00000000
00000000
00000000
00000000
00000000
00000000
00000000
00000000
00000000
00000000
00000000
00000000
00000000
00000000
00000000
00000000
00000000
00000000
00000000
00000000
00000000
00000000
00000000
00000000
00000000
00000000
00000000
00000000
00000000
00000000
00000000
00000000
00000000
00000000
00000000
00000000
00000000
00000000
00000000
00000000
00000000
00000000
00000000
00000000
00000000
00000000
01000000
00000000
00000000
00000000
00000000
00000000
00000000
00000000
00000000
00000000
00000000
00000000
00000000
00000000
00000000
00000000
00010000
00000000
00000000
00000000
00000000
00000000
00000000
00000000
00000000
00000000
00000000
00000000
00000000
00000000
00000000
00000000
00001000
00000000
00000000
00000000
00000000
00000000
00000000
00000000
00000000
00000000
00000000
00000000
00000000
00000000
00000000
00000000
00000010
00000000
00000000
00000000
00000000
00000000
00000000
00000000
00000000
00000000
00000000
00000000
00000000
00000000
00000000
00000000
00000000
00000000
00000000
00000000
00000000
00000000
00000000
00000000
00001000
00000000
00000000
00000000
00000000
00000000
00000000
00000000
00000000
00000000
00000000
00000000
00000000
00000000
00000000
00000000
00000000
00000000
00000000
00000000
00000000
00000000
00000000
00000000
,
;

//---------------dance-single - ----------------
#NOTEDATA:;
#CHARTNAME:;
#STEPSTYPE:dance-single;
#DESCRIPTION:;
#CHARTSTYLE:;
#DIFFICULTY:Challenge;
#METER:12;
#RADARVALUES:0.535057,0.516431,0.606796,0.313860,0.319091,358.000000,300.000000,58.000000,30.000000,0.000000,0.000000,0.000000,0.000000,0.000000,0.535057,0.516431,0.606796,0.313860,0.319091,358.000000,300.000000,58.000000,30.000000,0.000000,0.000000,0.000000,0.000000,0.000000;
#CREDIT:;
#DISPLAYBPM:118.000000;
#NOTES:
// measure 0
0000
0000
0000
0000
,  // measure 1
0000
0000
0000
0000
,  // measure 2
0000
0000
0000
0000
,  // measure 3
0000
0000
0000
0000
,  // measure 4
0000
0000
0000
0000
,  // measure 5
0001
0000
0000
0100
0010
0000
1000
0000
0100
0000
0000
0010
0001
0000
1000
0000
,  // measure 6
0010
0000
0000
1000
0001
0000
0100
0000
0001
0000
0000
0010
0100
0000
1000
0000
,  // measure 7
0100
0000
0000
1000
0001
0000
0100
0000
0010
0000
0000
1000
0001
0000
0010
0000
,  // measure 8
0011
0000
0000
0000
0000
0000
1100
0000
0000
0000
0000
0000
0001
0000
1000
0000
0010
0000
0100
0000
0000
0001
0000
0000
,  // measure 9
1002
0000
0000
0203
0000
0000
0320
0000
0000
1030
0010
0000
1000
0000
0001
0000
,  // measure 10
0021
0000
0000
0032
0000
0000
0203
0000
0000
0310
1000
0000
0001
0000
1000
0000
,  // measure 11
2100
0000
0000
3002
0000
0000
0203
0000
0000
0310
1000
0000
0100
0000
0010
0000
,  // measure 12
0011
0000
0000
0001
1000
0000
0010
0000
0100
0000
0001
0000
1000
0000
0100
0000
,  // measure 13
1200
0000
0000
2300
0000
0000
3020
0000
0000
0130
0001
0000
0010
0000
0001
0000
,  // measure 14
0201
0000
0000
0302
0000
0000
2003
0000
0000
3100
1000
0000
0100
0000
0010
0000
,  // measure 15
0210
0000
0000
2300
0000
0000
3020
0000
0000
1030
0001
0000
0100
0000
0001
0000
,  // measure 16
0101
0000
0000
0000
0000
0000
0000
0000
0000
1100
0000
0000
0000
0000
0000
0000
0000
0000
1001
0000
0000
0000
0000
0000
1000
0000
0000
0000
0010
0000
0000
0000
0100
0000
0000
0000
0001
0000
0000
0000
0000
0000
1000
0000
0000
0000
0000
0000
,  // measure 17
2100
0000
0000
3001
0000
0000
0201
0000
0000
0000
0310
0000
1000
0000
0100
0000
,  // measure 18
1002
0000
0000
0103
0000
0000
1020
0000
0000
0000
1030
0000
0001
0000
0010
0000
,  // measure 19
0021
0000
0000
0130
0000
0000
2100
0000
0000
0000
3010
0000
1000
0000
0001
0000
,  // measure 20
0201
0000
0000
0310
0000
0000
1002
0000
0000
0000
0103
0000
0001
0000
1000
0000
,  // measure 21
1010
0000
0000
0101
0000
0000
0012
0000
0000
0000
1003
0000
0001
0000
0100
0000
,  // measure 22
0110
0000
0000
1010
0000
0000
1200
0000
0000
0000
1300
0000
0001
0000
0010
0000
,  // measure 23
1001
0000
0000
0110
0000
0000
2010
0000
0000
0000
3001
0000
0100
0000
0010
0000
,  // measure 24
0120
0000
0000
0000
0000
0000
1030
0000
0000
0001
0000
0000
0010
0000
0001
0000
1000
0000
0100
0000
0000
0010
0000
0000
,  // measure 25
0011
0000
0000
0001
1000
0000
1100
0000
0101
0000
0000
0100
0010
0000
1000
0000
,  // measure 26
0100
0001
0100
0010
0001
1000
0010
1000
,  // measure 27
1010
0000
0000
1000
0100
0000
0110
0000
0011
0000
0000
0001
1000
0000
0010
0000
,  // measure 28
0100
1000
0100
0001
1000
0010
0001
0010
,  // measure 29
0110
0000
0000
1000
0010
0000
1010
0000
0101
0000
0000
0001
1000
0000
0100
0000
,  // measure 30
0001
0100
0010
0001
1000
0010
1000
0100
,  // measure 31
1100
0000
0000
0001
0100
0000
0110
0000
1001
0000
0000
0010
1000
0000
0100
0000
,  // measure 32
1000
0000
0000
0001
0000
0000
0100
0000
0000
0010
0000
0000
1000
0000
0001
0000
0010
0000
0100
0000
0000
1000
0000
0000
,  // measure 33
1001
0000
0000
0010
1000
0000
1100
0000
0011
0000
0000
0001
0100
0000
0010
0000
,  // measure 34
0100
1000
0100
0001
0010
1000
0010
0001
,  // measure 35
0101
0000
0000
1000
0100
0000
0110
0000
0011
0000
0000
0100
0001
0000
0010
0000
,  // measure 36
1000
0010
0100
0010
0001
1000
0001
0100
,  // measure 37
0110
0000
0000
0010
0100
0000
0101
0000
1100
0000
0000
0001
1000
0000
0100
0000
,  // measure 38
0010
0100
0001
0100
1000
0001
1000
0010
,  // measure 39
1010
0000
0000
1000
0001
0000
0011
0000
0101
0000
0000
0100
0010
0000
1000
0000
,  // measure 40
0100
0000
0000
0010
0000
0000
0001
0000
0000
1000
0000
0000
0010
0000
0100
0000
0001
0000
1000
0000
0000
0100
0000
0000
,  // measure 41
0110
0000
0000
0010
0001
0000
1000
0000
0010
0000
0000
0100
0001
0000
1000
0000
,  // measure 42
0100
0000
0000
1000
0010
0000
0100
0000
0001
0000
0000
0010
0001
0000
1000
0000
,  // measure 43
0100
0000
0000
0010
0001
0000
1000
0000
0010
0000
0000
0100
0001
0000
1000
0000
,  // measure 44
1010
0000
0000
0000
0000
0000
0101
0000
0000
0000
0000
0000
0001
0000
0100
0000
0010
0000
1000
0000
0000
1001
0000
0000
;
