#VERSION:0.83;
#TITLE:Edge Of Control;
#SUBTITLE:;
#ARTIST:Jondi & Spesh;
#TITLETRANSLIT:;
#SUBTITLETRANSLIT:;
#ARTISTTRANSLIT:;
#GENRE:;
#ORIGIN:;
#CREDIT:;
#BANNER:Edge Of Control-bn.png;
#BACKGROUND:Edge Of Control-bg.png;
#PREVIEWVID:;
#JACKET:Edge Of Control-jacket.png;
#CDIMAGE:;
#DISCIMAGE:;
#LYRICSPATH:;
#CDTITLE:;
#MUSIC:Edge Of Control.ogg;
#OFFSET:0.000000;
#SAMPLESTART:51.092999;
#SAMPLELENGTH:20.000000;
#SELECTABLE:YES;
#DISPLAYBPM:154.000000:155.000000;
#BPMS:0.000=155.000,
228.000=154.000;
#STOPS:;
#DELAYS:;
#WARPS:;
#TIMESIGNATURES:0.000=4=4;
#TICKCOUNTS:0.000=4;
#COMBOS:0.000=1;
#SPEEDS:0.000=1.000=0.000=0;
#SCROLLS:0.000=1.000;
#FAKES:;
#LABELS:0.000=Song Start;
#BGCHANGES:;
#KEYSOUNDS:;
#ATTACKS:
;

//---------------dance-single - ----------------
#NOTEDATA:;
#CHARTNAME:;
#STEPSTYPE:dance-single;
#DESCRIPTION:;
#CHARTSTYLE:;
#DIFFICULTY:Beginner;
#METER:3;
#RADARVALUES:0.180340,0.248404,0.030542,0.000000,0.000000,124.000000,121.000000,3.000000,0.000000,0.000000,0.000000,0.000000,0.000000,0.000000,0.180340,0.248404,0.030542,0.000000,0.000000,124.000000,121.000000,3.000000,0.000000,0.000000,0.000000,0.000000,0.000000,0.000000;
#CREDIT:;
#DISPLAYBPM:154.000000:155.000000;
#NOTES:
0000
0000
0000
0000
,
0000
0000
0000
0000
,
0000
0000
0000
0000
,
0000
0000
0000
0000
,
0000
0000
0000
0000
,
1000
0000
1000
0000
,
0001
0000
0001
0000
,
0100
0000
0100
0000
,
0001
0000
0001
0000
,
1000
1000
1000
0000
,
0001
0000
0000
0000
,
0100
0100
0100
0000
,
0010
0000
0000
0000
,
1000
0000
0001
0000
,
1000
0000
0001
0000
,
0100
0100
0100
0000
,
0010
0000
0000
0000
,
0100
0000
0010
0000
,
1000
0000
0001
0000
,
0010
0000
0100
0000
,
1000
0000
0010
0000
,
0100
0100
0000
0010
,
0010
0010
0000
1000
,
1000
0000
0001
0000
,
1000
1000
1000
0000
,
1001
0000
0000
0000
,
0000
0000
0000
0000
,
1001
0000
0000
0000
,
0000
0000
0000
0000
,
1000
0000
0001
0000
,
1000
0000
0001
0000
,
0010
0000
0001
0000
,
1000
0000
0010
0000
,
0100
0000
0100
0000
,
0010
0000
0010
0000
,
0100
0000
0100
0100
,
0100
0000
0010
0000
,
1000
0000
0001
0000
,
1000
0000
0010
0000
,
0100
0100
0100
0000
,
0100
0000
0010
0000
,
1000
0000
0001
0000
,
0001
0000
0001
0000
,
1000
0000
1000
0000
,
0001
0001
0001
0000
,
0100
0000
0100
0000
,
0010
0000
0010
0000
,
0100
0000
0100
0000
,
0100
0100
0100
0000
,
0010
0000
1000
0000
,
0010
0010
0010
0000
,
1000
0000
0001
0000
,
0100
0100
0100
0000
,
0010
0000
1000
0000
,
0010
0010
0010
0000
,
1000
1000
1000
0000
,
0001
0001
0001
0000
,
1000
0000
0001
0000
,
0100
0000
0100
0000
,
0010
0010
0010
0000
,
0100
0100
0100
0000
,
0110
0000
0000
0000
;

//---------------dance-single - ----------------
#NOTEDATA:;
#CHARTNAME:;
#STEPSTYPE:dance-single;
#DESCRIPTION:;
#CHARTSTYLE:;
#DIFFICULTY:Easy;
#METER:5;
#RADARVALUES:0.205064,0.314323,0.061083,0.244332,0.000000,141.000000,135.000000,6.000000,24.000000,0.000000,0.000000,0.000000,0.000000,0.000000,0.205064,0.314323,0.061083,0.244332,0.000000,141.000000,135.000000,6.000000,24.000000,0.000000,0.000000,0.000000,0.000000,0.000000;
#CREDIT:;
#DISPLAYBPM:154.000000:155.000000;
#NOTES:
0000
0000
0000
0000
,
0000
0000
0000
0000
,
0000
0000
0000
0000
,
0000
0000
0000
0000
,
0000
0000
0000
0000
,
0001
0000
1000
1000
,
0000
0000
0001
0001
,
0000
0000
1000
1000
,
0002
0003
2000
3000
,
0100
0100
0000
0000
,
0010
0010
0000
0001
,
0100
0100
0000
0000
,
0010
0010
0000
1000
,
0100
0100
0000
0000
,
0001
0001
0000
0100
,
1000
1000
0000
0000
,
0010
0010
0000
0100
,
0002
0003
0001
0000
,
2000
3000
1000
0000
,
0200
0300
0100
0000
,
0010
0010
0010
0000
,
0002
0003
0001
0000
,
0200
0300
0100
0000
,
0010
0000
0100
0000
,
0010
0100
0010
0100
,
0220
0000
0000
0330
,
0002
0000
0000
0003
,
0020
0000
0000
0030
,
0002
0000
0000
0003
,
2000
3000
0100
0000
,
2000
3000
0001
0000
,
0200
0300
0001
0000
,
0020
0030
0100
0000
,
1001
0000
1000
1000
,
0100
0000
0010
0010
,
0001
0000
0100
0100
,
1000
0000
0100
0000
,
1001
0000
1000
1000
,
0010
0000
0001
0001
,
0010
0000
1000
1000
,
0001
0000
1000
0000
,
1001
0000
0010
0000
,
0100
0000
0001
0010
,
2000
3000
0010
0000
,
0100
0000
1000
0010
,
0002
0003
0010
0000
,
2000
3000
0100
0000
,
0002
0003
0010
0000
,
2000
3000
0002
0003
,
1001
0000
0010
0000
,
0100
0000
0010
0010
,
1000
0000
0001
0001
,
0010
0000
0100
0100
,
0100
0000
1000
0000
,
0001
0000
0100
0100
,
0010
0000
1000
1000
,
0100
0000
0010
0010
,
0010
0000
0000
0001
,
0100
0000
0000
1000
,
0100
0001
0100
1000
,
0100
0001
1000
0001
,
2002
0000
0000
3003
;

//---------------dance-single - ----------------
#NOTEDATA:;
#CHARTNAME:;
#STEPSTYPE:dance-single;
#DESCRIPTION:;
#CHARTSTYLE:;
#DIFFICULTY:Medium;
#METER:8;
#RADARVALUES:0.350500,0.434707,0.173069,0.447942,0.000000,241.000000,224.000000,17.000000,44.000000,0.000000,0.000000,0.000000,0.000000,0.000000,0.350500,0.434707,0.173069,0.447942,0.000000,241.000000,224.000000,17.000000,44.000000,0.000000,0.000000,0.000000,0.000000,0.000000;
#CREDIT:;
#DISPLAYBPM:154.000000:155.000000;
#NOTES:
0000
0000
0000
0000
,
0000
0000
0000
0000
,
0000
0000
0000
0000
,
0000
0000
0000
0000
,
0000
0000
0000
0000
,
0010
0000
0001
0010
0001
0000
0010
0000
,
0100
0000
1000
0010
1000
0000
0010
0000
,
1000
0202
0303
0010
,
0001
2200
3300
1000
,
0001
0100
0000
0001
0100
0000
0010
0000
,
1000
0100
0000
1000
0100
0000
1000
0000
,
0010
1000
0010
0000
0010
0000
0010
0000
,
0100
0001
0100
0000
0100
0000
0100
0000
,
0001
0010
0000
0001
0010
0000
0100
0000
,
1000
0010
0000
1000
0010
0000
1000
0000
,
0100
1000
0100
0000
0100
0000
0100
0000
,
0010
0001
0010
0000
0001
0000
0100
0000
,
0010
1000
0000
2000
0000
0000
3000
0000
,
1000
0001
0000
0002
0000
0000
0003
0000
,
0001
0010
0000
0020
0000
0000
0030
0000
,
0100
1000
0000
2000
0000
0000
3000
0100
,
1000
0100
0000
0200
0000
0000
0300
0010
,
0001
0010
0000
0020
0000
0000
0030
0001
,
1000
0000
1000
0100
0000
0100
0010
0000
,
0010
0001
0000
0001
1000
0000
0001
1000
,
0002
0000
1003
0001
,
2000
0000
3100
0010
,
0002
0000
0103
0010
,
2000
0000
3010
0100
,
0110
0000
0010
1000
,
1100
0000
0010
0001
,
0101
0000
0010
1000
,
0001
1100
1000
0101
,
0020
0000
1030
0100
,
0020
0000
0031
0100
,
2000
0000
3100
0001
,
0020
0000
0030
0000
0100
0100
0010
0010
,
0002
0000
0013
0001
,
0200
0000
0310
1000
,
0200
0000
0301
0100
,
2000
0000
0000
0000
3010
0010
0100
0100
,
0002
0000
0103
0001
,
0020
0000
0130
1000
,
0020
0000
0031
0010
,
2000
0000
0000
0000
3001
0001
1000
1000
,
0100
0110
0010
0011
,
0001
1100
1000
0101
,
0100
0110
0010
1010
,
0100
0101
0001
1100
,
2002
0000
3003
0000
1000
0001
0100
0000
,
0020
0000
0030
0000
1000
0100
0010
0000
,
0002
0000
0003
0000
0100
0001
1000
0000
,
0200
0000
0300
0000
1000
0100
0010
0100
,
2000
0000
3000
0000
0100
0010
0001
0000
,
0200
0000
0300
0000
0010
0100
0001
0000
,
0020
0000
0030
0000
0100
1000
0010
0000
,
0200
0000
0300
0000
0010
1000
0100
0010
,
0100
0200
0000
0010
0000
0310
0000
0001
,
1000
2000
0000
0010
0000
3010
0000
0100
,
0002
0023
2030
3020
,
0032
0203
2300
3100
,
1001
0000
0000
0000
;

//---------------dance-single - ----------------
#NOTEDATA:;
#CHARTNAME:;
#STEPSTYPE:dance-single;
#DESCRIPTION:;
#CHARTSTYLE:;
#DIFFICULTY:Hard;
#METER:11;
#RADARVALUES:0.522114,0.561200,0.234152,0.173069,0.000000,359.000000,336.000000,23.000000,17.000000,0.000000,0.000000,0.000000,0.000000,0.000000,0.522114,0.561200,0.234152,0.173069,0.000000,359.000000,336.000000,23.000000,17.000000,0.000000,0.000000,0.000000,0.000000,0.000000;
#CREDIT:;
#DISPLAYBPM:154.000000:155.000000;
#NOTES:
0000
0000
0000
0000
,
0000
0000
0000
0000
,
0000
0000
0000
0000
,
0000
0000
0000
0000
,
0000
0000
0000
0000
,
0010
1001
0010
0101
,
0010
1100
0010
1001
,
0100
1001
0100
1010
,
0100
0011
0100
1001
,
0220
0000
0330
0100
0001
0010
0100
1000
,
0100
0100
0000
0010
0100
1000
0010
0100
,
0001
0001
0000
0010
0001
0100
0010
1000
,
0100
0100
0000
1000
0010
0100
0001
0010
,
0001
0001
0000
1000
0001
0100
0010
1000
,
0100
0100
0000
0010
0001
1000
0100
0010
,
0001
0001
0000
0100
0010
1000
0001
0100
,
0010
0010
0000
1000
0010
0100
0001
1000
,
0001
0001
0000
0001
0010
0010
0100
1000
,
0100
0100
0000
0100
1000
1000
0010
0100
,
0001
0001
0000
0001
0100
0100
1000
0100
,
0010
0010
0000
0010
0100
0100
0010
1000
,
0001
0001
0000
0001
1000
1000
0001
0010
,
0001
0001
0000
0001
0010
0010
0100
1000
,
0001
0001
1000
1000
0001
0001
1000
1000
,
0001
0001
1000
1000
0010
0010
0100
0100
,
2002
0000
3000
0000
0010
0000
0103
0001
,
0020
0000
0000
0000
1000
0000
0130
1000
,
0020
0000
0000
0000
0001
0000
0130
0001
,
2000
0000
0000
0000
0100
0000
3001
0100
,
2000
0000
0000
0000
0001
0000
3100
0010
,
0002
0000
0000
0000
1000
0000
0013
1000
,
0200
0000
0000
0000
0001
0000
0310
0001
,
0200
0000
0000
0000
0010
0000
0301
0010
,
0200
0000
0000
0000
1000
1000
1000
1300
,
0002
0000
0000
0000
0010
0010
0010
0013
,
2000
0000
0000
0000
0010
0010
0010
3010
,
0002
0000
0000
0000
1000
1000
1000
1003
,
0001
0000
1100
0000
0001
0100
1000
0100
,
0010
0000
0101
0000
1000
0100
0001
0100
,
0010
0000
1010
0000
0001
0010
1000
0010
,
0100
0000
0011
0000
1000
0010
0001
0010
,
0100
0000
0001
0000
0100
0001
0010
1000
,
0001
0000
0100
0000
1000
0010
0001
1000
,
0100
0000
0001
0000
0010
1000
0001
0100
,
1000
0000
0010
0000
0001
1000
0100
0001
,
0010
0000
0100
0000
1000
0010
0001
0010
,
1000
0000
0100
0000
0001
0100
1000
0100
,
0010
0000
0001
0000
0100
1000
0100
0001
,
0010
0000
0001
0000
1000
0010
0001
0010
,
1000
0000
0101
0000
0010
1000
0100
1000
,
0001
0000
1100
0000
0010
0001
0100
0001
,
1000
0000
0011
0000
0100
1000
0010
1000
,
0001
0000
1010
0000
0100
0001
0010
0001
,
1000
1000
1100
0000
0001
0010
0100
1000
,
0001
0001
0101
0000
1000
0010
0100
0001
,
0010
0010
1001
0000
0001
0010
0100
1000
,
0010
0010
1001
0000
0100
0100
0100
0100
,
0001
0010
0000
0010
0100
1000
0100
0001
,
0100
0100
0000
0100
0010
0001
0100
0010
,
1000
1000
0010
0010
0100
0100
0001
0001
,
0010
0010
0100
0100
1000
1000
0001
0001
,
2002
3003
0000
0000
;

//---------------dance-double - ----------------
#NOTEDATA:;
#CHARTNAME:;
#STEPSTYPE:dance-double;
#DESCRIPTION:;
#CHARTSTYLE:;
#DIFFICULTY:Easy;
#METER:5;
#RADARVALUES:0.205064,0.314323,0.061083,0.244332,0.000000,141.000000,135.000000,6.000000,24.000000,0.000000,0.000000,0.000000,0.000000,0.000000,0.205064,0.314323,0.061083,0.244332,0.000000,141.000000,135.000000,6.000000,24.000000,0.000000,0.000000,0.000000,0.000000,0.000000;
#CREDIT:;
#DISPLAYBPM:154.000000:155.000000;
#NOTES:
00000000
00000000
00000000
00000000
,
00000000
00000000
00000000
00000000
,
00000000
00000000
00000000
00000000
,
00000000
00000000
00000000
00000000
,
00000000
00000000
00000000
00000000
,
10000000
00000000
00010000
00010000
,
00000000
00000000
00100000
00100000
,
00000000
00000000
00001000
00001000
,
00020000
00030000
00002000
00003000
,
00010000
00010000
00000000
00000000
,
00000100
00000100
00000000
00001000
,
00000001
00000001
00000000
00000000
,
00001000
00001000
00000000
00000010
,
00000100
00000100
00000000
00000000
,
00001000
00001000
00000000
00010000
,
00100000
00100000
00000000
00000000
,
01000000
01000000
00000000
00010000
,
10000000
00000000
20000000
30000000
,
00010000
00000000
02000000
03000000
,
00010000
00000000
00200000
00300000
,
00001000
00010000
00001000
00000000
,
00000100
00000000
00000002
00000003
,
00001000
00000000
00000200
00000300
,
00000010
00000000
00000100
00000000
,
00001000
00000001
00001000
00000001
,
00002002
00000000
00000000
00003003
,
00000200
00000000
00000000
00000300
,
00002000
00000000
00000000
00003000
,
00020000
00000000
00000000
00030000
,
00200000
00300000
01000000
00000000
,
00200000
00300000
00010000
00000000
,
00200000
00300000
10000000
00000000
,
02000000
03000000
00010000
00000000
,
00011000
00000000
00001000
00001000
,
00000100
00000000
00000010
00000010
,
00000100
00000000
00000001
00000001
,
00000100
00000000
00001000
00000000
,
00011000
00000000
00010000
00010000
,
00100000
00000000
01000000
01000000
,
00100000
00000000
10000000
10000000
,
00100000
00000000
00010000
00000000
,
00011000
00000000
00001000
00000000
,
00000010
00000000
00000001
00000010
,
00000200
00000300
00001000
00000000
,
00000010
00000000
00000001
00000010
,
00000200
00000300
00001000
00000000
,
00020000
00030000
00100000
00000000
,
20000000
30000000
01000000
00000000
,
00020000
00030000
00002000
00003000
,
00011000
00000000
00010000
00000000
,
00001000
00000000
00000100
00000100
,
00000001
00000000
00000100
00000100
,
00001000
00000000
00010000
00001000
,
00010000
00000000
01000000
00000000
,
10000000
00000000
00100000
00100000
,
01000000
00000000
00100000
00100000
,
00010000
00000000
00001000
00010000
,
00001000
00000000
00000000
00000100
,
00000001
00000000
00000000
00000100
,
00001000
00000100
00000001
00000100
,
00001000
00010000
00001000
00010000
,
00022000
00000000
00000000
00033000
;

//---------------dance-double - ----------------
#NOTEDATA:;
#CHARTNAME:;
#STEPSTYPE:dance-double;
#DESCRIPTION:;
#CHARTSTYLE:;
#DIFFICULTY:Medium;
#METER:8;
#RADARVALUES:0.357772,0.434707,0.223971,0.427581,0.000000,246.000000,224.000000,22.000000,42.000000,0.000000,0.000000,0.000000,0.000000,0.000000,0.357772,0.434707,0.223971,0.427581,0.000000,246.000000,224.000000,22.000000,42.000000,0.000000,0.000000,0.000000,0.000000,0.000000;
#CREDIT:;
#DISPLAYBPM:154.000000:155.000000;
#NOTES:
00000000
00000000
00000000
00000000
,
00000000
00000000
00000000
00000000
,
00000000
00000000
00000000
00000000
,
00000000
00000000
00000000
00000000
,
00000000
00000000
00000000
00000000
,
00000010
00000000
00000100
00000010
00000010
00000000
00001000
00000000
,
00000100
00000000
00001000
00000100
00000100
00000000
00000010
00000000
,
00000001
00001000
00000200
00000000
00000300
00000000
00010000
00000000
,
00001000
00100000
00020000
00000000
00030000
00000000
10000000
00000000
,
00010000
10000000
00000000
10000000
00010000
00000000
00100000
00000000
,
01000000
10000000
00000000
10000000
01000000
00000000
00010000
00000000
,
00001000
00010000
00000100
00000000
00001000
00000000
00000100
00000000
,
00010000
00001000
00100000
00000000
00010000
00000000
00100000
00000000
,
00001000
00010000
00000000
00010000
00001000
00000000
00000100
00000000
,
00000010
00000100
00000000
00000100
00000010
00000000
00001000
00000000
,
00000010
00000100
00000001
00000000
00000100
00000000
00000001
00000000
,
00000010
00000100
00001000
00000000
00000100
00000000
00001000
00000000
,
00000100
00010000
00000000
00002000
00000000
00000000
00003000
00000000
,
01000000
00010000
00000000
20000000
00000000
00000000
30000000
00000000
,
00100000
01000000
00000000
00020000
00000000
00000000
00030000
00000000
,
00100000
00001000
00000000
00020000
00000000
00000000
00030000
00001000
,
00010000
00001000
00000000
00000200
00000000
00000000
00000300
00000001
,
00000100
00000001
00000000
00000020
00000000
00000000
00000030
00000100
,
00010000
00000000
00001000
00010000
00000000
00001000
00100000
00000000
,
00010000
01000000
00000000
00100000
10000000
00000000
01000000
00100000
,
02000000
00000000
03000000
10010000
,
00200000
00000000
00300000
00011000
,
00002000
00000000
00003000
00000110
,
00000002
00000000
00001003
00001001
,
00000001
00000011
00000010
00001010
,
00001000
00011000
00010000
00110000
,
00100000
10100000
10000000
11000000
,
01000000
01100000
00100000
00110000
,
00020000
00000000
10030000
00100000
,
00020000
00000000
00130000
00010000
,
00002000
00000000
00013000
00001000
,
00000200
00000000
00000300
00000000
00000001
00000001
00001000
00001000
,
00000200
00000000
00000310
00000001
,
00000200
00000000
00000301
00000100
,
00002000
00000000
00003100
00001000
,
00020000
00000000
00000000
00000000
00031000
00001000
00010000
00010000
,
00200000
00000000
10300000
01000000
,
00200000
00000000
00310000
01000000
,
00002000
00000000
00013000
00000100
,
00002000
00000000
00003000
00000000
00000010
00000010
00000100
00000100
,
00000001
00000011
00000010
00000110
,
00000100
00011000
00000100
00011000
,
00010000
01010000
01000000
11000000
,
10000000
00110000
10000000
00110000
,
20020000
00000000
30030000
00000000
00100000
00010000
01000000
00000000
,
20000000
00000000
30000000
00000000
01000000
00010000
00100000
00000000
,
00002000
00000000
00003000
00000000
00010000
00000100
00001000
00000000
,
00000020
00000000
00000030
00000000
00000100
00000001
00000010
00000001
,
00000200
00000000
00000300
00000000
00000010
00001000
00000100
00000000
,
00000002
00000000
00000003
00000000
00000100
00001000
00000010
00000000
,
00020000
00000000
00030000
00000000
00001000
01000000
00010000
00000000
,
00200000
00000000
00300000
00000000
01000000
10000000
00100000
10000000
,
01000000
20000000
00000000
00000000
00000000
30010000
00000000
01000000
,
00100000
00020000
00000000
00000000
00000000
00031000
00000000
00010000
,
00002000
00003200
00000320
00000230
,
00002300
00023000
00230000
01300000
,
01100000
00000000
00000000
00000000
;

//---------------dance-double - ----------------
#NOTEDATA:;
#CHARTNAME:;
#STEPSTYPE:dance-double;
#DESCRIPTION:;
#CHARTSTYLE:;
#DIFFICULTY:Hard;
#METER:10;
#RADARVALUES:0.530840,0.561200,0.254513,0.203610,0.000000,365.000000,340.000000,25.000000,20.000000,0.000000,0.000000,0.000000,0.000000,0.000000,0.530840,0.561200,0.254513,0.203610,0.000000,365.000000,340.000000,25.000000,20.000000,0.000000,0.000000,0.000000,0.000000,0.000000;
#CREDIT:;
#DISPLAYBPM:154.000000:155.000000;
#NOTES:
00000000
00000000
00000000
00000000
,
00000000
00000000
00000000
00000000
,
00000000
00000000
00000000
00000000
,
00000000
00000000
00000000
00000000
,
00000000
00000000
00000000
00000000
,
00100000
00011000
01000000
00011000
,
00000010
00011000
00000100
00011000
,
00100000
10010000
01000000
00011000
,
00000010
00001001
00000100
00011000
,
00022000
00000000
00033000
00000000
00010000
01000000
10000000
00010000
,
10000000
10000000
00000000
00100000
00010000
00100000
10000000
00010000
,
10000000
10000000
00000000
01000000
00010000
00001000
00000100
00000010
,
00000100
00000100
00000000
00001000
00010000
01000000
00010000
00001000
,
00010000
00010000
00000000
00000100
00001000
00000010
00000100
00000001
,
00001000
00001000
00000000
00000001
00000100
00000010
00001000
00000100
,
00001000
00001000
00000000
00000100
00010000
00001000
00100000
00010000
,
00100000
00100000
00000000
01000000
00100000
01000000
00010000
00001000
,
00010000
00010000
00000000
00001000
00000100
00000100
00000001
00000100
,
00000010
00000010
00000000
00001000
00000010
00000010
00001000
00000100
,
00010000
00010000
00000000
00001000
01000000
01000000
00100000
10000000
,
00100000
00100000
00000000
10000000
01000000
01000000
00100000
00010000
,
00100000
00100000
00000000
00001000
00010000
00010000
00000010
00000100
,
00000010
00000010
00000000
00001000
00000001
00000001
00000100
00000010
,
00001000
00000100
00000100
00000100
00010000
00010000
00010000
00001000
,
00001000
00001000
01000000
01000000
01000000
00100000
00100000
00100000
,
10010000
00000000
01000000
00000000
10010000
00000000
00100000
00010000
,
02000000
00000000
00100000
00000000
03010000
00000000
01000000
00001000
,
00011000
00000000
00100000
00000000
00011000
00000000
00000100
00001000
,
00000020
00000000
00000100
00000000
00001030
00000000
00000010
00010000
,
00011000
00000000
00000010
00000000
00011000
00000000
01000000
00100000
,
00010000
00000000
10010000
00000000
01000000
00000000
00100000
10000000
,
01000000
00000000
00110000
00000000
01000000
00000000
00010000
00001000
,
00000100
00000000
00000101
00000000
00001000
00000000
00000001
00000010
,
00002000
00000000
00000000
00003000
00010000
00001000
00010000
00001000
,
02000000
00000000
00000000
03000000
00100000
01000000
00100000
01000000
,
00002000
00000000
00000000
00003000
00010000
00001000
00010000
00001000
,
00000200
00000000
00000000
00000300
00000010
00000100
00000010
00000100
,
00000002
00000000
00002003
00000000
00003010
00001000
00000100
00000010
,
00002000
00000000
00023000
00000000
00031000
00010000
00100000
01000000
,
00020000
00000000
20030000
00000000
31000000
10000000
00100000
01000000
,
20000000
00000000
32000000
00000000
03100000
00010000
00001000
00000100
,
00000020
00000000
00000032
00000000
00000013
00001000
00000100
00000010
,
00000001
00000000
00000000
00000000
00000100
00001000
00010000
00100000
,
10000000
00000000
00000000
00000000
00001000
00010000
00100000
01000000
,
10000000
00000000
00000000
00000000
01000000
00010000
00001000
00000010
,
00000001
00000000
00001000
00000000
00010000
00001000
00000010
00000100
,
00000001
00000000
00001000
00000000
00000100
00001000
00010000
01000000
,
10000000
00000000
00010000
00000000
00001000
00010000
00100000
01000000
,
10000000
00000000
00010000
00000000
01000000
00100000
00010000
00001000
,
00000100
00000000
00000101
00000000
00000010
00000100
00000001
00000010
,
00000100
00000000
00001100
00000000
00010000
00001000
00100000
00010000
,
01000000
00000000
10100000
00000000
01000000
00010000
00100000
01000000
,
10000000
00000000
11000000
00000000
00100000
00010000
01000000
00001000
,
00010000
00010000
00010000
00000000
00001000
00010000
00000100
00001000
,
00000010
00000010
00001001
00000000
00000001
00000010
00000001
00000100
,
00001000
00001000
00001000
00000000
00010000
00001000
00100000
00010000
,
01000000
01000000
10010000
00000000
00100000
00100000
00100000
00100000
,
10000000
00010000
00000000
10000000
00010000
10000000
01000000
00010000
,
00001000
00001000
00000000
00010000
00001000
00000100
00000001
00001000
,
00000100
00000100
00010000
00010000
00001000
00001000
01000000
01000000
,
00001000
00001000
00010000
00010000
00000010
00000010
00010000
00010000
,
00022000
00033000
00000000
00000000
;

//---------------dance-single - ----------------
#NOTEDATA:;
#CHARTNAME:;
#STEPSTYPE:dance-single;
#DESCRIPTION:;
#CHARTSTYLE:;
#DIFFICULTY:Challenge;
#METER:13;
#RADARVALUES:0.677731,0.745213,0.244332,0.509025,0.412310,466.000000,442.000000,24.000000,50.000000,0.000000,0.000000,0.000000,0.000000,0.000000,0.677731,0.745213,0.244332,0.509025,0.412310,466.000000,442.000000,24.000000,50.000000,0.000000,0.000000,0.000000,0.000000,0.000000;
#CREDIT:;
#DISPLAYBPM:154.000000:155.000000;
#NOTES:
// measure 0
0000
0000
0000
0000
,  // measure 1
0000
0000
0000
0000
,  // measure 2
0000
0000
0000
0000
,  // measure 3
0000
0000
0000
0000
,  // measure 4
0000
0000
0000
0000
,  // measure 5
0010
0000
1001
0100
1000
0000
0101
0000
,  // measure 6
0010
0000
0000
0000
1100
0000
0001
0100
0001
0100
0000
0000
0110
0000
1000
0000
,  // measure 7
0100
0000
0000
0000
0011
0000
1000
0010
1000
0010
0000
0000
1010
0000
0001
0000
,  // measure 8
0100
0000
0000
0000
0110
0000
0000
0010
1000
0010
0000
0000
1000
0001
1000
0001
,  // measure 9
1000
0010
1000
0100
0001
0100
0010
0100
,  // measure 10
0010
0001
0100
1000
0100
0010
0100
1000
,  // measure 11
0100
0010
1000
0001
0010
0100
1000
0010
,  // measure 12
0001
0010
1000
0100
0010
0100
0010
0001
,  // measure 13
0100
1000
0100
0010
0100
1000
0100
0001
,  // measure 14
0010
0100
1000
0010
0001
0010
0100
0010
,  // measure 15
0001
0010
1000
0001
1000
0100
0001
0100
,  // measure 16
1000
0010
0100
0010
1000
0001
0010
0100
,  // measure 17
1000
0020
0000
0230
0000
0301
0010
0002
,  // measure 18
0000
2003
0000
3200
0000
1300
0010
0200
,  // measure 19
0000
0302
0000
2003
0000
3001
1000
0200
,  // measure 20
0000
0320
0000
0032
0000
1003
0001
0020
,  // measure 21
0000
0230
0000
2300
0000
3010
1000
0002
,  // measure 22
0000
2003
0000
3020
0000
0130
0001
2000
,  // measure 23
0000
0010
0010
0010
0010
0010
0010
3010
,  // measure 24
1000
0000
1000
0000
0001
0000
0001
0000
1000
0000
1000
0000
0001
0000
0001
0100
,  // measure 25
0001
0000
0000
0010
0000
0000
0100
0000
1000
0001
0000
1000
0100
0000
0000
0000
,  // measure 26
1000
0000
0000
0010
0000
0000
0100
0000
0010
1000
0000
0001
0100
0000
0000
0000
,  // measure 27
0001
0000
0000
1000
0000
0000
0100
0000
1000
0010
0000
0100
0010
0000
0000
0000
,  // measure 28
0100
0000
0000
0001
0000
0000
1000
0000
0001
0010
0000
0001
1000
0000
0000
0000
,  // measure 29
0010
0000
0000
1000
0000
0000
0001
0000
0010
0100
0000
1000
0001
0000
0000
0000
,  // measure 30
1000
0000
0000
0001
0000
0000
0010
0000
0100
0010
0000
0001
1000
0000
0000
0000
,  // measure 31
0010
0000
0000
0100
0000
0000
0010
0000
1000
0001
0000
1000
0100
0000
0000
0000
,  // measure 32
0010
0000
0000
0001
0000
0000
0100
0000
0001
1000
0000
1000
0100
0000
0000
0000
,  // measure 33
2200
0000
0000
0000
3000
0000
0000
0000
1300
0010
1000
0010
1000
0000
0001
0000
,  // measure 34
0022
0000
0000
0000
0030
0000
0000
0000
0103
0001
0100
0001
0100
0000
0010
0000
,  // measure 35
2020
0000
0000
0000
0030
0000
0000
0000
3100
1000
0100
1000
0100
0000
0010
0000
,  // measure 36
0220
0000
0000
0000
0300
0000
0000
0000
0031
1000
0001
1000
0001
0000
0100
0000
,  // measure 37
0202
0000
0000
0000
0003
0000
0000
0000
0301
0010
0001
0010
0001
0000
1000
0000
,  // measure 38
2002
0000
0000
0000
0003
0000
0000
0000
3010
0100
0010
0100
0010
0000
1000
0000
,  // measure 39
2200
0000
0000
0000
0300
0000
0000
0000
3001
0100
0001
0100
0001
0000
0010
0000
,  // measure 40
0022
0000
0000
0000
0003
0000
0000
0000
0031
1000
0001
1000
0001
0000
0100
0000
,  // measure 41
0020
0000
1000
0000
1030
0000
0000
0000
0001
0010
0001
0010
0001
0000
0100
0000
,  // measure 42
0020
0000
0100
0000
0130
0000
0000
0000
0010
1000
0010
1000
0010
0000
0100
0000
,  // measure 43
0002
0000
0010
0000
0013
0000
0000
0000
1000
0001
1000
0001
1000
0000
0100
0000
,  // measure 44
0020
0000
0001
0000
0031
0000
0000
0000
0100
0001
0100
0001
0100
0000
0010
0000
,  // measure 45
2000
0000
0001
0000
3001
0000
0100
0000
0010
1000
0010
1000
0010
0000
0100
0000
,  // measure 46
0002
0000
0010
0000
0013
0000
0100
0000
1000
0010
1000
0010
1000
0000
0001
0000
,  // measure 47
0200
0000
0001
0000
0301
0000
1000
0000
0010
0100
0010
0100
0010
0000
1000
0000
,  // measure 48
0200
0000
1000
0000
1300
0000
0001
0000
0100
0010
0100
0010
0100
0000
0001
0000
,  // measure 49
0012
0000
1000
0000
1003
0000
0010
0000
0100
0001
0100
0001
0100
0000
0010
0000
,  // measure 50
0120
0000
1000
0000
1030
0000
0100
0000
1000
0001
1000
0001
1000
0000
0010
0000
,  // measure 51
2010
0000
0100
0000
3100
0000
1000
0000
0001
0010
0001
0010
0001
0000
1000
0000
,  // measure 52
2001
0000
0010
0000
3010
0000
0100
0000
0001
0010
0001
0010
0001
0000
1000
0000
,  // measure 53
1200
0000
1000
0000
1300
0000
0010
0000
0100
0001
0100
0001
0100
0000
0010
0000
,  // measure 54
2010
0000
0001
0000
3001
0000
0010
0000
0100
1000
0100
1000
0100
0000
0010
0000
,  // measure 55
0021
0000
0001
0000
0031
0000
0100
0000
0010
1000
0010
1000
0010
0000
0100
0000
,  // measure 56
0201
0000
0010
0000
0310
0000
0100
0000
0001
0010
0001
0010
0001
0000
1000
0000
,  // measure 57
0001
0100
0010
1000
0100
0010
0001
1000
,  // measure 58
0001
0010
0100
1000
0010
0100
0001
1000
,  // measure 59
0001
0010
0100
0010
0100
1000
0010
0100
,  // measure 60
0010
1000
0100
0010
0001
0100
0001
1000
,  // measure 61
1001
0000
0000
0000
;
