#TITLE:EYES OF DESPAiR;
#SUBTITLE:;
#ARTIST:iNFECTiON;
#TITLETRANSLIT:;
#SUBTITLETRANSLIT:;
#ARTISTTRANSLIT:;
#GENRE:;
#CREDIT:;
#BANNER:EYES OF DESPAiR-bn.png;
#BACKGROUND:EYES OF DESPAiR-bg.png;
#LYRICSPATH:;
#CDTITLE:;
#MUSIC:EYES OF DESPAiR.ogg;
#OFFSET:0.000000;
#SAMPLESTART:87.599998;
#SAMPLELENGTH:20.000000;
#SELECTABLE:YES;
#DISPLAYBPM:200.000000;
#BPMS:0.000000=200.000000
;
#STOPS:34.000000=0.038000,
34.125000=0.038000,
34.250000=0.038000,
34.375000=0.038000,
34.500000=0.038000,
34.625000=0.038000,
34.750000=0.038000,
34.875000=0.038000,
97.000000=0.038000,
97.125000=0.038000,
97.250000=0.038000,
97.375000=0.038000,
97.500000=0.038000,
97.625000=0.038000,
97.750000=0.038000,
97.875000=0.038000,
158.000000=0.225000,
158.250000=0.225000,
158.500000=0.225000,
158.750000=0.038000,
158.875000=0.038000,
159.000000=0.038000,
159.125000=0.038000,
166.250000=0.225000,
172.500000=0.225000,
172.750000=0.038000,
172.875000=0.038000,
173.000000=0.038000,
173.125000=0.038000,
180.250000=0.225000,
186.500000=0.225000,
186.750000=0.038000,
186.875000=0.038000,
187.000000=0.038000,
187.125000=0.038000,
194.250000=0.225000,
200.500000=0.225000,
200.750000=0.038000,
200.875000=0.038000,
201.000000=0.038000,
201.125000=0.038000,
208.250000=0.225000,
214.500000=0.038000,
214.625000=0.038000,
214.750000=0.038000,
214.875000=0.038000,
215.000000=0.038000,
215.125000=0.038000,
215.250000=0.038000,
215.375000=0.038000,
275.500000=0.225000,
275.750000=0.225000,
276.000000=0.225000,
276.250000=0.038000,
276.375000=0.038000,
276.500000=0.038000,
276.625000=0.038000,
368.750000=0.038000,
368.875000=0.038000,
369.000000=0.038000,
369.125000=0.038000,
369.250000=0.038000,
369.375000=0.038000,
369.500000=0.038000,
369.625000=0.038000,
369.750000=0.075000,
370.000000=0.038000,
370.125000=0.038000,
370.250000=0.038000,
370.375000=0.038000,
370.500000=0.038000,
370.625000=0.038000
;
#BGCHANGES:;
#KEYSOUNDS:;
#ATTACKS:;

//---------------dance-single - ----------------
#NOTES:
     dance-single:
     :
     Hard:
     19:
     1.157252,1.475550,0.416657,0.080126,1.562462,1011.000000,959.000000,52.000000,10.000000,0.000000,0.000000,1.157252,1.475550,0.416657,0.080126,1.562462,1011.000000,959.000000,52.000000,10.000000,0.000000,0.000000:
0000
0000
0000
0000
,
0000
0000
0000
0000
,
0000
0000
0000
0000
,
0000
0000
0000
0000
,
0000
0000
0000
0000
,
1001
0100
0010
0100
1001
0010
0100
0010
,
1001
0100
1001
0010
1001
0100
1001
0010
,
1000
1000
0100
0100
0010
0010
0001
0001
,
1000
0000
0010
0000
1000
0000
0010
0000
0100
0000
0010
0000
0100
0000
0010
0000
1000
0001
0100
0001
1000
0001
0100
0001
1000
0000
0000
0000
0010
0000
0100
0000
,
0001
0000
0010
0000
0100
1000
0001
0000
0100
0000
0001
0000
0010
0000
0001
1000
,
0100
0000
1000
0000
0010
0100
0001
0000
1000
0000
0010
0000
0100
0000
0010
1000
,
0001
0000
0010
0000
0100
1000
0010
0000
1000
0000
0001
0000
0100
0000
0010
1000
,
0001
0000
0010
0000
0110
0000
0110
0000
0110
0000
0110
0000
0110
0000
0100
1000
,
0010
0000
0100
0000
0001
1000
0010
0000
1000
0001
0100
0000
0001
0000
0010
0100
,
1000
0000
0001
0000
0100
0010
1000
0000
0100
0010
0001
0000
0010
0000
0001
1000
,
0010
0000
1000
0000
0100
1000
0010
0000
0100
0001
0100
0000
0001
0000
0001
0000
,
1000
0000
1000
0000
0010
1000
0100
0010
0100
1000
0001
0100
0010
0000
1000
0000
,
0100
0001
0100
1000
0010
0100
0010
0001
,
0010
0001
0010
1000
0100
0001
1000
0010
,
0001
0010
0100
0010
1000
0010
0001
0100
,
0010
0000
0001
0000
0010
0000
1000
0000
0100
0000
0010
0000
0001
0100
0001
0100
,
0001
0000
0010
0000
0100
0000
1000
0000
0010
0000
0100
0000
0010
1000
0010
1000
,
0010
0000
0100
0000
0001
0000
0010
0000
0100
0000
1000
0000
0010
0100
0010
0100
,
0010
0000
1000
0000
0001
0100
0001
0100
0001
0000
1000
0000
0001
0010
0001
0010
,
0001
0000
0100
0000
0001
0000
0100
0000
0010
1000
0100
1000
0010
1000
0100
1000
0010
0000
0000
0000
0100
0000
0000
0000
0101
0000
0000
0000
0001
0000
0000
0000
,
0010
0100
1100
1000
0010
1000
1010
0001
,
0010
0100
0110
0010
0001
0100
0101
0001
,
0010
0100
1100
1000
0010
1000
1001
0001
,
0010
0000
0100
0000
1000
0010
0100
0010
1000
0000
0001
0000
0011
0000
0010
0000
,
0100
1000
1010
0010
1000
0100
0110
0010
,
0001
1000
1001
0001
0010
0001
0011
0010
,
0001
1000
1010
0010
0100
0010
0110
0100
,
0001
0010
0001
0000
0100
0010
1000
0001
0010
0100
1000
0000
1001
0000
0001
0000
,
1000
0010
0100
0000
0101
0000
0001
0000
0010
0001
1000
0000
1100
0000
0100
0000
,
1000
0010
0100
0001
0010
0100
1000
0000
0010
1000
0001
0000
0101
0000
0100
0000
,
0001
0010
0100
0000
1100
0000
1000
0000
0010
0100
0001
0000
1001
0000
1000
0000
,
0001
0010
0100
1000
0010
1000
0001
0100
0001
1000
0010
0000
0110
0000
0100
0000
,
0010
1000
0001
0000
0101
0000
0100
0000
0010
0100
1000
0000
1001
0000
0001
0000
,
0010
0001
0100
0001
1000
0010
1000
0100
0010
0000
0001
0100
0001
0000
1000
0100
,
1000
0000
0000
0000
0001
0000
0010
0000
0001
0000
0000
0000
1000
0000
0010
0000
2000
0000
3200
0000
0320
0000
0031
1000
0001
1000
0001
0000
0000
0000
0000
0000
,
0010
0100
0000
1000
0000
1010
0000
0000
0010
0100
0000
0001
0000
0011
0000
0000
,
0001
1000
0000
0100
0000
1000
0000
0010
0000
1001
0110
0000
0000
0010
0100
0000
,
0001
0000
1001
0000
0000
0100
0010
0000
1000
0000
0010
1000
0010
0100
0010
1000
,
0010
0000
0100
0000
0002
0000
0013
0100
1000
0001
0100
0000
0000
0000
0000
0000
0001
0000
1000
0000
0000
0000
0010
0000
0000
0000
0110
0000
0000
0000
0000
0000
,
0100
0001
0000
0010
0000
0011
0000
0000
0001
1000
0000
0100
0000
0010
0000
0100
,
0000
1001
0110
0000
0000
0010
1000
0000
0100
0000
1100
0000
0000
1000
0001
0000
,
0010
0000
0000
0000
0001
0000
1000
0000
0010
0000
1000
0000
0100
0000
0010
0000
0001
0000
0100
0000
0020
0000
1030
0001
0010
0100
1000
0000
0000
0000
0010
0000
,
0100
0001
0000
1000
0000
0001
0000
1000
0010
0100
0000
0001
0000
1000
0000
0100
,
1000
0010
0000
0100
0000
0001
0010
1000
0000
0101
1100
0000
0010
0100
0001
0000
,
1000
0000
0001
0000
0010
0001
1000
0000
0100
0000
1000
0010
0001
0010
1000
0100
,
0001
0000
0100
0000
2000
0000
3001
1000
0010
1000
0100
0000
0000
0000
1000
0000
0010
0000
1000
0000
0000
0000
0001
0000
0010
0000
0001
0000
0000
0000
1000
0000
,
0100
1000
0000
0001
0100
0001
0000
0010
0100
1000
0000
0010
0100
0001
0000
1000
,
0000
0110
1001
0000
1000
0100
0010
0000
0001
1000
0010
0000
1000
0001
0100
0000
,
0001
0000
0010
0000
0001
0000
0010
0000
0100
0000
1000
0000
0010
0000
1000
0000
0001
0000
0100
0000
0001
0010
1000
0010
0001
0100
1000
0100
0001
0000
0000
0000
,
0010
0000
0100
0000
1000
0000
0001
0000
1000
0000
0010
0000
0000
0100
0000
0000
,
0000
0000
0000
0010
1000
0001
0100
0001
,
1000
0000
0100
0000
0010
0000
0100
0000
1000
0000
0001
0000
0000
0010
0000
0000
,
0000
0000
0000
0001
0100
0010
1000
0010
,
1000
0000
0001
0000
0100
0000
0001
0000
0010
0000
0100
0000
0000
1000
0000
0000
,
0000
0000
0000
1000
0010
0100
0001
1000
,
0100
0000
0010
0000
0001
0000
0100
0000
0010
0000
1000
0000
0000
0001
0000
0000
,
0000
0000
0000
0010
0001
1000
0100
1001
,
0010
0000
0100
0000
0001
0000
0010
0000
0100
0000
1000
0000
0001
0100
0001
0000
,
0000
0001
0000
0001
0010
0100
1000
1001
,
0010
0000
1000
0000
0001
0000
0010
0000
0100
0000
1000
0000
0010
0100
0010
0000
,
0000
0010
0000
0010
0100
0001
1000
1001
,
0010
1000
0001
0010
0100
1000
0010
0100
,
0001
0000
1000
0000
0001
0000
0010
0000
0100
0000
1000
0000
0001
0000
0010
0001
,
0010
0001
0100
0010
1000
0100
1000
0001
0010
0001
1000
0010
1000
0100
2000
3002
,
0203
0000
0310
0100
0010
0100
0010
0000
0000
0000
1000
0000
0000
0000
0001
0000
0000
0000
1000
0000
0000
0000
0100
0000
0000
0000
0010
0000
0000
0000
0001
0000
,
0100
0010
1000
0100
0000
0010
0000
0100
0000
1000
0000
0010
1000
0010
0100
0001
,
1000
0001
0010
0001
0000
0010
0000
0100
0000
1000
0000
0010
1000
0001
0010
0100
,
0010
0001
0100
0010
0000
0100
0000
0001
0000
0010
0100
1000
0001
1000
0010
1000
,
0100
0010
0001
1000
0000
0010
0000
1000
0000
0100
0000
0010
0000
0001
0000
0100
,
0010
1000
0100
0010
0000
0001
0000
1000
0000
0010
0000
0100
0010
1000
0100
0010
,
0100
1000
0001
0010
0000
0001
0000
1000
0001
0010
0100
1000
0000
0010
0000
1000
,
0001
1000
0100
0010
0001
0100
0001
1000
0100
0010
0100
1000
0010
1000
0001
0010
,
1000
0010
0001
0100
0000
0001
0010
0001
0000
1000
0010
1000
0000
0001
0100
0001
,
0010
0100
1000
0010
0000
1000
0100
1000
0000
0001
0100
0001
0010
0100
0010
0100
,
1000
0001
0100
0010
0000
1000
0100
1000
0000
0001
0000
0010
0000
0100
0010
0100
,
0000
1000
0000
0001
0000
0010
0001
0100
0000
0010
0000
1000
0001
0010
0001
1000
,
0010
0100
0001
1000
0000
0010
0000
1000
0000
0100
0010
0001
0100
0010
0100
1000
,
0100
0010
0100
0001
0000
0010
0000
0001
0000
1000
0001
0100
1000
0100
0010
0100
,
0001
0100
0010
1000
0000
1000
0000
0001
0000
0001
0000
0010
0000
0010
0000
0100
,
0000
0100
0000
0110
0000
0010
0001
0100
0000
0010
1000
0100
0001
0100
0001
0100
,
1000
0010
0001
0010
1000
0001
0100
0001
0100
0001
0100
0001
0100
0001
0100
0001
,
0100
0001
0100
0001
0100
0001
0000
0010
0100
1000
0000
0010
0100
0001
1000
0001
,
1000
0010
0100
0010
0100
0010
1000
0010
1000
0010
1000
0010
1000
0001
0100
0001
,
0100
0001
0100
0001
0100
0001
0010
0100
1000
0010
0100
0001
1000
0001
1000
0100
,
0010
0100
1000
0010
0100
0001
0010
0001
0010
0001
0010
0001
0010
0001
0010
0001
,
0010
0001
0010
0001
0010
0001
0000
0100
0010
1000
0100
1000
0010
0100
0000
0001
,
1000
0001
0010
0100
1000
0010
0100
0001
0010
0001
1000
0010
1000
0100
0010
0100
,
1000
0000
0010
0000
0100
0000
0001
1000
0010
1000
0100
0010
0001
0100
0001
0000
0010
1000
0010
0100
0010
0001
0020
0000
0000
0000
0000
0000
0000
0000
0000
0000
,
0000
0000
0000
0000
,
0000
0000
0000
0000
0000
0000
0000
0030
0000
0000
0000
0000
0000
0000
0000
0000
;

//---------------dance-single - ----------------
#NOTES:
     dance-single:
     :
     Medium:
     17:
     0.923742,1.399881,0.256404,0.080126,1.161831,807.000000,775.000000,32.000000,10.000000,0.000000,0.000000,0.923742,1.399881,0.256404,0.080126,1.161831,807.000000,775.000000,32.000000,10.000000,0.000000,0.000000:
0000
0000
0000
0000
,
0000
0000
0000
0000
,
0000
0000
0000
0000
,
0000
0000
0000
0000
,
0000
0000
0000
0000
,
1001
0100
0010
0000
1001
0010
0100
0000
,
1001
0100
0010
0100
0010
0100
0010
0100
,
0001
1000
0010
0100
0001
0010
0100
1000
,
0010
0000
0000
0000
0100
0000
0000
0000
0001
0000
0000
0000
1000
0000
0000
0000
0001
0100
0001
0100
0010
1000
0010
1000
0001
0000
0000
0000
0010
0000
0000
0000
,
0100
1000
0010
0100
0001
1000
0100
0010
,
0100
1000
0010
0100
0001
1000
0001
0010
,
0001
1000
0010
0100
0010
1000
0100
0010
,
0001
0100
0010
1000
0001
0010
0001
0100
,
0010
1000
0100
0010
0100
1000
0010
1000
,
0001
0010
0001
0100
0010
1000
0100
0010
,
0001
1000
0001
0100
0010
1000
0001
0010
,
0100
0000
0010
0000
0100
0000
1000
0000
0001
1000
0001
1000
0001
0000
0010
0000
,
1000
0010
0001
0000
1000
0010
0001
0010
,
1000
0010
0001
0000
1000
0100
0001
0100
,
1000
0100
0001
0000
1000
0010
0100
0010
,
1000
0100
0010
0000
0001
1000
0001
0010
,
1000
0010
0001
0100
0010
0100
1000
0100
,
0001
0100
1000
0100
0001
0010
0100
1000
,
0010
0100
0001
1000
0100
0010
0001
1000
,
0010
0000
0000
0000
1000
0000
0000
0000
0100
0010
0100
0010
1000
0001
1000
0100
1000
0000
0000
0000
0001
0000
0000
0000
0010
0000
0000
0000
0011
0000
0000
0000
,
0000
0001
0100
0110
0000
0010
1000
1010
,
0000
1000
0100
0001
1000
0010
0001
1001
,
0000
0100
0010
1010
0000
1000
0100
1100
,
0000
0001
0010
1000
0001
0100
1000
1001
,
0000
0010
0001
0101
0000
0001
0010
0110
,
0000
0001
0100
1000
0001
0010
1000
1100
,
0000
0100
0010
0011
0000
0001
1000
0010
,
1000
0100
1000
0000
0001
0010
0100
1000
0010
0000
0100
0000
0010
0000
0001
0000
,
0010
1000
0010
0001
0010
0100
0010
1000
,
0010
0001
0010
1000
0100
0010
0100
0001
,
0100
1000
0100
0010
0100
1000
0100
0001
,
0100
0010
0100
1000
0010
0001
0010
1000
,
0010
0100
0010
1000
0100
0001
0100
1000
,
0100
0001
0100
0010
0001
1000
0010
0100
,
0001
0000
0000
0000
0010
0000
0000
0000
0100
0000
0000
0000
1000
0000
0000
0000
0002
0000
2003
0000
3020
0000
0130
0010
1000
0001
0010
0000
0000
0000
0000
0000
,
0000
0001
0000
0100
0000
1000
0000
0000
0000
0001
0000
0010
0000
1000
0000
0000
,
0000
0001
0000
1000
0000
0010
0000
0100
0000
0101
1100
0000
0000
0000
1000
0000
,
0010
0001
0000
1000
0100
0001
0000
1000
,
0010
0000
0000
0000
0200
0000
0301
1000
0001
1000
0001
0000
0000
0000
0000
0000
0000
0000
1000
0000
0000
0000
0010
0000
0000
0000
0100
0000
0000
0000
0000
0000
,
0000
0010
0000
1000
0000
0100
0000
0000
0000
0010
0000
0001
0000
1000
0000
0100
,
0000
1100
0101
0000
0000
0000
0001
0000
1000
0000
0010
0000
0000
0000
1000
0000
,
0100
0000
0000
0000
0010
0000
0000
0000
0000
0000
0000
0000
0100
0000
0000
0000
1000
0000
0000
0000
0002
0000
0013
0100
0010
0100
1000
0000
0000
0000
0100
0000
,
0000
0001
0000
0100
0000
1000
0000
0010
0000
0001
0000
0010
0000
1000
0000
0100
,
0000
1000
0000
0001
0000
0100
0000
0001
0000
1001
0001
0000
0010
0000
1000
0000
,
0010
0001
0100
1000
0100
0001
0010
0100
,
1000
0000
0000
0000
0020
0000
0130
0001
0100
0001
0100
0000
0000
0000
1000
0000
0000
0000
0100
0000
0000
0000
0001
0000
0000
0000
0010
0000
0000
0000
1000
0000
,
0000
0010
0000
0001
0000
0100
0000
0010
0000
0001
0000
0010
0000
1000
0000
0001
,
0000
1001
0010
0000
0100
0000
1000
0000
0010
0000
0100
0000
0001
0000
1000
0000
,
0001
0000
0000
0000
0010
0000
0000
0000
0100
0000
0000
0000
1000
0000
0000
0000
0001
0000
0000
0000
1000
0100
1000
0100
0010
0001
0010
0001
0100
0000
0000
0000
,
0010
1000
0000
0100
0010
0001
0000
0000
,
0000
0000
0000
1000
0010
0100
0001
1000
,
0001
0100
0000
0001
1000
0010
0000
0000
,
0000
0000
0000
0100
0001
1000
0010
1000
,
0100
0010
0000
0001
1000
0100
0000
0000
,
0000
0000
0000
1000
0001
0100
0010
1000
,
0001
0010
0000
0100
0010
0001
0000
0000
,
0000
0000
0000
0010
0001
1000
0100
1001
,
0010
0100
0000
0110
0001
1000
0000
1100
,
0100
0101
0001
0011
0010
1010
0000
1001
,
0100
0010
0000
0110
1000
0001
0000
0011
,
0001
0101
0100
1100
1000
1010
0000
0010
,
0100
0001
0010
0100
0001
0100
1000
0010
,
0100
0010
0001
0010
0100
1000
0100
0001
,
0010
0000
0100
0000
1000
0000
0001
0000
0100
0000
0010
0000
1000
0000
0002
2003
,
3200
0000
0310
0100
1000
0001
0100
0000
0000
0000
0010
0000
0000
0000
1000
0000
0000
0000
0010
0000
0000
0000
1000
0000
0000
0000
0001
0000
0000
0000
0010
0000
,
0000
0100
0000
1000
0000
0010
0000
0001
0000
0010
0000
0001
0000
0010
0000
1000
,
0000
0100
0001
0100
0000
0010
0000
0001
0000
1000
0000
0010
0000
1000
0000
0001
,
0000
0010
0000
0001
0000
1000
0000
0010
0000
1000
0000
0100
0001
0100
1000
0010
,
0100
0010
1000
0001
0000
1000
0000
0010
0000
0001
0000
0010
0000
0100
0000
0001
,
0000
0100
0000
1000
0000
0010
0000
0100
0000
0001
0000
0010
0000
1000
0000
0010
,
0000
0100
1000
0001
0000
1000
0000
0001
0000
0010
0000
0100
0001
0100
0000
0010
,
0100
1000
0000
0001
0010
0001
0010
0100
1000
0100
1000
0010
0100
0010
0100
0001
,
1000
0001
1000
0010
0000
1000
0100
1000
0000
0100
1000
0100
0000
1000
0100
1000
,
0000
0001
0100
0001
0000
0100
0001
0100
0000
0001
0100
0001
0000
0100
0001
0100
,
0000
0010
0100
0010
0000
1000
0000
0010
0000
0001
0000
0010
0000
0100
0000
0010
,
0001
0010
1000
0100
0000
0010
0000
0100
0000
1000
0000
0010
0100
0010
1000
0100
,
0010
0100
1000
0001
0000
0010
0000
0001
0000
1000
0000
0010
0000
0001
0000
0010
,
1000
0100
0010
0001
0000
0100
0000
0001
0000
1000
0000
0010
0001
0010
0100
0010
,
0001
0010
1000
0100
0000
0010
0001
0010
0000
0100
0000
1000
0010
1000
0000
0001
,
0010
0001
0000
0100
1000
0100
1000
0100
0001
0100
0001
0010
0100
1000
0010
0001
,
0010
0100
0001
1000
0010
1000
0000
0001
0010
0001
0000
0100
0001
0010
0001
0100
,
0001
0010
0001
1000
0000
0010
0000
0001
0000
0010
0000
1000
0100
0001
0000
0100
,
0010
0001
0000
1000
0010
0100
0010
1000
0000
0001
0000
0100
0001
0010
0001
0100
,
0000
0010
0000
1000
0000
0001
0000
0010
0000
1000
0000
0010
0000
0100
0000
0010
,
0001
1000
0010
0100
0000
0001
0010
0100
0000
0010
0100
1000
0000
0010
1000
0001
,
0000
0010
0001
0100
0000
0010
1000
0001
0000
1000
0100
0010
0000
0100
0010
0001
,
0000
1000
0000
0010
1000
0010
1000
0100
0010
0100
0010
0001
0100
0001
0100
0001
,
1000
0000
0001
0000
1000
0000
0001
0010
0100
1000
0001
0100
0010
1000
0100
0000
0010
1000
0010
0100
0010
0001
0020
0000
0000
0000
0000
0000
0000
0000
0000
0000
,
0000
0000
0000
0000
,
0000
0000
0000
0000
0000
0000
0000
0030
0000
0000
0000
0000
0000
0000
0000
0000
;

//---------------dance-single - ----------------
#NOTES:
     dance-single:
     :
     Easy:
     13:
     0.678784,0.794527,0.224354,0.080126,0.929465,593.000000,565.000000,28.000000,10.000000,0.000000,0.000000,0.678784,0.794527,0.224354,0.080126,0.929465,593.000000,565.000000,28.000000,10.000000,0.000000,0.000000:
0000
0000
0000
0000
,
0000
0000
0000
0000
,
0000
0000
0000
0000
,
0000
0000
0000
0000
,
0000
0000
0000
0000
,
1001
0100
1001
0010
,
1001
0100
1001
0010
,
1000
0100
0010
0001
0100
0010
1000
0000
,
0001
0000
1000
0000
0010
0000
0100
0000
0010
1000
0001
0100
0001
0000
1000
0000
,
0100
0000
0010
0001
0000
0100
0000
0001
,
1000
0000
0010
1000
0000
0100
0000
0010
,
0100
0000
1000
0010
0000
0100
0000
0001
,
1000
0000
0001
0010
0100
1000
0010
1000
,
0001
0000
0100
0010
0000
1000
0000
0001
,
1000
0000
0010
0100
0000
0010
0000
0001
,
0100
0000
0010
1000
0000
0100
0000
1000
,
0010
0000
1000
0001
0010
0100
1000
0001
,
0000
0010
0100
0000
1000
0010
0100
0001
,
0000
1000
0100
0000
0010
0001
0100
0001
,
0000
0010
0100
0000
1000
0001
1000
0010
,
0000
0100
0001
0000
0010
0100
1000
0010
,
0100
0001
0010
0100
1000
0001
1000
0001
,
0010
0001
0100
0010
1000
0100
0010
0001
,
1000
0010
1000
0100
0010
0000
0001
0100
,
0001
0000
1000
0000
0010
0100
0010
1000
0001
0000
0010
0000
0100
0000
1000
0000
,
0000
0010
0100
0010
0000
1000
0001
1000
,
0000
0001
0010
0100
1000
0010
1000
0001
,
0000
0010
0100
0010
0000
0001
0100
0010
,
0000
1000
0001
0100
0010
0100
0001
0010
,
0000
0100
1000
0010
0000
1000
0001
0100
,
0000
0001
1000
0010
1000
0100
0010
0001
,
0000
0010
0001
1000
0000
0001
1000
0100
,
0000
1000
0010
0100
0010
1000
0100
0010
,
0000
0001
1000
0001
0000
1000
0001
1000
,
0000
0001
1000
0001
0100
0010
1000
0001
,
0000
0100
0010
0100
0000
0010
0100
0010
,
0000
0100
0010
0100
0001
0010
0100
1000
,
0001
1000
0010
0100
0001
0010
0100
1000
,
0010
0100
0010
1000
0100
0010
0001
1000
,
0010
0000
1000
0000
0001
0000
0100
0000
0020
0230
0302
1000
1000
1003
0000
0000
,
0000
1000
0000
0000
0000
0001
0000
0000
0000
0001
0000
0000
0000
0010
0000
0000
,
0000
0001
0000
0000
0000
1000
0000
0000
0000
1001
0010
0000
0000
0000
0010
0000
,
0000
0100
0000
0100
0000
0001
0000
1000
,
0000
0000
2100
0001
0001
3001
0000
0000
0000
0001
0000
0000
0000
0100
0000
0000
,
0000
0100
0000
0000
0000
0010
0000
0000
0000
0100
0000
0000
0000
0001
0000
0000
,
0000
0011
1000
0000
0000
0000
1000
0000
0000
0000
0010
0000
0000
0000
0010
0000
,
0000
0000
0100
0000
0000
0000
0001
0000
0000
0000
0102
0010
0010
0013
0000
0000
,
0000
0001
0000
1000
0000
0001
0000
0000
0000
0100
0000
0010
0000
1000
0000
0000
,
0000
0100
0000
0010
0000
0001
0000
0000
0000
1001
0110
0000
0000
0000
0100
0000
,
0001
1000
0000
0010
1000
0100
0000
1000
,
0010
0000
2000
0100
0100
3100
0000
0000
0000
0010
0000
0100
0000
1000
0000
0000
,
0000
0010
0000
1000
0000
0001
0000
0000
0000
0010
0000
0001
0000
0100
0000
0000
,
0000
0101
1100
0000
0000
0000
0001
0000
1000
0000
0010
0000
0000
0000
0100
0000
,
0010
0000
1000
0000
0100
0000
0010
0000
0001
0000
1000
0010
0100
0001
1000
0000
,
0000
0001
0000
0100
0000
0010
0000
0000
,
0000
0000
0000
1000
0100
1000
0000
0001
,
0000
0010
0000
0100
0000
1000
0000
0000
,
0000
0000
0000
0001
0010
0001
0000
0100
,
0000
0001
0000
1000
0000
0010
0000
0000
,
0000
0000
0000
1000
0010
1000
0000
0010
,
0000
1000
0000
0001
0000
0100
0000
0000
,
0000
0000
0000
0001
0010
0001
0000
1001
,
0000
0100
0000
1001
0000
0010
0000
1001
,
0000
0110
0000
1001
0000
0110
0000
1001
,
0000
1000
0000
1001
0000
0001
0000
1001
,
0000
0110
0000
1001
0000
0110
0000
1000
,
0010
0100
0000
0001
0010
0100
0000
1000
,
0001
0100
0000
0010
1000
0001
0000
0010
,
0001
0000
0100
0000
0001
0000
1000
0000
0100
0000
0010
0000
0001
0000
0200
0320
,
2030
0001
0001
3001
0000
0010
0000
0100
0000
1000
0000
0010
0000
0100
0000
0001
,
0000
1000
0000
0100
0000
0010
0000
0100
0000
1000
0000
0010
0000
1000
0000
0001
,
0000
0100
0000
0001
0000
0010
0000
0100
0000
0010
0000
0100
0000
1000
0000
0010
,
0000
0100
0000
0010
0000
1000
0000
0001
0000
0010
0000
0001
0000
1000
0000
0100
,
0000
0000
0000
1000
0000
0001
0000
0010
0000
0100
0000
0010
0000
0001
0000
0100
,
0000
0010
0000
1000
0000
0010
0000
1000
0000
0100
0000
0010
0000
0001
0000
1000
,
0000
0010
0000
1000
0000
0001
0000
0010
0000
0001
0000
0100
0000
0001
0000
0010
,
0000
0100
0000
1000
0000
0010
0000
0100
0000
0001
0000
0010
0000
0100
0000
1000
,
0000
0000
0000
0010
0000
0100
0000
0010
0000
1000
0000
0100
0000
0010
0000
0001
,
0000
0100
0000
0001
0000
1000
0000
0010
0000
1000
0000
0100
0000
0010
0000
0001
,
0000
0100
0000
0001
0000
0010
0000
0001
0000
1000
0000
0100
0000
0010
0000
0001
,
0000
0100
0000
0010
0000
1000
0000
0010
0000
1000
0000
0100
0000
0010
0000
0001
,
0000
0000
0000
0010
0000
0001
0000
0100
0000
0001
0000
0010
0000
0100
0000
1000
,
0000
0010
0000
1000
0000
0001
0000
1000
0000
0100
0000
1000
0000
0010
0000
0100
,
0000
0001
0000
1000
0000
0010
0000
1000
0000
0100
0000
0010
0000
0001
0000
1000
,
0000
0000
0000
0101
0000
0000
0000
1100
0000
0000
0000
0101
0000
0000
0000
1100
,
0000
0000
0000
0100
0000
1000
0000
0010
0000
0100
0000
0010
0000
1000
0000
0001
,
0000
0010
0000
0001
0000
0100
0000
0010
0000
0100
0000
0001
0000
0010
0000
0100
,
0000
1000
0000
0001
0000
1000
0000
0010
0000
1000
0000
0100
0000
1000
0000
0010
,
0000
0100
0000
0010
0000
1000
0000
0100
0000
0010
0000
0001
0000
0100
0000
0001
,
0000
1000
0000
0010
0000
0100
0000
0010
0000
1000
0000
0100
0000
0010
0000
0100
,
0000
1000
0000
0010
0000
0100
0000
0001
0000
1000
0000
0001
0000
0010
0000
0001
,
0000
0100
0000
0001
0000
1000
0000
0100
0000
0010
0000
0001
0000
0100
0000
0010
,
0000
1000
0000
0010
1000
0100
0010
0001
1000
0001
0100
0020
0000
0000
0000
0000
,
0000
0000
0000
0000
,
0000
0000
0000
0000
0000
0000
0000
0030
0000
0000
0000
0000
0000
0000
0000
0000
;

//---------------dance-single - ----------------
#NOTES:
     dance-single:
     :
     Beginner:
     9:
     0.377738,0.529685,0.144227,0.008013,0.508802,330.000000,312.000000,18.000000,1.000000,0.000000,0.000000,0.377738,0.529685,0.144227,0.008013,0.508802,330.000000,312.000000,18.000000,1.000000,0.000000,0.000000:
// measure 0
0000
0000
0000
0000
,  // measure 1
0000
0000
0000
0000
,  // measure 2
0000
0000
0000
0000
,  // measure 3
0000
0000
0000
0000
,  // measure 4
0000
0000
0000
0000
,  // measure 5
1001
0000
1001
0000
,  // measure 6
1001
1001
1001
1001
,  // measure 7
0001
0010
0100
1000
,  // measure 8
0010
0000
0100
0000
0001
1000
0001
0000
,  // measure 9
0010
0100
0000
1000
,  // measure 10
0010
0100
0000
0010
,  // measure 11
1000
0001
0000
0010
,  // measure 12
0100
0010
0001
0100
,  // measure 13
0001
1000
0000
0010
,  // measure 14
1000
0100
0000
0010
,  // measure 15
0001
0100
0000
0001
,  // measure 16
1000
0010
0100
0010
,  // measure 17
1000
0100
0000
1000
,  // measure 18
0001
0010
0000
0100
,  // measure 19
0010
0001
0000
0100
,  // measure 20
0010
1000
0001
0010
,  // measure 21
0001
0100
0001
1000
,  // measure 22
0010
1000
0100
0010
,  // measure 23
0100
1000
0001
0100
,  // measure 24
0010
0000
1000
0001
1000
0000
0001
0000
,  // measure 25
0000
0100
0000
0001
,  // measure 26
0000
0010
0100
1000
,  // measure 27
0000
0010
0000
1000
,  // measure 28
0000
0001
0010
0001
,  // measure 29
0000
0100
0000
0010
,  // measure 30
0000
1000
0100
0010
,  // measure 31
0000
0100
0000
1000
,  // measure 32
0000
0001
1000
0100
,  // measure 33
1000
0001
0000
0010
,  // measure 34
0000
0010
0001
0100
,  // measure 35
0001
1000
0000
0010
,  // measure 36
0000
0010
0100
0010
,  // measure 37
0100
0001
0010
0100
,  // measure 38
1000
0010
1000
0001
,  // measure 39
1000
0000
0000
0000
0100
0000
0000
0000
1000
1000
1000
0000
0000
0001
0000
0000
,  // measure 40
0000
0010
0000
0000
0000
0001
0000
0000
0000
0010
0000
0000
0000
0001
0000
0000
,  // measure 41
0000
0010
0000
0000
0000
0001
0000
0000
0000
0000
1000
0000
0000
0000
0100
0000
,  // measure 42
0000
1000
0000
0100
0000
1000
0000
0100
,  // measure 43
0000
0000
1000
0000
0000
0001
0000
0000
0000
0100
0000
0000
0000
0001
0000
0000
,  // measure 44
0000
0100
0000
0000
0000
0001
0000
0000
0000
0100
0000
0000
0000
0001
0000
0000
,  // measure 45
0000
1000
0000
0010
0000
1000
0000
0010
,  // measure 46
0000
0000
1000
0000
0000
0000
0010
0000
0000
0000
1000
0000
0000
0010
0000
0000
,  // measure 47
0000
0100
0000
0000
0000
0010
0000
0000
0000
0100
0000
0000
0000
0010
0000
0000
,  // measure 48
0000
0100
0000
0000
0000
0010
0000
0000
0000
0000
1000
0000
0000
0000
0001
0000
,  // measure 49
0000
1000
0000
0001
0000
1000
0000
0001
,  // measure 50
0000
0000
1000
0000
0000
0100
0000
0000
0000
0010
0000
0000
0000
0100
0000
0000
,  // measure 51
0000
0010
0000
0000
0000
0100
0000
0000
0000
0010
0000
0000
0000
0100
0000
0000
,  // measure 52
0000
1000
0000
0001
0000
1000
0000
0001
,  // measure 53
0000
1000
0000
0001
0000
1000
0000
0001
,  // measure 54
0000
0000
0000
0001
0000
0000
0000
0000
,  // measure 55
0000
0000
0000
0100
0000
0010
0000
1000
,  // measure 56
0000
0000
0000
1000
0000
0000
0000
0000
,  // measure 57
0000
0000
0000
0010
0000
0100
0000
0010
,  // measure 58
0000
0000
0000
0010
0000
0000
0000
0000
,  // measure 59
0000
0000
0000
1000
0000
0001
0000
0100
,  // measure 60
0000
0000
0000
0100
0000
0000
0000
0000
,  // measure 61
0000
0000
0000
0001
0000
1000
0000
1001
,  // measure 62
0000
0000
0000
1001
0000
0000
0000
1001
,  // measure 63
0000
1001
0000
1001
0000
1001
0000
1001
,  // measure 64
0000
0000
0000
1001
0000
0000
0000
1001
,  // measure 65
0000
1001
0000
1001
0000
1001
0000
0010
,  // measure 66
0000
1000
0000
0100
0000
0010
0000
0001
,  // measure 67
0000
0100
0000
0001
0000
1000
0000
0001
,  // measure 68
0000
0000
0100
0000
0000
0000
0010
0000
0000
0000
1000
0000
0000
0000
0001
0001
,  // measure 69
0001
0000
0000
1000
0000
0000
0000
0010
0000
0000
0000
0100
0000
0000
0000
0001
,  // measure 70
0000
0000
0000
0010
0000
0000
0000
0100
0000
0000
0000
1000
0000
0000
0000
0010
,  // measure 71
0000
0000
0000
1000
0000
0000
0000
0001
0000
0000
0000
0010
0000
0000
0000
0100
,  // measure 72
0000
0000
0000
0010
0000
0000
0000
0100
0000
0000
0000
0010
0000
0000
0000
0001
,  // measure 73
0000
0000
0000
0100
0000
0000
0000
0001
0000
0000
0000
1000
0000
0000
0000
0001
,  // measure 74
0000
0000
0000
1000
0000
0000
0000
0100
0000
0000
0000
0010
0000
0000
0000
0100
,  // measure 75
0000
0000
0000
1000
0000
0000
0000
0010
0000
0000
0000
0100
0000
0000
0000
0001
,  // measure 76
0000
0000
0000
1000
0000
0000
0000
0100
0000
0000
0000
1000
0000
0000
0000
0010
,  // measure 77
0000
0000
0000
0100
0000
0000
0000
0001
0000
0000
0000
1000
0000
0000
0000
0100
,  // measure 78
0000
0000
0000
1000
0000
0000
0000
0010
0000
0000
0000
0100
0000
0000
0000
0010
,  // measure 79
0000
0000
0000
0100
0000
0000
0000
0001
0000
0000
0000
1000
0000
0000
0000
0100
,  // measure 80
0000
0000
0000
1000
0000
0000
0000
0010
0000
0000
0000
0100
0000
0000
0000
0001
,  // measure 81
0000
0000
0000
0010
0000
0000
0000
0001
0000
0000
0000
1000
0000
0000
0000
0010
,  // measure 82
0000
0000
0000
0100
0000
0000
0000
0001
0000
0000
0000
0010
0000
0000
0000
0100
,  // measure 83
0000
0000
0000
0010
0000
0000
0000
0001
0000
0000
0000
1000
0000
0000
0000
0010
,  // measure 84
0000
0000
0000
0100
0000
0000
0000
0001
0000
0000
0000
0100
0000
0000
0000
0001
,  // measure 85
0000
0000
0000
0010
0000
0000
0000
0001
0000
0000
0000
1000
0000
0000
0000
0100
,  // measure 86
0000
0000
0000
1000
0000
0000
0000
0010
0000
0000
0000
0100
0000
0000
0000
0001
,  // measure 87
0000
0000
0000
1000
0000
0000
0000
0001
0000
0000
0000
0010
0000
0000
0000
0100
,  // measure 88
0000
0000
0000
0010
0000
0000
0000
0001
0000
0000
0000
0100
0000
0000
0000
0010
,  // measure 89
0000
0000
0000
1000
0000
0000
0000
0100
0000
0000
0000
1000
0000
0000
0000
0001
,  // measure 90
0000
0000
0000
0010
0000
0000
0000
0100
0000
0000
0000
0010
0000
0000
0000
0001
,  // measure 91
0000
0000
0000
0100
0000
0000
0000
0010
0000
0000
0000
1000
0000
0000
0000
0001
,  // measure 92
0000
0000
0000
1000
0000
0010
0000
1000
0000
0001
0000
0020
0000
0000
0000
0000
,  // measure 93
0000
0000
0000
0000
,  // measure 94
0000
0000
0000
0000
0000
0000
0000
0030
0000
0000
0000
0000
0000
0000
0000
0000
;
