#TITLE:END OF THE CENTURY;
#SUBTITLE:;
#ARTIST:NO.9;
#TITLETRANSLIT:;
#SUBTITLETRANSLIT:;
#ARTISTTRANSLIT:;
#GENRE:;
#CREDIT:;
#BANNER:END OF THE CENTURY-bn.png;
#BACKGROUND:END OF THE CENTURY-bg.png;
#LYRICSPATH:;
#CDTITLE:;
#MUSIC:END OF THE CENTURY.ogg;
#OFFSET:0.000000;
#SAMPLESTART:35.087500;
#SAMPLELENGTH:20.000000;
#SELECTABLE:YES;
#DISPLAYBPM:171.000000;
#BPMS:0.000000=171.000000
;
#STOPS:
;
#BGCHANGES:;
#KEYSOUNDS:;
#ATTACKS:;

//---------------dance-single - ----------------
#NOTES:
     dance-single:
     :
     Beginner:
     4:
     0.163742,0.204457,0.000000,0.000000,0.000000,111.000000,111.000000,0.000000,0.000000,0.000000,0.000000,0.163742,0.204457,0.000000,0.000000,0.000000,111.000000,111.000000,0.000000,0.000000,0.000000,0.000000:
0000
0000
0000
0000
,
0000
0000
0000
0000
,
0000
0000
0000
0000
,
0000
0000
0000
0000
,
0000
0000
0000
0000
,
0001
0001
0000
0000
,
0001
0001
0000
0000
,
1000
1000
0000
0000
,
1000
1000
0000
0000
,
0001
0000
0000
0000
,
1000
0000
0000
0000
,
0001
0000
0000
0000
,
0100
0000
0000
0000
,
0001
0001
0000
0000
,
1000
1000
0000
0000
,
0100
0100
0000
0000
,
0010
0010
0000
0000
,
0001
0000
0001
0000
,
0001
0000
0001
0000
,
0001
0000
0001
0000
,
0001
0000
0001
0000
,
1000
0000
1000
0000
,
1000
0000
1000
0000
,
1000
0000
1000
0000
,
1000
0000
1000
0000
,
0010
0010
0010
0010
,
0000
0000
0000
0000
,
0100
0100
0100
0100
,
0000
0000
0000
0000
,
0001
0000
0000
0000
,
1000
0000
0000
0000
,
0010
0000
0000
0000
,
0100
0000
0000
0000
,
0001
0000
0001
0000
,
0001
0000
0001
0000
,
0001
0000
0001
0000
,
0001
0000
0001
0000
,
1000
0000
1000
0000
,
1000
0000
1000
0000
,
1000
0000
1000
0000
,
1000
0000
1000
0000
,
0010
0010
0010
0010
,
0000
0000
0000
0000
,
0100
0100
0100
0100
,
0000
0000
0000
0000
,
0001
0001
0001
0001
,
0000
0000
0000
0000
,
1000
0000
1000
0000
,
1000
0000
1000
0000
,
0001
0001
0000
0000
,
0001
0001
0000
0000
,
0100
0100
0000
0000
,
0100
0100
0000
0000
,
1000
1000
0000
0000
,
1000
1000
0000
0000
,
0010
0000
0010
0000
,
0010
0000
0010
0000
,
1000
0000
0000
0000
,
0010
0000
0000
0000
,
0001
0000
0000
0000
,
1000
0000
0000
0000
,
0001
0001
0000
0000
,
0010
0010
0000
0000
,
1000
1000
0000
0000
,
0100
0000
0100
0000
,
0100
0000
0100
0000
,
0100
0000
0000
0000
,
0000
0000
0000
0000
;

//---------------dance-single - ----------------
#NOTES:
     dance-single:
     :
     Easy:
     6:
     0.387966,0.477066,0.330435,0.000000,0.000000,263.000000,231.000000,32.000000,0.000000,0.000000,0.000000,0.387966,0.477066,0.330435,0.000000,0.000000,263.000000,231.000000,32.000000,0.000000,0.000000,0.000000:
0000
0000
0000
0000
,
0000
0000
0000
0000
,
0000
0000
0000
0000
,
0000
0000
0000
0000
,
0000
0000
0000
0000
,
1000
1000
0001
0001
,
1000
0100
0010
0001
,
0100
0100
0001
1000
,
0001
0000
0100
0000
,
0001
0001
1000
1000
,
0010
1000
0001
0100
,
0001
1000
0100
0010
,
0001
1000
0100
0100
,
0010
0001
1000
0100
,
0010
0001
1000
0100
,
0001
0001
1000
1000
,
0010
0010
1000
0100
,
1001
0100
0001
0100
,
1001
0100
1000
0100
,
0001
0001
1000
1000
,
0100
0100
1001
1001
,
0010
1001
0100
0100
,
1000
0001
1000
0001
,
1000
1000
0001
0001
,
0010
0010
0010
0100
,
0001
1000
0001
1000
,
0000
0100
0000
0100
,
0001
1000
0100
0100
,
0000
0100
0000
0100
,
1000
1000
0001
0001
,
1000
0100
0010
0001
,
0100
0100
0001
1000
,
0001
0000
0100
0000
,
1001
0100
0001
0100
,
1001
0100
1000
0100
,
0001
0001
1000
1000
,
0100
0100
1001
1001
,
0010
1001
0100
0100
,
1000
0001
1000
0001
,
1000
1000
0001
0001
,
0010
0010
1001
0100
,
0100
0100
1000
0010
,
0100
0100
1000
0010
,
0100
0100
0001
0010
,
0100
0100
0001
0010
,
0001
0001
1000
0100
,
1000
1000
0001
0100
,
0010
1000
0100
0001
,
0010
1000
1001
0000
,
1001
1001
1000
1000
,
1001
1001
0001
0001
,
0010
0010
1001
1001
,
0010
0010
1001
1001
,
1000
1000
0001
1000
,
0001
0001
1000
0001
,
0010
0100
0001
1000
,
0100
0010
1001
0000
,
0010
0010
1001
1001
,
0100
0100
1001
1001
,
0010
1001
0100
1001
,
0010
0000
0100
0000
,
1001
1001
0010
0010
,
1000
1000
0001
0100
,
1001
1001
0100
0010
,
0001
0000
1000
0000
,
0001
0100
1000
0100
,
1001
0000
0000
0000
,
0000
0000
0000
0000
;

//---------------dance-single - ----------------
#NOTES:
     dance-single:
     :
     Medium:
     10:
     0.498603,0.511142,0.320109,0.000000,0.000000,338.000000,307.000000,31.000000,0.000000,0.000000,0.000000,0.498603,0.511142,0.320109,0.000000,0.000000,338.000000,307.000000,31.000000,0.000000,0.000000,0.000000:
0000
0000
0000
0000
,
0000
0000
0000
0000
,
0000
0000
0000
0000
,
0000
0000
0000
0000
,
0000
0000
0000
0000
,
1001
1001
0100
0100
,
1001
1001
0010
0010
,
0100
1000
0001
0000
0001
0000
1000
0000
,
1001
0000
0000
0100
0100
0000
0000
0000
,
0010
1000
0100
0000
0010
0100
0001
0000
,
0010
0100
1000
0000
1000
0010
0100
0000
,
0100
0001
1000
0000
0010
0001
1000
0000
,
0001
0010
1000
0000
1000
0001
0100
0000
,
0010
0001
1000
0000
0100
0010
0001
0000
,
0100
0001
1000
0000
0010
0100
1000
0000
,
0010
0100
0001
0000
0001
0100
0001
0000
,
0010
0100
1000
0000
0001
0100
0010
0000
,
1001
0000
0010
0000
0001
1000
0100
0000
,
1100
0000
0010
0000
0001
1000
0100
0000
,
1001
0000
0010
0000
1000
0001
0100
0000
,
0101
0000
1000
0000
0001
1000
0010
0001
,
0100
0000
1001
0000
0010
0001
0100
0000
,
0001
0000
0101
0000
1000
0010
0100
0000
,
0001
0000
0101
0000
0001
0010
0100
0000
,
0000
1000
0000
0100
0010
0001
0100
0000
,
1000
0001
1000
0000
0110
0000
1001
0000
,
0001
1000
0001
0001
,
0001
1000
0001
0000
1001
0000
0110
0000
,
1000
0001
1000
0100
,
1001
1001
0100
0100
,
1001
1001
0010
0010
,
0100
1000
0001
0000
0001
0000
1000
0000
,
1001
0000
0000
0100
0010
0000
0000
0000
,
0010
0001
1000
0000
1000
1000
0010
0000
,
0001
0100
0010
0000
0100
1000
0001
0000
,
0010
0100
0001
0000
0001
0100
0100
0000
,
0010
0001
1000
0000
0100
0100
0001
1000
,
0010
1000
0001
0000
0010
0010
1000
0000
,
0100
0001
0010
0000
1000
1000
0001
0000
,
0010
1000
0001
0000
0010
0100
0001
0000
,
0000
0001
0000
0100
0010
1000
0001
0000
,
1000
0010
0001
0000
1000
1000
0000
0000
,
1000
0010
0001
0000
1000
0000
0000
0000
,
0001
0010
1000
0000
0001
0001
0000
0000
,
0001
0010
1000
0000
0001
0000
0000
0000
,
0010
1000
0100
0000
1000
1000
0000
0000
,
0010
0001
0100
0000
0001
0000
0000
0000
,
0010
0000
1000
0001
0100
0000
0001
0000
,
0010
0001
0100
0000
1001
0000
0000
0000
,
1000
0100
1000
0000
0001
0100
0001
0000
,
1000
0100
1000
0000
0001
0100
0001
0000
,
0010
0100
0010
0000
1000
0010
1000
0000
,
0001
0010
0001
0000
0001
0100
1000
0000
,
0010
1000
0100
0000
0010
0001
0100
0000
,
0100
0001
0010
0000
0100
1000
0010
0000
,
0010
0000
0100
1000
0001
0000
1000
0000
,
0100
0010
0001
0000
1001
0000
0000
0000
,
0010
1000
0001
0000
0110
0000
1001
0000
,
0001
1000
0100
0000
0110
0000
1001
0000
,
0010
1000
0100
0000
1000
0001
0010
0000
,
0010
0000
1000
0001
0100
0000
0000
0000
,
0010
1001
1000
0001
,
1000
0000
0001
0000
0000
0100
0000
0100
,
0010
0001
0100
1000
,
0000
0101
0000
1100
,
0000
1000
0000
0100
0000
0001
0000
0010
,
1001
0000
0000
0000
,
0000
0000
0000
0000
;

//---------------dance-single - ----------------
#NOTES:
     dance-single:
     :
     Hard:
     13:
     0.606289,0.647446,0.640218,0.000000,0.000000,411.000000,349.000000,62.000000,0.000000,0.000000,0.000000,0.606289,0.647446,0.640218,0.000000,0.000000,411.000000,349.000000,62.000000,0.000000,0.000000,0.000000:
0000
0000
0000
0000
,
0000
0000
0000
0000
,
0000
0000
0000
0000
,
0000
0000
0000
0000
,
0000
0000
0000
0000
,
1001
1001
0110
1001
,
1000
0001
0100
0000
0010
1000
0100
0000
,
0001
0100
0010
0000
0001
1000
0100
0000
,
0001
1000
0010
0100
0100
0000
0000
0000
,
0001
1000
0010
0100
0010
0001
1000
0100
,
0010
0100
0001
1000
0010
0100
0001
0010
,
1000
0001
0010
1000
0100
0001
1000
0001
,
0100
1000
0010
0001
0100
0010
1000
0010
,
0001
0100
0010
1000
0001
0100
0010
1000
,
0001
0100
1000
0001
0100
0010
0001
0010
,
0100
0001
1000
0100
0001
0010
0100
1000
,
0000
0001
0000
0010
1000
0100
0010
0001
,
1001
0010
0110
0000
0001
1000
1100
0000
,
1000
0001
0101
0000
0010
0100
1001
0000
,
0001
0010
0101
0000
0100
1000
0011
0000
,
0100
0001
1001
0000
0000
0010
0000
0001
,
0100
1000
1010
0000
0100
0001
1010
0000
,
0001
1000
0101
0000
1000
0001
1100
0000
,
0001
0010
0101
0000
1000
0001
1100
0000
,
0000
0110
0000
1001
0100
0010
1000
0001
,
1001
0110
0011
1100
,
0110
0000
0000
0110
0000
0000
0000
0000
,
0011
1100
1010
0101
,
0000
0110
0000
0110
,
1001
1001
0110
1001
,
1000
0001
0100
0000
0010
1000
0100
0000
,
0001
0100
0010
0000
0001
1000
0100
0000
,
0001
1000
0010
0100
0100
0000
0000
0000
,
0010
0100
0001
1000
0100
0010
1000
0100
,
0001
0100
0001
0010
0100
0010
1000
0100
,
0001
0100
0010
1000
0100
0001
0010
1000
,
0100
0010
0001
0100
0000
1000
0000
0100
,
1000
0010
1001
0000
0010
0001
1001
0000
,
0010
0100
0011
0000
1000
0010
0101
0000
,
0010
0100
0110
0000
0001
0100
1001
0000
,
0000
0010
0000
0100
0010
1000
0100
0000
,
0100
1001
0000
0100
0000
0000
0000
0000
,
0000
0000
0000
0010
0000
1000
0001
0100
,
0010
1001
0000
0100
0000
0000
0000
0000
,
0000
0000
0000
0000
0000
0001
0100
0010
,
1000
0110
0000
0001
0000
0000
0000
0000
,
0000
0000
0000
0100
0000
0001
1000
0100
,
0010
0000
1000
0010
0001
0000
1000
0000
,
0001
0110
1001
0000
,
0100
0010
1000
0100
0001
1000
0100
0001
,
0100
0010
1000
0100
1000
0010
0001
0100
,
0010
0001
1000
0100
0001
0100
0010
1000
,
0001
0010
0001
0100
1000
0010
0100
0010
,
1000
0001
0100
0010
1000
0001
1000
0010
,
0100
0001
1000
0100
0001
0010
1001
0000
,
0010
0000
1000
0010
0001
0000
1000
0000
,
0001
0110
1001
0000
,
1001
1001
0110
1001
,
1000
0001
0100
0000
0010
1000
0100
0000
,
0001
0100
0010
0000
0001
1000
0100
0000
,
0001
1000
0010
0100
0100
0000
0000
0000
,
1001
1001
0110
1001
,
0001
1000
0010
0000
0100
0001
0010
0000
,
1000
0010
0100
0000
1000
0001
0010
0000
,
1001
0000
0000
0100
1001
0000
0000
0100
,
1001
0100
0001
1000
0001
1000
0001
0100
,
1001
0000
0000
0000
,
0000
0000
0000
0000
;

//---------------dance-double - ----------------
#NOTES:
     dance-double:
     :
     Easy:
     7:
     0.401243,0.511142,0.423370,0.000000,0.000000,272.000000,231.000000,41.000000,0.000000,0.000000,0.000000,0.401243,0.511142,0.423370,0.000000,0.000000,272.000000,231.000000,41.000000,0.000000,0.000000,0.000000:
00000000
00000000
00000000
00000000
,
00000000
00000000
00000000
00000000
,
00000000
00000000
00000000
00000000
,
00000000
00000000
00000000
00000000
,
00000000
00000000
00000000
00000000
,
00010000
01000000
10000000
01000000
,
00100000
00010000
00100000
10000000
,
00100000
00010000
00001000
00000100
,
00000001
00000001
00000001
00000000
,
00000011
00001000
00001000
00000100
,
00000110
00001001
00000100
00000001
,
00000101
00001000
00001000
00000010
,
00010010
00001000
01000000
10000000
,
00010000
00001000
01000000
00001000
,
00000100
00000001
00000100
00001000
,
00000010
00000001
00000010
00001000
,
00000010
00000001
00000100
00000100
,
00000000
00000010
00000000
00000001
,
00000000
00000010
00000000
00001000
,
00000000
00000100
00000000
00000001
,
00000100
00001000
00010000
01000000
,
00000000
00100000
00000000
10000000
,
00000000
00100000
00000000
00010000
,
00000000
01000000
00000000
10000000
,
01000000
00010000
00001000
00000100
,
00000001
00000100
00001000
00010000
,
01000000
01000000
01000000
01000000
,
10000000
01000000
00010000
00001000
,
00000100
00000100
00000100
00000100
,
00001000
00000100
00000001
00000100
,
00000010
00001000
00000010
00000001
,
00000010
00001000
00010000
01000000
,
10000000
10000000
10000000
00000000
,
10010000
01000000
00110000
00101000
,
00010000
00000100
00000110
00001001
,
00001100
00000011
00001000
00000100
,
00000001
00000001
00000001
00000001
,
00001001
00000100
00001010
00010010
,
00001000
01000000
01100000
10010000
,
01010000
10100000
00010000
01000000
,
10000000
10000000
10000000
10000000
,
01010000
11000000
01010000
11000000
,
00010000
00010000
00010000
00010000
,
11000000
01010000
11000000
01010000
,
10000000
10000000
10000000
10000000
,
01010000
01001000
01010000
01001000
,
00010000
00010000
00010000
00010000
,
00010100
00001000
00010010
00001000
,
00000100
00000110
00000001
00000001
,
00001001
00000100
00001001
00000100
,
00001000
00010000
00000100
00000001
,
00001000
00010000
01000000
10000000
,
00010000
00001000
01000000
10000000
,
10010000
01000000
10010000
01000000
,
00010000
00001000
01000000
10000000
,
00010000
00001000
00000100
00000001
,
00001000
00010000
00000100
00000001
,
00001000
00000100
00000001
00000100
,
00000010
00001000
00000010
00000001
,
00000010
00001000
00010000
01000000
,
10000000
10000000
10000000
01100000
,
00010000
01000000
10000000
01000000
,
00100000
00010000
00100000
10000000
,
00100000
00010000
00001000
00000100
,
00000001
00001001
00001000
00011000
,
01000000
10000000
00010000
01000000
,
10000000
00000000
00000000
00000000
,
00000000
00000000
00000000
00000000
;

//---------------dance-double - ----------------
#NOTES:
     dance-double:
     :
     Medium:
     8:
     0.430746,0.477066,0.485327,0.000000,0.000000,292.000000,245.000000,47.000000,0.000000,0.000000,0.000000,0.430746,0.477066,0.485327,0.000000,0.000000,292.000000,245.000000,47.000000,0.000000,0.000000,0.000000:
00000000
00000000
00000000
00000000
,
00000000
00000000
00000000
00000000
,
00000000
00000000
00000000
00000000
,
00000000
00000000
00000000
00000000
,
00000000
00000000
00000000
00000000
,
10010000
00100000
10000000
01000000
,
00010000
00001000
00000100
00000100
,
00000110
00001000
00000001
00000100
,
00000010
00000001
00000100
00000000
,
00000011
00001000
00001010
00000001
,
00000110
00001000
00010010
00001000
,
00000101
00000001
00000010
00001000
,
00010010
00001000
00000100
00010000
,
00100000
10000000
10000000
01000000
,
00110000
00101000
00110000
11000000
,
00010000
00100000
10000000
01000000
,
10010000
01000000
01001000
01010000
,
01001000
00010000
01000000
00001000
,
00100000
00100000
00001000
00100000
,
00001000
00000100
00010000
00010010
,
00001000
00000010
00010000
00010000
,
01001000
00010000
01000000
00001000
,
00100000
00100000
00001000
00100000
,
00001000
00000100
00010000
00010010
,
00001000
00000010
00010000
00010000
,
00001000
00000100
00000110
00000001
,
00001000
00001000
00001000
00001000
,
00010000
01000000
01100000
10000000
,
00010000
00010000
00010000
00010000
,
10010000
00100000
10000000
01000000
,
00010000
00001000
00000100
00000100
,
00000110
00001000
00000001
00000100
,
00000010
00000001
00000100
00000000
,
00000001
00000001
00000010
00001000
,
00001000
00010000
00100000
00001000
,
00000010
00000010
00010000
00100000
,
00100000
00001000
00100000
10000000
,
00100000
00100000
00010000
00100000
,
00010000
00001000
00100000
00001000
,
00000010
00000010
00010000
00000010
,
00000001
00001000
00000010
00000001
,
00001001
00000100
00001001
00000100
,
00001010
00010010
00001010
00000001
,
00000010
00001000
00010000
01000000
,
00001000
00000010
00010000
01000000
,
01100000
10000000
00010000
01000000
,
00110000
10000000
01000000
10000000
,
01000000
00000000
00010000
00001000
00000100
00000000
00001000
00000000
,
00010000
01000000
10000000
10000000
,
01100000
10000000
00100000
00010000
,
00001000
00000100
00000001
00000001
,
00001100
00000001
00001100
00000001
,
00000101
00001100
00000001
00000100
,
00000001
00000010
00001000
00000100
,
00010100
00001100
00000001
00000100
,
00000110
00000000
00001000
00010000
01000000
00000000
01100000
00000000
,
10000000
00010000
01000000
01000000
,
10010000
00100000
10000000
01000000
,
00010000
00001000
00000100
00000100
,
00000110
00001000
00000001
00000100
,
00000010
00000001
00000100
00001100
,
00001001
00000010
00000001
00000100
,
00001000
00010000
01000000
01000000
,
01100000
00010000
10000000
01000000
,
00100000
10000000
00010000
01000000
,
01001000
01010000
00000100
00000110
,
00000001
00000000
00000000
00000000
,
00000000
00000000
00000000
00000000
;

//---------------dance-double - ----------------
#NOTES:
     dance-double:
     :
     Hard:
     12:
     0.610715,0.579294,0.247826,0.000000,0.000000,414.000000,390.000000,24.000000,0.000000,0.000000,0.000000,0.610715,0.579294,0.247826,0.000000,0.000000,414.000000,390.000000,24.000000,0.000000,0.000000,0.000000:
00000000
00000000
00000000
00000000
,
00000000
00000000
00000000
00000000
,
00000000
00000000
00000000
00000000
,
00000000
00000000
00000000
00000000
,
00000000
00000000
00000000
00000000
,
10000000
00010000
01000000
00100000
01000000
00010000
10000000
01000000
,
00100000
01000000
10000000
00100000
00010000
00001000
00010000
01000000
,
00010000
00001000
00000100
00001000
00000100
00000001
00001000
00000100
,
00000010
00000100
00001000
00000001
00000100
00000000
00000000
00000000
,
00000010
00001000
00010000
00000000
00000001
00001000
00000100
00000000
,
00000010
00010000
00001000
00100000
00001000
00010000
01000000
10000000
,
00100000
00010000
00001000
00000000
10000000
00010000
01000000
00000000
,
00100000
00001000
00010000
00000010
00010000
00001000
00000100
00000001
,
00001000
00000010
00000001
00000000
00001000
00000100
00000001
00000000
,
00000010
00010000
00001000
00100000
00001000
00010000
01000000
10000000
,
00010000
00100000
10000000
00000000
00010000
01000000
10000000
00000000
,
00100000
00001000
00010000
00000010
00010000
00001000
00000100
00000001
,
00001000
00000000
00001000
00000000
00000010
00000001
00000100
00000000
,
00001000
00010000
01000000
00010000
00001000
00010000
01000000
00000000
,
00010000
00000000
00010000
00000000
00100000
10000000
01000000
00000000
,
00010000
00001000
00000100
00001000
00010000
00001000
00000100
00000000
,
00000101
00000000
00001100
00000000
00000010
00000100
00000001
00000000
,
00001000
00010000
01000000
00010000
00001000
00010000
01000000
00000000
,
11000000
00000000
01010000
00000000
00100000
01000000
10000000
00000000
,
00010000
00001000
00000100
00001000
00010000
00001000
00000100
00000000
,
00000010
00001000
00000100
00000000
00000011
00000000
00001100
00000000
,
00000001
00000100
00001000
00010000
,
00100000
00001000
00010000
00000000
01000000
00000000
00001000
00000000
,
00001000
00010000
01000000
10000000
,
10000000
00010000
01000000
00100000
01000000
00010000
10000000
01000000
,
00100000
01000000
10000000
00100000
00010000
00001000
00010000
01000000
,
00010000
00001000
00000100
00001000
00000100
00000001
00001000
00000100
,
00000010
00000100
00001000
00000001
00000100
00000000
00000000
00000000
,
00000010
00000100
00001000
00000100
00001000
00010000
00001000
00010000
,
01000000
00010000
01000000
00100000
01000000
00100000
10000000
00000000
,
00100000
01000000
00010000
01000000
00010000
00001000
00010000
00001000
,
00000100
00001000
00000100
00000010
00000100
00000010
00000001
00000000
,
00000010
00000001
00000100
00000001
00000100
00001000
00000100
00001000
,
00010000
00001000
00010000
01000000
00010000
01000000
10000000
00000000
,
01000000
10000000
00100000
10000000
00100000
00010000
00100000
00010000
,
00001000
00010000
00001000
00000010
00001000
00000010
00000001
00000000
,
00000010
00000000
00000100
00000000
00001000
00001000
00000001
00000001
,
00000010
00000001
00000100
00000010
00001000
00000100
00001000
00000000
,
01000000
00000000
10000000
00000000
00010000
00100000
01000000
00000000
,
00100000
00010000
10000000
00100000
01000000
00010000
10000000
00000000
,
00000100
00000000
00000010
00000000
00001000
00000010
00000001
00000000
,
00001000
00000010
00000100
00000010
00001000
00000100
00000001
00000000
,
00000010
00000000
00000001
00000100
00001000
00000000
00010000
00000000
,
01000000
10000000
00100000
00000000
,
11000000
01010000
11000000
01010000
,
01001000
00011000
00000100
00000001
,
00001010
00000101
00001100
00000101
,
00001000
00010000
01000000
10000000
,
01100000
00101000
01100000
10010000
,
00011000
00001001
00000110
00000101
,
00000010
00000000
00000001
00000100
00001000
00000000
00010000
00000000
,
01000000
10000000
00100000
00000000
,
10000000
00010000
01000000
00100000
01000000
00010000
10000000
01000000
,
00100000
01000000
10000000
00100000
00010000
00001000
00010000
01000000
,
00010000
00001000
00000100
00001000
00000100
00000001
00001000
00000100
,
00000010
00000100
00001000
00000001
00000100
00001000
00000100
00000001
,
00000001
00001000
00000100
00000010
00000100
00001000
00000001
00000100
,
00000010
00000100
00000001
00000010
00001000
00010000
00001000
00000100
,
00001000
00010000
01000000
00010000
01000000
10000000
00010000
01000000
,
00100000
01000000
00010000
10000000
01000000
00010000
01000000
00010000
,
00001000
00010000
00001000
00000100
00001000
00000100
00000010
00000100
,
00000010
00000000
00000000
00000000
,
00000000
00000000
00000000
00000000
;

//---------------dance-couple - ----------------
#NOTES:
     dance-couple:
     :
     Medium:
     8:
     0.339286,0.474355,0.247826,0.000000,0.000000,230.000000,206.000000,24.000000,0.000000,0.000000,0.000000,0.339286,0.476162,0.247826,0.000000,0.000000,230.000000,206.000000,24.000000,0.000000,0.000000,0.000000:
00000000
00000000
00000000
00000000
,
00000000
00000000
00000000
00000000
,
00000000
00000000
00000000
00000000
,
00000000
00000000
00000000
00000000
,
00000000
00000000
00000000
00000000
,
10011001
10011001
01000100
01000100
,
10011001
10011001
00100010
00100010
,
01000100
10001000
00010001
00000000
00010001
00000000
10001000
00000000
,
10011001
00000000
00000000
01000100
01000100
00000000
00000000
00000000
,
00001001
00000000
10000100
00000000
00000010
00001000
10000100
00000000
,
00001001
00000000
10000010
00000000
00000001
00001000
10000100
00000000
,
00001001
00000000
10000001
00000000
00001000
00000100
10001000
00000000
,
00001001
00000000
10001000
00000000
00000001
00000100
10000001
00000000
,
10010000
00000000
01000001
00000000
00100000
10000000
01000001
00000000
,
10010000
00000000
00100001
00000000
00010000
10000000
01000001
00000000
,
10010000
00000000
00010001
00000000
10000000
01000000
10000001
00000000
,
10010000
00000000
10000001
00000000
00010000
01000000
00010001
00000000
,
00001001
00000100
10010000
01000000
,
00001001
00000100
10010000
01000000
,
00001001
00000100
10010000
01000000
,
00000010
00001000
00000100
00000000
00100000
10000000
01000000
00000000
,
10000000
00010000
01000000
00000000
00001000
00000001
00000100
00000000
,
01000000
10000000
00010000
00000000
00000100
00001000
00000001
00000000
,
00010000
00100000
01000000
00000000
00000001
00000010
00000100
00000000
,
10001000
00010001
10001000
01000100
,
10011001
10011001
01000100
01000100
,
10000001
00000000
00000000
00011000
00000000
00000000
00000000
00000000
,
10011001
10011001
00100010
00100010
,
00100010
10001000
01000100
00010001
,
10010000
10010000
01000000
01000000
,
00001001
00001001
00000010
00000010
,
01000000
10000000
00010000
00000000
00000001
00001000
00000100
00000000
,
10001000
00000000
00000000
00010001
01000100
00000000
00000000
00000000
,
00000001
00000100
10000010
00000000
00000100
00001000
10000001
00000000
,
00000010
00000100
10000001
00000000
00000001
00000100
10000100
00000000
,
00000010
00000001
10001000
00000000
00000100
00000100
10000001
00001000
,
00000010
00001000
10000001
00000000
00000010
00000010
10001000
00000000
,
00010000
01000000
00100001
00000000
01000000
10000000
00010001
00000000
,
00100000
01000000
00010001
00000000
00010000
01000000
01000001
00000000
,
00100000
00010000
10000001
00000000
01000000
01000000
00010001
10000000
,
00100000
10000000
00010001
00000000
00100000
00100000
10000001
00000000
,
00001000
00000010
00000001
00000000
00001000
00001000
00000000
00000000
,
00001000
00000010
00000001
00000000
00001000
00000000
00000000
00000000
,
00010000
00100000
10000000
00000000
00010000
00010000
00000000
00000000
,
00010000
00100000
10000000
00000000
00010000
00000000
00000000
00000000
,
00100010
10001000
01000100
00000000
10001000
10001000
00000000
00000000
,
00100010
00010001
01000100
00000000
00010001
00000000
00000000
00000000
,
00100010
00000000
10001000
00010001
01000100
00000000
00010001
00000000
,
00100010
00010001
01000100
00000000
10011001
00000000
00000000
00000000
,
10000000
01000000
10000000
00000000
00010000
01000000
00010000
00000000
,
10000000
01000000
10000000
00000000
00010000
01000000
00010000
00000000
,
00001000
00000100
00001000
00000000
00000001
00000100
00000001
00000000
,
00001000
00000100
00001000
00000000
00000001
00000100
00000001
00000000
,
00100000
10000000
01000000
00000000
00100000
00010000
01000000
00000000
,
00000010
00001000
00000100
00000000
00000010
00000001
00000100
00000000
,
00100010
00000000
01000100
10001000
00010001
00000000
10001000
00000000
,
01000100
00100010
00010001
00000000
10011001
00000000
00000000
00000000
,
10001000
01000100
00010001
01000100
,
10001000
01000100
00010001
01000100
,
00100000
10000000
01000000
00000000
00000010
00001000
00000100
00000000
,
00010001
00000000
00000000
10001000
01000100
00000000
00000000
00000000
,
00100010
10011001
10001000
00010001
,
10001000
00010001
01000100
01000100
,
00100010
00010001
01000100
10001000
,
00000000
00110000
00000000
00001100
,
00000000
10010000
00000000
00001001
00000000
10010000
00000000
00001001
;

//---------------dance-solo - ----------------
#NOTES:
     dance-solo:
     :
     Easy:
     7:
     0.352562,0.442990,0.175544,0.000000,0.000000,239.000000,222.000000,17.000000,0.000000,0.000000,0.000000,0.352562,0.442990,0.175544,0.000000,0.000000,239.000000,222.000000,17.000000,0.000000,0.000000,0.000000:
000000
000000
000000
000000
,
000000
000000
000000
000000
,
000000
000000
000000
000000
,
000000
000000
000000
000000
,
000000
000000
000000
000000
,
100000
100000
000010
010000
,
000001
001000
000100
100000
,
000001
000001
010000
000010
,
100000
000000
001000
000000
,
000001
000001
010000
000010
,
100000
100000
000010
010000
,
000001
001000
000100
100000
,
000010
000010
010000
000010
,
100000
001000
000100
000001
,
000100
001000
000001
100000
,
000010
000010
010000
000010
,
001000
001000
000001
100000
,
001100
001000
000010
000010
,
100000
001000
100000
000001
,
010000
010000
000010
010000
,
000100
000100
100000
000001
,
001000
000010
000010
010000
,
000100
100000
000100
100000
,
000010
000010
010000
010000
,
000100
000100
000100
001000
,
000001
010000
000010
100000
,
000000
001000
000000
001000
,
000001
000001
100000
100000
,
000000
001000
000000
001000
,
000010
000010
010000
010000
,
000001
001000
000100
100000
,
001000
000001
100000
000100
,
010000
000000
000010
000000
,
001100
001000
000001
100000
,
100001
001000
000100
001000
,
000001
000001
100000
100000
,
001000
001000
000010
010000
,
000100
100001
001000
001000
,
000010
000000
010000
000000
,
000010
000010
010000
010000
,
000001
000000
100001
001000
,
001000
001000
100000
000100
,
001000
001000
100000
000100
,
001000
001000
000001
000100
,
001000
001000
000001
000100
,
010000
000000
000010
001000
,
000010
000000
010000
001000
,
000100
100000
001000
000001
,
010000
000000
100001
000000
,
001000
000100
100000
100000
,
000010
000010
010000
010000
,
000100
000100
100001
100001
,
000100
000100
100001
100001
,
010000
000000
000010
010000
,
000100
000000
100000
000001
,
001000
000000
000001
100000
,
001000
000100
100001
000000
,
000100
000100
100001
100001
,
001000
001000
100001
100001
,
000010
000010
010000
000010
,
010000
000000
100001
000000
,
100000
100000
000100
000100
,
010000
010000
000001
001000
,
000010
000010
100000
001000
,
000001
000000
010000
000000
,
000100
001000
000001
100000
,
001100
000000
000000
000000
;

//---------------dance-solo - ----------------
#NOTES:
     dance-solo:
     :
     Medium:
     10:
     0.489752,0.545218,0.361413,0.000000,0.000000,332.000000,297.000000,35.000000,0.000000,0.000000,0.000000,0.489752,0.545218,0.361413,0.000000,0.000000,332.000000,297.000000,35.000000,0.000000,0.000000,0.000000:
000000
000000
000000
000000
,
000000
000000
000000
000000
,
000000
000000
000000
000000
,
000000
000000
000000
000000
,
000000
000000
000000
000000
,
010000
010000
000010
010000
,
001100
001100
100000
000001
,
001000
010000
100000
000000
000001
000000
000001
000000
,
010000
000000
000000
001000
001000
000000
000000
000000
,
000100
000100
000100
000000
001000
001000
001000
000000
,
000010
000010
000010
000000
010000
010000
010000
000000
,
001000
000001
100000
000000
100001
000000
100001
000000
,
000001
001000
100000
000000
100000
000100
001000
000000
,
000010
010000
000010
000000
010000
000010
010000
000000
,
100000
000100
001000
000000
000001
001000
000100
000000
,
100000
001000
000001
000000
100001
000000
100001
000000
,
001000
100000
000001
000000
100001
000000
100001
000000
,
001000
000010
000100
000000
001100
000000
001100
000000
,
100000
000010
100000
000000
100001
000000
100001
000000
,
010001
100000
100010
100001
,
100000
000010
001000
000001
,
010000
000100
100000
000010
,
001000
000001
010000
000100
,
100000
000001
001000
000000
100001
000000
100001
000000
,
010100
000000
000110
000000
010000
000001
100000
000000
,
000100
000001
100000
001000
,
110000
000000
000001
000000
000010
010000
000010
000000
,
000001
001001
100000
101000
,
000010
100010
001000
000001
,
010000
011000
100000
000100
,
001000
001000
000010
010000
,
000100
000000
001000
000010
010000
000000
100001
000000
,
001000
000000
000000
100000
000001
000000
000000
000000
,
000100
000001
100000
000000
100000
100000
000100
000000
,
000001
001000
000100
000000
001000
010000
000010
000000
,
001000
000001
100000
000000
100000
000010
000010
000000
,
010000
000001
100000
000000
000100
001000
000100
000000
,
100000
000001
001000
000000
000010
000010
000010
000000
,
001000
000100
010000
000000
000001
000001
100000
000000
,
000100
001000
000001
000000
100000
000100
001000
000000
,
000000
000010
000000
001000
000100
100000
000001
000000
,
100000
000100
000001
000000
001000
001000
000000
000000
,
000010
010000
000010
000000
100000
000000
000000
000000
,
010000
000100
001000
000000
000001
000001
000000
000000
,
010000
100000
010000
000000
000001
000000
000000
000000
,
000100
000001
000010
000000
001000
001000
000000
000000
,
010000
100000
010000
000000
000001
000000
000000
000000
,
000100
000000
100000
000010
001000
000000
000001
000000
,
000100
000010
010000
000000
010010
000000
000000
000000
,
010000
100000
010000
000000
000010
000001
000010
000000
,
010000
100000
010000
000000
000010
000001
000010
000000
,
010000
000100
010000
000000
000010
000100
000010
000000
,
100000
001000
000001
000000
000001
001000
100000
000000
,
000100
010000
010000
000000
001000
000010
000010
000000
,
001000
010000
000001
000000
000001
010000
000100
000000
,
000100
000000
001000
000001
100000
000000
000010
000000
,
010000
001000
000100
000000
001100
000000
000000
000000
,
010000
000010
000010
000000
100001
000000
001100
000000
,
000010
010000
010000
000000
001100
000000
100001
000000
,
001000
000100
100000
000000
000010
010000
000100
000000
,
100000
000000
001000
010000
000001
000000
000000
000000
,
000100
100001
001100
000000
,
010000
000000
000010
000000
000000
001000
000000
001000
,
000100
100000
000001
001000
,
000000
000000
000011
000000
000000
000000
100000
010000
,
000000
100000
000000
001000
000000
000001
000000
000100
,
100001
000000
000000
000000
;

//---------------dance-solo - ----------------
#NOTES:
     dance-solo:
     :
     Hard:
     13:
     0.578261,0.613370,0.423370,0.000000,0.000000,392.000000,351.000000,41.000000,0.000000,0.000000,0.000000,0.578261,0.613370,0.423370,0.000000,0.000000,392.000000,351.000000,41.000000,0.000000,0.000000,0.000000:
000000
000000
000000
000000
,
000000
000000
000000
000000
,
000000
000000
000000
000000
,
000000
000000
000000
000000
,
000000
000000
000000
000000
,
110000
110000
000001
000100
,
100000
000001
001000
000000
000100
100000
001000
000000
,
000010
000001
100000
000000
001000
000100
001000
000000
,
010000
000010
010000
001000
001000
000000
000000
000000
,
000001
100000
000100
001000
000010
000010
010000
010000
,
000100
001000
000001
010000
000100
001000
000010
100000
,
001000
010000
000001
000100
000010
100000
000100
001000
,
000001
100000
000010
010000
000100
001000
000100
010000
,
010000
000001
100000
000010
000010
001000
000100
100000
,
000001
001000
000010
010000
000100
100000
100000
000001
,
000001
001000
001000
000010
000010
010000
010000
000100
,
100000
000001
001000
000010
010000
000100
100000
000010
,
000010
001000
001100
000000
000001
010000
010000
000000
,
000001
100000
001001
000000
000100
001000
100001
000000
,
000010
000001
000010
000000
010000
100000
010000
000000
,
001000
000100
001100
000000
000000
100000
000000
000001
,
001000
000100
100000
000000
000001
001000
000100
000000
,
000001
000100
000010
000000
100000
000100
010000
000000
,
000010
000100
000001
000000
100000
000100
010000
000000
,
000000
100010
010001
000000
001000
000100
000001
100000
,
100001
001100
001010
011000
,
100001
000000
000000
001100
000000
000000
000000
000000
,
000011
000101
000110
010100
,
000000
100100
000000
001100
,
100001
100001
001100
100001
,
010000
000010
010000
000000
000010
010000
000010
000000
,
100000
000001
001000
000000
000001
100000
000100
000000
,
001000
000010
010000
000100
001100
000000
000000
000000
,
000100
001000
000010
000010
010000
010000
000100
001000
,
000001
001000
000001
001000
000100
100000
001000
100000
,
000001
000100
000010
010000
000010
010000
000100
100000
,
000001
001000
000100
010000
000000
000010
000000
100000
,
001000
000100
000001
000000
001000
000010
000010
000000
,
100000
010000
110000
000000
000001
000010
000011
000000
,
001000
000100
001000
000000
000001
100000
001000
000000
,
000000
010000
000000
000010
010000
000001
100000
000000
,
001000
100001
000000
001000
000000
000000
000000
000000
,
000000
000000
000000
000100
000000
100000
000001
001000
,
000010
000100
000000
000001
000000
000000
000000
000000
,
000000
000000
000000
000000
000000
001000
000100
000010
,
010000
000100
100000
000001
000000
000000
000000
000000
,
000000
000000
000000
001000
000000
000001
100000
001000
,
000100
000000
100000
010000
001000
000000
000001
000000
,
000100
001100
100001
000000
,
001000
000100
100000
000001
010000
010000
000010
000010
,
001000
000100
001000
000100
010000
000001
100000
000010
,
001000
001000
000001
000010
001000
100000
010000
001000
,
000010
000001
000010
100000
100000
000100
001000
000100
,
100000
000010
000010
010000
000001
000001
001000
000100
,
100000
000001
010000
000010
001000
000100
100000
000001
,
100000
000000
000100
001000
000001
000000
100000
000000
,
000010
000110
010010
000000
,
010000
010100
010010
100010
,
100000
000001
001000
000000
000100
100000
001000
000000
,
000001
000100
000010
000000
100000
000100
010000
000000
,
000000
100000
000100
001000
001000
000000
000000
000000
,
100001
100001
001100
000010
,
010000
001000
100000
000000
000001
000100
000010
000000
,
100000
010000
100000
000000
000001
000010
000001
000000
,
100001
000000
000000
001000
100001
000000
000000
001000
,
010000
000010
000000
001000
000100
001000
000001
100000
,
100010
000000
000000
000000
;

//---------------dance-solo - ----------------
#NOTES:
     dance-solo:
     :
     Beginner:
     5:
     0.244876,0.306685,0.030978,0.000000,0.000000,166.000000,163.000000,3.000000,0.000000,0.000000,0.000000,0.244876,0.306685,0.030978,0.000000,0.000000,166.000000,163.000000,3.000000,0.000000,0.000000,0.000000:
000000
000000
000000
000000
,
000000
000000
000000
000000
,
000000
000000
000000
000000
,
000000
000000
000000
000000
,
000000
000000
000000
000000
,
000010
000010
000010
000010
,
000010
000010
000010
000000
,
010000
010000
010000
010000
,
010000
000000
010010
000000
,
001000
000000
001000
000000
,
010000
000000
000010
000000
,
010000
000000
001000
000000
,
010000
000000
000010
000000
,
010000
000000
001000
000000
,
001000
000000
000010
000000
,
010000
000000
000010
000000
,
001000
000000
001000
000000
,
000010
000010
000010
000000
,
010000
010000
010000
000000
,
000010
000010
000010
000000
,
001000
001000
001000
000000
,
001000
001000
001000
000000
,
000010
000010
000010
000000
,
010000
010000
010000
000000
,
001000
001000
001000
000000
,
010000
010000
010000
010000
,
000000
000000
000000
000000
,
000010
000010
000010
000010
,
000000
000000
000000
000000
,
010000
010000
010000
010000
,
010000
010000
010000
000000
,
000010
000010
000010
000010
,
000010
000000
010010
000000
,
010000
010000
010000
000000
,
001000
001000
001000
000000
,
000010
000010
000010
000000
,
010000
010000
010000
000000
,
000010
000010
000010
000000
,
001000
001000
001000
000000
,
000010
000010
000010
000000
,
010000
000000
001000
000000
,
010000
000000
000010
000000
,
000000
000000
001000
000000
,
001000
000000
000010
000000
,
000000
000000
000000
010000
,
010000
000000
000010
000000
,
000000
000000
001000
000000
,
001000
001000
001000
001000
,
001000
001000
001000
000000
,
000010
000000
000010
000000
,
010000
000000
010000
000000
,
001000
000000
001000
000000
,
010000
000000
000010
000000
,
001000
000000
000010
000000
,
010000
000000
001000
000000
,
010000
010000
010000
010000
,
010000
010000
010000
000000
,
001000
001000
001000
001000
,
001000
001000
001000
000000
,
010000
010000
010000
010000
,
010000
000000
010010
000000
,
000010
000010
000010
000010
,
000010
000010
000010
000000
,
001000
001000
001000
001000
,
001000
000000
000010
000000
,
010000
010000
010000
010000
,
010000
000000
000000
000000
;

//---------------dance-solo - ----------------
#NOTES:
     dance-solo:
     :
     Challenge:
     15:
     0.824613,0.865349,0.640218,0.134239,0.573098,559.000000,497.000000,62.000000,13.000000,0.000000,0.000000,0.824613,0.865349,0.640218,0.134239,0.573098,559.000000,497.000000,62.000000,13.000000,0.000000,0.000000:
000000
000000
000000
000000
,
000000
000000
000000
000000
,
000000
000000
000000
000000
,
000000
000000
000000
000000
,
000000
000000
000000
000000
,
000101
000000
000000
000001
100000
000000
000000
100000
000100
000000
000000
000100
001000
000000
000000
001000
,
000010
000000
000000
000010
010000
000000
000000
010000
000010
000000
000000
000010
010000
000000
000000
000000
,
101000
000000
000000
001000
100000
000000
000000
100000
000010
000000
000000
000010
000100
000000
000000
000000
,
100002
001000
001003
001001
020020
000000
030030
000000
,
001100
000000
100000
000100
100000
000000
001000
000000
000100
000001
000100
000000
000010
010000
000010
000000
,
001000
000000
000100
100000
000001
100000
000100
000000
010000
000010
010000
000010
001000
000000
000100
000000
,
010000
001000
000100
000010
010000
000001
100000
001000
,
010000
000000
000100
001000
000010
000000
100000
000000
000001
000000
000100
000000
000110
000000
000000
000000
,
110000
000000
000000
000011
000000
000000
100000
000100
010000
000001
000000
000000
,
000100
000000
000000
000000
000010
000000
000000
000000
010000
000000
000000
000000
001000
000000
000000
000000
000000
000000
000000
000000
100000
000000
000000
000000
000001
000000
000000
000000
100000
000000
000000
000000
000100
000000
000000
000000
001000
000000
000000
000000
000000
000000
000000
000000
000000
000010
000000
000000
,
010000
000000
000001
000000
000100
000000
000010
000000
100000
000000
001000
000000
010000
000001
000100
000000
,
000010
000000
001000
000100
100000
000000
000000
000100
010000
000000
000010
000000
101000
000000
000000
000000
,
000001
000100
000010
000000
010010
000000
001000
000000
000100
000000
100000
000000
101000
000000
010000
000000
,
000001
000000
000100
000010
010000
000000
001000
000000
100000
000000
000100
000000
001000
000000
000001
000000
,
000100
000000
000001
000000
100000
000000
000010
010000
001000
000000
000100
000000
001000
000000
100000
000000
,
000010
000000
010000
000000
000100
000000
100000
000000
000001
010000
000010
000000
001000
000000
000001
000000
,
100000
000000
000100
000000
010000
000000
000010
001000
000010
000000
000100
000000
000001
000000
100000
001000
,
100000
000000
000100
001000
000010
000000
010000
000001
100000
000000
000010
000000
000100
000000
001000
000000
,
100000
000000
000010
000000
010000
000000
001000
000000
000100
000001
100000
000000
000010
000000
010000
000000
,
000000
100001
100000
000010
000100
001000
010000
000001
,
000101
101000
001001
100100
,
000010
000100
001000
200000
000000
000001
300001
010000
,
011000
000110
001010
010100
,
000001
000000
010000
000000
000100
001000
000100
001000
000100
000000
100000
000000
000010
000000
010000
000000
,
100100
000000
000000
000100
001000
000000
000000
001000
000001
000000
000000
000001
010000
000000
000000
010000
,
000010
000000
000000
000010
001000
000000
000000
001000
000100
000000
000000
000100
100000
000000
000000
000000
,
001001
000000
000000
000001
010000
000000
000000
010000
001000
000000
000000
001000
100000
000000
000000
000000
,
200001
000000
001000
000000
301000
000000
101000
000000
020020
000000
000000
000000
030030
000000
000000
100000
,
000100
001000
000010
010000
000001
010000
001000
100000
,
000010
000000
000100
000001
100000
000000
000000
001000
010000
000010
100000
000000
000001
000000
000000
000000
,
010000
001000
010000
000000
000100
000000
001000
000000
000001
000000
100000
000000
100010
000000
000000
000000
,
010000
000000
001000
000000
100000
000000
000001
000000
000100
000010
010000
000010
001000
000000
000000
000000
,
001010
000000
000010
000000
100000
000000
000000
000000
000001
010000
001000
000100
000010
000000
000000
000000
,
100000
000000
000100
000000
001000
000000
000000
000010
010000
000001
000100
000000
000010
000000
000000
010000
,
001000
000000
000000
100000
000000
000000
000100
000000
000000
001000
000000
000000
000001
000000
010000
000000
000010
000000
100000
000000
000000
000100
000000
000000
,
000000
001100
000000
010010
000010
000100
001000
010000
,
000001
000000
100000
001000
100000
000000
000010
000100
000001
000000
010000
000000
001000
000000
010000
000000
,
000010
000100
001000
000000
100000
000000
000001
001000
010000
000000
000010
000000
100000
000000
001000
000000
,
010000
000000
000001
000000
000100
000000
001000
000000
000000
100000
000000
000000
000010
000000
000000
010000
000000
000000
000001
000000
000000
000000
000000
000000
,
000100
000000
000001
000000
100000
000000
000010
000000
000000
001000
000000
000000
000100
000000
010000
000000
001000
000000
100000
000000
000000
000001
000000
000000
,
000100
000000
000000
000000
000001
000000
000000
000000
001000
000000
000000
000000
000010
000000
000000
000000
000000
000000
000000
000000
000000
010000
000000
000000
001000
000000
000000
100000
000000
000000
001000
000000
000000
010000
000000
000000
000010
000000
000000
000000
000000
000000
000000
000000
000000
000001
000000
000000
,
010000
001000
100000
000100
001100
001100
010010
000001
,
100001
000000
000100
000000
000110
000000
000001
000000
001001
000000
000010
000000
010010
000000
000000
100000
,
000100
000100
000100
000100
100001
000000
001100
000000
,
010010
000000
000010
000000
000100
000000
001000
000000
100000
000100
100000
000000
010000
000000
000001
000000
,
000100
000000
000010
000000
010000
000000
000100
000000
100000
001000
100000
000000
000001
000000
010000
000000
,
000010
000000
000100
000000
010000
000000
000001
000000
001000
000100
001000
000000
000010
000000
100000
000000
,
010000
000000
100000
000000
000100
000000
001000
000000
000010
000100
000010
000000
100000
000000
000001
000000
,
000100
000000
000010
000000
100000
000000
000001
000000
010000
001000
010000
000000
000010
000000
001000
000000
,
000100
000000
100000
000000
001000
000000
000100
000000
000010
010000
000010
000000
000001
000000
000000
000000
,
001100
000000
001010
100010
000110
000000
010001
000000
,
000011
110000
020020
030030
,
010100
000000
000000
010000
000001
000000
000000
000001
100000
000000
000000
100000
000100
000000
000000
000100
,
001000
000000
000000
001000
000010
000000
000000
000010
010000
000000
000000
010000
000001
000000
000000
000000
,
000110
000000
000000
000010
010000
000000
000000
010000
001000
000000
000000
001000
000100
000000
000000
000000
,
000102
010000
010003
010100
200001
000010
300010
000000
,
010001
000000
000000
010000
001000
000000
000000
001000
100000
000000
000000
100000
000010
000000
000000
000010
,
000100
000000
000000
000100
000001
000000
000000
000001
100000
000000
000000
100000
010000
000000
000000
000000
,
001010
000000
000000
000010
100000
000000
000000
100000
000001
000000
000000
000001
001000
000000
000100
000000
,
100100
001000
010000
000010
000101
100000
000010
001000
,
001001
000001
000101
000100
001100
001000
101000
100000
,
200002
000000
000000
000000
000000
000000
000000
000000
000000
000000
000000
000000
300003
000000
000000
100000
000000
000100
000000
010000
000000
000001
000000
001000
,
000000
000010
000000
000000
000000
000000
000000
000000
000000
000000
000000
000000
000000
000000
000000
000000
000000
000000
000000
000000
000000
000000
000000
000000
;

//---------------dance-single - ----------------
#NOTES:
     dance-single:
     :
     Challenge:
     15:
     0.845265,0.934576,0.774457,0.175544,0.629892,573.000000,498.000000,75.000000,17.000000,0.000000,0.000000,0.845265,0.934576,0.774457,0.175544,0.629892,573.000000,498.000000,75.000000,17.000000,0.000000,0.000000:
// measure 0
0000
0000
0000
0000
,  // measure 1
0000
0000
0000
0000
,  // measure 2
0000
0000
0000
0000
,  // measure 3
0000
0000
0000
0000
,  // measure 4
0000
0000
0000
0000
,  // measure 5
0011
0000
0000
0001
1000
0000
0000
1000
0010
0000
0000
0010
0100
0000
0000
0100
,  // measure 6
0001
0000
0000
0001
1000
0000
0000
1000
0010
0000
0000
0010
0100
0000
0000
0000
,  // measure 7
1010
0000
0000
1000
0100
0000
0000
0100
0010
0000
0000
0010
0001
0000
0000
0000
,  // measure 8
1002
0100
0103
0101
2002
0000
3003
0000
,  // measure 9
0110
0000
1000
0010
1000
0010
0100
0000
0001
0010
0001
0000
0100
0010
1000
0010
,  // measure 10
0100
0000
0001
0010
0001
1000
0010
0000
0100
0010
0100
0010
1000
0000
0001
0000
,  // measure 11
0010
0001
1000
0010
1000
0100
0010
0001
,  // measure 12
0100
0000
0001
0010
0001
0000
1000
0000
0010
0000
0100
0000
0101
0000
0000
0000
,  // measure 13
1100
0000
0000
0011
0000
0000
1000
0001
0010
0100
0000
0000
,  // measure 14
1000
0000
0000
0000
0010
0000
0000
0000
0100
0000
0000
0000
0001
0000
0000
0000
0000
0000
0000
0000
0010
0000
0000
0000
0001
0000
0000
0000
1000
0000
0000
0000
0100
0000
0000
0000
0010
0000
0000
0000
0000
0000
0000
0000
0000
0100
0000
0000
,  // measure 15
1000
0000
0010
0000
0100
0000
0001
0000
0010
0000
0100
0000
1000
0001
1000
0000
,  // measure 16
0001
0000
0010
0100
1000
0000
0001
0000
0100
0000
0010
0000
1001
0000
0000
0000
,  // measure 17
1000
0000
0100
0000
0010
0000
0001
0000
0000
0000
0000
0000
0110
0000
0000
0010
0000
0000
1010
0000
0000
0000
0000
0000
,  // measure 18
0001
0000
0010
0100
1000
0000
0000
0000
1100
0000
0001
0000
0101
0000
0000
0000
,  // measure 19
0011
0000
0010
0100
1000
0000
0000
0001
1000
0000
0010
0000
1010
0000
0000
0000
,  // measure 20
0001
0000
0001
0000
0001
0100
0010
0100
0010
1000
0100
1000
0010
0000
0000
0000
,  // measure 21
1000
0100
0010
0100
1000
0000
0000
0001
0100
0000
0010
0000
1000
0000
0001
0010
,  // measure 22
0001
0000
1000
0010
0100
0000
0010
1000
0001
0000
0100
0000
0110
0000
0000
0010
,  // measure 23
1000
0000
0100
0000
0010
0000
0001
0000
0100
0010
0100
0010
1000
0000
0000
0000
,  // measure 24
0001
0000
0010
0001
1000
0000
0010
0100
0010
0000
1000
0000
1001
0000
0000
0000
,  // measure 25
0011
1100
0101
1010
,  // measure 26
0001
0010
0100
2000
0000
0010
3010
0100
,  // measure 27
0101
1010
1100
0011
,  // measure 28
0001
0000
1000
0000
0010
0100
0010
0100
0010
0000
1000
0000
0001
0000
0100
0000
,  // measure 29
0101
0000
0000
0001
0010
0000
0000
0010
0100
0000
0000
0100
1000
0000
0000
1000
,  // measure 30
0010
0000
0000
0010
0100
0000
0000
0100
0001
0000
0000
0001
1000
0000
0000
0000
,  // measure 31
1100
0000
0000
0100
1000
0000
0000
1000
0001
0000
0000
0001
0100
0000
0000
0000
,  // measure 32
2001
0000
0100
0000
3100
0000
1100
0000
2002
0000
0000
0000
3003
0000
0000
0001
,  // measure 33
0010
0100
1000
0010
1000
0001
0100
0001
,  // measure 34
0010
0000
0100
1000
0001
0000
0000
1000
0010
0100
0001
0000
0011
0000
0000
0000
,  // measure 35
1000
0000
0001
0000
1000
0000
0100
0000
0000
0000
0000
0000
0011
0000
0000
0001
0000
0000
1100
0000
0000
0000
0000
0000
,  // measure 36
0010
0000
0100
0000
0001
0000
1000
0100
1000
0010
1000
0001
0100
0000
0000
0000
,  // measure 37
1010
0000
1000
0000
0100
0000
0000
0000
1000
0001
0010
0001
0100
0000
0000
0000
,  // measure 38
0010
0000
1000
0100
1000
0000
0001
0010
0000
0001
0100
0000
0110
0000
0000
0001
,  // measure 39
1000
0000
0000
0010
0000
0000
1000
0000
0000
0001
0000
0000
0100
0000
0001
0000
0010
0000
0100
0000
0000
1000
0000
0000
,  // measure 40
0000
1100
0000
1001
0020
0230
0302
2003
,  // measure 41
3001
0000
1000
0100
1000
0000
0010
0100
0001
0000
1000
0000
0010
0000
0100
0000
,  // measure 42
0001
0010
0100
1000
1100
1100
0101
0001
,  // measure 43
1000
0000
0001
0000
0010
0000
0100
0000
0000
1000
0000
0000
1010
0000
0000
1010
0000
0000
0101
0000
0000
0000
0000
0000
,  // measure 44
0001
0000
0010
0001
1000
0000
0100
0000
1000
0010
0100
0000
0001
0000
1000
0000
,  // measure 45
0010
0000
0000
0000
0100
0000
0000
0000
0010
0000
0000
0000
1000
0000
0000
0000
0000
0000
0000
0000
0000
0001
0000
0000
1000
0000
0000
0100
0000
0000
1000
0000
0000
0100
0000
0000
0010
0000
0000
0000
0000
0000
0001
0000
0000
0000
0000
0000
,  // measure 46
0010
0000
0010
0000
0010
0000
0001
1000
0001
0000
0011
0000
1100
0000
0000
0000
,  // measure 47
1010
0000
0010
0000
0110
0000
0100
0000
0101
0000
0001
0000
0011
0000
0000
0001
,  // measure 48
1000
1000
1000
1000
1001
0000
0110
0000
,  // measure 49
1001
0000
0001
0000
0010
0000
0100
0000
1000
0010
1000
0000
0001
0000
0100
0000
,  // measure 50
0010
0000
0100
0000
0010
0000
1000
0000
0001
0100
0001
0000
0010
0000
0100
0000
,  // measure 51
1000
0000
0001
0000
1000
0000
0010
0000
0100
0001
0100
0000
0010
0000
0100
0000
,  // measure 52
0010
0000
1000
0000
0100
0000
0010
0000
0001
0100
0001
0000
1000
0000
0010
0000
,  // measure 53
0100
0000
0010
0000
1000
0000
0100
0000
1000
0001
1000
0000
0001
0000
0010
0000
,  // measure 54
0001
0000
0100
0000
0010
0000
1000
0000
0001
0100
0001
0000
0010
0000
0000
0000
,  // measure 55
0011
0000
0101
1001
1100
0000
1010
0000
,  // measure 56
0110
1001
0220
0330
,  // measure 57
1001
0000
0000
0001
0010
0000
0000
0010
0001
0000
0000
0001
1000
0000
0000
1000
,  // measure 58
0100
0000
0000
0100
1000
0000
0000
1000
0010
0000
0000
0010
0100
0000
0000
0000
,  // measure 59
0101
0000
0000
0001
0010
0000
0000
0010
0001
0000
0000
0001
1000
0000
0000
0000
,  // measure 60
2100
0001
3001
0011
1002
0100
0103
0000
,  // measure 61
0110
0000
0000
0010
0100
0000
0000
0100
0001
0000
0000
0001
0010
0000
0000
0010
,  // measure 62
0001
0000
0000
0001
1000
0000
0000
1000
0010
0000
0000
0010
1000
0000
0000
0000
,  // measure 63
1100
0000
0000
1000
0001
0000
0000
0001
0100
0000
0000
0100
0010
0000
0010
0000
,  // measure 64
0101
0001
1000
0100
1010
0010
0100
0001
,  // measure 65
1100
1000
1010
0010
0110
0100
0101
0001
,  // measure 66
2002
0000
0000
0000
0000
0000
0000
0000
0000
0000
0000
0000
3003
0000
0000
1000
0000
0010
0000
0100
0000
0001
0000
1000
,  // measure 67
0000
0100
0000
0000
0000
0000
0000
0000
0000
0000
0000
0000
0000
0000
0000
0000
0000
0000
0000
0000
0000
0000
0000
0000
;
