#VERSION:0.83;
#TITLE:ECSTASY (midnight blue mix);
#SUBTITLE:;
#ARTIST:d-complex;
#TITLETRANSLIT:;
#SUBTITLETRANSLIT:;
#ARTISTTRANSLIT:;
#GENRE:;
#ORIGIN:;
#CREDIT:;
#BANNER:ECSTASY (midnight blue mix)-bn.png;
#BACKGROUND:ECSTASY (midnight blue mix)-bg.png;
#PREVIEWVID:;
#JACKET:ECSTASY (midnight blue mix)-jacket.png;
#CDIMAGE:;
#DISCIMAGE:ECSTASY (midnight blue mix).png;
#LYRICSPATH:;
#CDTITLE:;
#MUSIC:ECSTASY (midnight blue mix).ogg;
#OFFSET:0.000000;
#SAMPLESTART:28.094000;
#SAMPLELENGTH:20.000000;
#SELECTABLE:YES;
#DISPLAYBPM:145.000000:150.000000;
#BPMS:0.000=145.749,
4.000=145.268,
180.000=150.330;
#STOPS:;
#DELAYS:;
#WARPS:;
#TIMESIGNATURES:0.000=4=4;
#TICKCOUNTS:0.000=4;
#COMBOS:0.000=1;
#SPEEDS:0.000=1.000=0.000=0;
#SCROLLS:0.000=1.000;
#FAKES:;
#LABELS:0.000=Song Start;
#BGCHANGES:;
#KEYSOUNDS:;
#ATTACKS:
;

//---------------dance-single - ----------------
#NOTEDATA:;
#CHARTNAME:;
#STEPSTYPE:dance-single;
#DESCRIPTION:;
#CHARTSTYLE:;
#DIFFICULTY:Hard;
#METER:11;
#RADARVALUES:0.438475,0.517347,0.267363,0.074862,0.294099,287.000000,262.000000,25.000000,7.000000,0.000000,0.000000,0.000000,0.000000,0.000000,0.438475,0.517347,0.267363,0.074862,0.294099,287.000000,262.000000,25.000000,7.000000,0.000000,0.000000,0.000000,0.000000,0.000000;
#CREDIT:;
#DISPLAYBPM:145.000000;
#NOTES:
0000
0000
0000
0000
,
0000
0000
0000
0000
,
0000
0000
0000
0000
,
0000
0000
0000
0000
,
1001
0000
0100
0010
0000
0000
1000
0001
,
0100
0000
0110
0000
0001
0000
1000
0100
,
0010
0000
0101
0000
0010
0000
0001
1000
,
0100
0000
1100
0000
0001
0000
0001
0010
,
1000
0000
0000
0000
1100
0000
0000
0000
0010
0000
0001
0000
0100
0000
0000
1000
,
0100
0000
0001
0000
0000
0000
0000
1000
0100
0000
0010
0000
0000
0000
0000
1000
,
0100
0000
0001
0000
0000
0000
0000
1000
0100
0000
0010
0000
0000
0000
0000
0001
,
0100
0000
1000
0000
0000
0000
0000
0001
0100
0000
0010
0000
0000
0000
0000
0001
,
0100
0000
1000
0000
0000
0000
0000
0001
0100
0000
0010
0000
0000
0000
0000
0010
,
1000
0000
0001
0000
0000
0000
0000
0001
0100
0000
0010
0000
0000
0000
0000
0010
,
1000
0000
0001
0000
0000
0000
0000
0001
0100
0000
0010
0000
0000
0000
0000
0010
,
0001
0000
1000
0000
0000
0000
0000
1000
0100
0000
0010
0000
0000
0000
0000
0010
,
0001
0000
1000
0000
0000
0000
0000
1000
0100
0000
0010
0000
0000
0000
0000
0000
,
1020
0000
0000
1000
0000
0000
1000
0000
1030
0000
0000
1000
0000
0000
1000
0000
,
2100
0000
0000
0100
0000
0000
0100
0000
3100
0000
0000
0100
0000
0000
0100
0000
,
0201
0000
0000
0001
0000
0000
0001
0000
0301
0000
0000
0001
0000
0000
0001
0000
,
0012
0000
0000
0010
0000
0000
0010
0000
0013
0000
0000
0010
0000
0000
0010
0000
,
1000
0000
0000
1000
0000
0000
1000
0000
0100
0000
0000
0100
0000
0000
0100
0000
,
0010
0000
0000
0010
0000
0000
0010
0000
0001
0000
0000
1000
0000
0000
0100
0000
,
0010
0000
0000
0010
0000
0000
0010
0000
0001
0000
0000
0001
0000
0000
0001
0000
,
1000
0000
0000
1000
0000
0000
1000
0000
0001
0000
0000
0010
0000
0000
1000
0000
,
1000
0000
0000
0010
0000
0000
0100
0000
0000
0000
0000
0000
0011
0000
0000
0000
,
0100
0000
0000
1000
0000
0000
0010
0000
0000
0000
1000
0000
0000
1000
0000
0000
,
0100
0000
0000
0001
0000
0000
1010
0000
0000
0000
0000
0000
1001
0000
0000
0000
,
0001
0000
0000
0100
0000
0000
0100
0000
0000
0000
0000
0000
1001
0000
0000
0000
,
0100
1001
0001
0110
,
0001
1010
0101
1000
,
0100
0001
0010
1100
,
0100
0010
1000
0110
,
2001
0100
0001
0100
,
0001
0100
0001
0100
,
0010
0000
0000
0010
0000
0000
0010
0000
0000
0000
0000
0000
0010
0000
0000
0000
,
0100
0000
0000
0100
0000
0000
0100
0000
0000
0000
0000
0000
3100
0000
0000
0100
,
1000
0000
0000
0000
0001
0000
0000
0100
1000
0000
0000
0000
0001
0000
0000
0001
,
1000
0000
0000
0000
0100
0000
0000
0001
1000
0000
0000
0000
0100
0000
0000
0010
,
0100
0000
0000
0000
0001
0000
0000
0010
0100
0000
0000
0000
0001
0000
0000
1000
,
0100
0000
0000
0000
0010
0000
0000
1000
0100
0000
0000
0000
0010
0000
0000
0100
,
1000
0000
0001
0000
0000
0000
0000
0100
1000
0000
0001
0000
0000
0000
0000
0001
,
1000
0000
0100
0000
0000
0000
0000
0001
1000
0000
0100
0000
0000
0000
0000
0010
,
0100
0000
0001
0000
0000
0000
0000
0010
0100
0000
0001
0000
0000
0000
0000
1000
,
0100
0000
0010
0000
0000
0000
0000
1000
0100
0000
0010
0000
0000
0000
0000
0000
,
1000
0000
0100
0000
,
0001
0000
0100
0000
,
1010
0000
0100
0000
0010
0001
0100
0010
,
1001
0000
0100
0000
0010
0001
1000
0100
,
0110
0000
1000
0000
0001
0010
0100
1000
,
1001
0000
0010
0000
0001
1000
0100
0010
,
0001
0010
0100
1000
0100
1000
0001
1000
,
0010
0100
0001
0010
0001
1000
0010
0220
,
0000
0000
0000
0330
;

//---------------dance-double - ----------------
#NOTEDATA:;
#CHARTNAME:;
#STEPSTYPE:dance-double;
#DESCRIPTION:;
#CHARTSTYLE:;
#DIFFICULTY:Hard;
#METER:11;
#RADARVALUES:0.377363,0.517347,0.192501,0.192501,0.192501,247.000000,229.000000,18.000000,18.000000,0.000000,0.000000,0.000000,0.000000,0.000000,0.377363,0.517347,0.192501,0.192501,0.192501,247.000000,229.000000,18.000000,18.000000,0.000000,0.000000,0.000000,0.000000,0.000000;
#CREDIT:;
#DISPLAYBPM:145.000000:150.000000;
#NOTES:
00000000
00000000
00000000
00000000
,
00000000
00000000
00000000
00000000
,
00000000
00000000
00000000
00000000
,
00000000
00000000
00000000
00000000
,
00011000
00000000
00100000
00000000
00010000
00000000
00100000
00010000
,
00001000
00000000
00000100
00000000
00000100
00000000
00000010
00000001
,
00000100
00000000
00000010
00000000
00001000
00000000
00001000
00010000
,
00100000
00000000
00100000
00000000
01000000
00000000
00100000
00010000
,
00100000
00000000
00000000
00000000
10010000
00000000
00000000
00000000
01000000
00000000
00100000
00000000
00001000
00000000
00000000
00001000
,
00010000
00000000
00000010
00000000
00000000
00000000
00000000
00000001
00000100
00000000
00001000
00000000
00000000
00000000
00000000
00000010
,
00001000
00000000
00000100
00000000
00000000
00000000
00000000
00010000
00001000
00000000
01000000
00000000
00000000
00000000
00000000
00010000
,
10000000
00000000
01000000
00000000
00000000
00000000
00000000
00100000
00010000
00000000
01000000
00000000
00000000
00000000
00000000
00001000
,
00010000
00000000
00001000
00000000
00000000
00000000
00000000
00000010
00001000
00000000
00000010
00000000
00000000
00000000
00000000
00000001
,
00000010
00000000
00000001
00000000
00000000
00000000
00000000
00000001
00000100
00000000
00000001
00000000
00000000
00000000
00000000
00000010
,
00001000
00000000
00000100
00000000
00000000
00000000
00000000
00010000
00001000
00000000
00010000
00000000
00000000
00000000
00000000
00001000
,
00010000
00000000
00001000
00000000
00000000
00000000
00000000
00001000
00100000
00000000
00010000
00000000
00000000
00000000
00000000
00010000
,
01000000
00000000
00010000
00000000
00000000
00000000
00000000
10000000
01000000
00000000
00100000
00000000
00000000
00000000
00000000
00000000
,
00200000
00000000
00310000
00010000
,
00020000
00000000
00031000
00001000
,
00022000
00000000
00033000
00000100
,
00000102
00000000
00000003
00000001
,
00000020
00000000
00001030
00001000
,
00021000
00000000
00130000
00100000
,
00200000
00000000
10300000
10000000
,
10020000
00000000
00030000
00010000
,
10000000
00000000
00000000
00100000
00000000
00000000
00010000
00000000
00000000
00000000
00000000
00000000
00010000
00000000
00000000
00000000
,
00001000
00000000
00000000
00010000
00000000
00000000
00001000
00000000
00000000
00000000
00000000
00000000
00001010
00000000
00000000
00000000
,
00000010
00000000
00000000
00000001
00000000
00000000
00001000
00000000
00000000
00000000
00000000
00000000
00001001
00000000
00000000
00000000
,
00010000
00000000
00000000
00001000
00000000
00000000
00001000
00000000
00000000
00000000
00000000
00000000
00110000
00000000
00000000
00000000
,
01000000
00011000
00001000
00000110
,
00000001
00001100
00011000
00001000
,
00000010
00000001
00000100
00001000
,
00010000
00100000
10000000
01000000
,
00020000
00000000
02030000
00000000
,
03020000
00000000
00032000
00000000
,
00003200
00001000
00000302
00000100
,
00000023
00000000
00000000
00000000
00000100
00000000
00000000
00000000
00001030
00000000
00000000
00000000
00000000
00000000
00000000
00001000
,
00010000
00000000
00000000
00000000
00001000
00000000
00000000
00100000
01000000
00000000
00000000
00000000
10000000
00000000
00000000
00100000
,
01000000
00000000
00000000
00000000
00010000
00000000
00000000
00001000
00010000
00000000
00000000
00000000
01000000
00000000
00000000
00010000
,
00001000
00000000
00000000
00000000
00000100
00000000
00000000
00000001
00000100
00000000
00000000
00000000
00000010
00000000
00000000
00001000
,
00000100
00000000
00000000
00000000
00010000
00000000
00000000
00001000
00010000
00000000
00000000
00000000
00000100
00000000
00000000
00001000
,
00010000
00000000
00001000
00000000
00000000
00000000
00000000
00100000
01000000
00000000
10000000
00000000
00000000
00000000
00000000
00100000
,
01000000
00000000
00010000
00000000
00000000
00000000
00000000
00001000
00010000
00000000
01000000
00000000
00000000
00000000
00000000
00010000
,
00001000
00000000
00000100
00000000
00000000
00000000
00000000
00000001
00000100
00000000
00000010
00000000
00000000
00000000
00000000
00001000
,
00000100
00000000
00010000
00000000
00000000
00000000
00000000
00001000
00010000
00000000
00000100
00000000
00000000
00000000
00000000
00000000
,
00010000
00000000
00100000
00000000
,
10000000
00000000
01000000
00000000
,
01001000
00000000
00010000
00000000
00001000
00010000
00000100
00001000
,
00010100
00000000
00001000
00000000
00000010
00001000
00000100
00000010
,
00001100
00000000
00010000
00000000
00001000
00010000
01000000
00100000
,
11000000
00000000
00100000
00000000
10000000
01000000
00100000
01000000
,
00010000
00001000
00000100
00001000
00010000
00000100
00001000
00000100
,
00000010
00000001
00000100
00001000
00010000
00001000
00000010
00000220
,
00000000
00000000
00000000
00000330
;

//---------------dance-single - ----------------
#NOTEDATA:;
#CHARTNAME:;
#STEPSTYPE:dance-single;
#DESCRIPTION:;
#CHARTSTYLE:;
#DIFFICULTY:Challenge;
#METER:12;
#RADARVALUES:0.629448,0.632312,0.449169,0.149723,0.481253,412.000000,370.000000,42.000000,14.000000,0.000000,0.000000,0.000000,0.000000,0.000000,0.629448,0.632312,0.449169,0.149723,0.481253,412.000000,370.000000,42.000000,14.000000,0.000000,0.000000,0.000000,0.000000,0.000000;
#CREDIT:;
#DISPLAYBPM:145.000000:150.000000;
#NOTES:
0000
0000
0000
0000
,
0000
0000
0000
0000
,
0000
0000
0000
0000
,
0000
0000
0000
0000
,
1010
0000
0000
0101
0000
0000
1001
0000
0000
0000
0010
0000
1000
0001
0000
0100
,
0020
0000
0000
1000
0000
0000
0130
0000
0000
0000
0001
0000
1000
0001
0000
0100
,
0002
0000
0000
0010
0000
0000
1003
0000
0000
0000
0010
0000
0100
0001
0000
1000
,
0200
0000
0000
0010
0000
0000
1300
0000
0000
0000
0010
0000
0100
0001
0000
1000
,
0001
0000
0010
0000
0100
0000
2000
0000
0000
0000
3001
0000
1000
0010
0000
0100
,
0001
0000
0100
0000
0110
0000
0000
0010
1000
0000
0001
0000
0011
0000
0000
0010
,
0100
0000
1000
0000
1010
0000
0000
1000
0001
0000
0100
0000
1001
0000
0000
0010
,
1000
0000
0001
0000
0101
0000
0000
0010
0100
0000
0001
0000
0011
0000
0000
0100
,
1000
0000
0100
0000
1100
0000
0000
1000
0001
0000
0010
0000
0110
0000
0000
0100
,
1000
0000
0010
0000
1010
0000
0000
1000
0100
0000
0010
0000
0011
0000
0000
0001
,
0100
0000
0001
0000
0110
0000
0000
0010
1000
0000
0100
0000
1001
0000
0000
1000
,
0010
0000
1000
0000
1100
0000
0000
0100
0010
0000
0001
0000
0101
0000
0000
0100
,
0010
0000
0100
0000
1010
0000
0000
1000
0100
0000
0010
0000
1001
0000
0000
0001
,
1000
0000
1000
0000
0000
0100
0000
0100
1000
0000
0001
0010
0000
0001
0010
0000
,
0100
0000
0100
0000
0000
0010
0000
0010
0001
0000
1000
0001
0000
1000
0100
0000
,
0010
0000
0010
0000
0000
0001
0000
0100
0010
0000
1000
0001
0000
1000
0100
0000
,
0010
0000
0010
0000
0000
0010
0000
0001
0100
0000
0001
1000
0000
1000
0100
0000
,
1000
0000
1000
0000
0001
0100
0000
0001
0100
0000
0010
1000
0000
0010
0100
0000
,
0001
0000
0001
0000
1000
0100
0000
1000
0010
0000
0100
0001
0000
0100
0010
0000
,
0100
0000
0100
0000
0001
1000
0000
1000
0100
0000
0010
0001
0000
0001
0010
0000
,
0001
0000
0001
0000
1000
0001
0000
0100
0010
0000
0100
0010
0000
1000
0010
0000
,
1002
0000
0000
0100
0000
0000
1003
0000
0000
0000
0000
0000
0000
1010
0000
0000
,
0201
0000
0000
0010
0000
0000
0301
0000
0000
0000
0110
0000
0000
1001
0000
0000
,
2100
0000
0000
0010
0000
0000
3100
0000
0000
0000
0000
0000
0000
0011
0000
0000
,
0120
0000
0000
1000
0000
0000
0031
0000
0000
0000
0011
0000
0000
1100
0000
0000
,
0101
0000
0000
0001
0100
0000
0000
0100
0001
0000
1000
0000
0100
0000
0000
0000
,
1100
0000
0000
1000
0100
0000
0000
0100
1000
0000
0001
0000
0100
0000
0000
0000
,
0110
0000
0000
0010
1000
0000
0000
1000
0010
0000
0100
0000
0001
0000
0000
0000
,
0011
0000
0000
0010
0001
0000
0000
0001
0010
0000
0100
0000
1000
0000
0000
0000
,
0010
1000
0100
1000
0010
0001
0100
0001
,
1000
0100
1000
0010
0100
0001
0010
0001
,
1000
0001
0010
0100
1000
0010
0100
0001
,
0010
0001
1000
0100
1000
0010
0100
0001
,
1000
0100
0010
0001
0100
0001
1000
0010
,
1000
0001
0010
0001
0100
0010
1000
0100
,
0010
0100
0010
0001
0100
1000
0010
1000
,
0001
1000
0100
0010
0001
1000
0010
0100
,
0001
0001
0101
0000
1000
1000
1100
0000
,
0010
0010
1010
0000
0100
0100
0110
0000
,
0010
0010
1001
0000
0100
0100
0011
0000
,
0001
0001
1010
0000
1000
1000
0110
0000
,
1002
0100
2003
0100
,
3020
1000
0230
0301
,
0100
0001
0010
0100
1000
0001
1000
0010
,
1000
0100
0010
0001
0010
0001
1000
0100
,
0010
0000
0010
0000
0001
0100
0000
0000
0001
0000
0001
0000
1000
0100
0000
0000
,
1000
0000
1000
0000
0010
0100
0000
0000
0100
0000
0100
0000
0001
0010
0000
0000
,
0001
0000
0001
0000
0010
0100
0000
1000
0010
0000
0010
0000
1000
0100
0000
1000
,
0001
0000
1000
0000
0010
1000
0000
0001
0100
0000
0010
1000
0000
0020
0200
0000
,
0000
0000
0000
0330
;

//---------------dance-single - ----------------
#NOTEDATA:;
#CHARTNAME:;
#STEPSTYPE:dance-single;
#DESCRIPTION:;
#CHARTSTYLE:;
#DIFFICULTY:Medium;
#METER:8;
#RADARVALUES:0.381946,0.431122,0.235279,0.128334,0.000000,250.000000,228.000000,22.000000,12.000000,0.000000,0.000000,0.000000,0.000000,0.000000,0.381946,0.431122,0.235279,0.128334,0.000000,250.000000,228.000000,22.000000,12.000000,0.000000,0.000000,0.000000,0.000000,0.000000;
#CREDIT:;
#DISPLAYBPM:145.000000:150.000000;
#NOTES:
0000
0000
0000
0000
,
0000
0000
0000
0000
,
0000
0000
0000
0000
,
0000
0000
0000
0000
,
1002
0010
1000
0103
,
1000
0000
1100
0000
0001
0100
0010
0000
,
0100
0000
1001
0000
0010
1000
0001
0000
,
0101
0000
1100
0000
1000
0001
0100
0000
,
0001
0010
0100
2000
0000
0000
3000
0000
,
1000
0001
0000
0000
0100
0010
0000
0000
,
1000
0100
0000
0000
0010
0001
0000
0000
,
0100
0001
0000
0000
1000
0010
0000
0000
,
0100
0010
0000
0000
1000
0001
0000
0000
,
0010
0001
0000
0000
0100
1000
0000
0000
,
0001
1000
0000
0000
0010
0100
0000
0000
,
0010
0100
0000
0000
0001
1000
0000
0000
,
0010
1000
0000
0000
0100
0001
0000
0000
,
0010
0100
0010
0000
1000
0001
0100
0000
,
0001
0011
1000
1010
,
1000
0001
1000
0000
0010
0100
0001
0000
,
0010
1100
0100
0101
,
1000
0100
0001
0000
1000
0010
0001
0000
,
0100
1001
0010
1100
,
0100
0010
0001
0000
1000
0001
0100
0000
,
0001
1010
1000
0101
,
0020
0100
0000
0130
,
0002
0010
0000
0013
,
2000
0001
0000
3001
,
0200
1000
0000
1300
,
0101
0000
0010
0000
1000
0100
0001
0000
,
1100
0000
0010
0000
0100
0001
1000
0000
,
0011
0000
0100
0000
0010
0001
1000
0000
,
1001
0000
0110
0000
0010
0100
0001
0000
,
1000
0100
1000
0000
0010
0100
0010
0000
,
1000
0001
0010
0000
0100
1000
0001
0000
,
0100
0001
0100
0000
0001
1000
0001
0000
,
0010
0001
1000
0000
0100
1000
0010
0000
,
0100
0100
0000
0000
0010
0010
0000
0000
,
1000
1000
0000
0000
0001
0001
0000
0000
,
0010
0010
0000
0000
0001
0001
0000
0000
,
1000
1000
0000
0000
0100
0100
0000
0000
,
0001
0010
0000
0000
0100
1000
0000
0000
,
0010
1000
0000
0000
0001
0100
0000
0000
,
0100
0010
0000
0000
0100
0010
0000
0000
,
1000
0001
0000
0000
1000
0001
0000
0000
,
2002
3000
0100
1003
,
0220
0030
0010
0301
,
1000
0000
0110
0000
0001
0010
0100
0000
,
0010
0000
1100
0000
1000
0001
0100
0000
,
0001
0010
0001
0100
0010
1000
0001
0000
,
1000
0100
1000
0010
0100
0001
1000
0000
,
0001
1000
0001
0010
0100
1000
0010
0000
,
1000
0100
1000
0001
0010
0001
0200
0020
,
0000
0000
0000
0330
;

//---------------dance-single - ----------------
#NOTEDATA:;
#CHARTNAME:;
#STEPSTYPE:dance-single;
#DESCRIPTION:;
#CHARTSTYLE:;
#DIFFICULTY:Easy;
#METER:5;
#RADARVALUES:0.236807,0.287415,0.171112,0.256668,0.000000,155.000000,139.000000,16.000000,24.000000,0.000000,0.000000,0.000000,0.000000,0.000000,0.236807,0.287415,0.171112,0.256668,0.000000,155.000000,139.000000,16.000000,24.000000,0.000000,0.000000,0.000000,0.000000,0.000000;
#CREDIT:;
#DISPLAYBPM:145.000000:150.000000;
#NOTES:
0000
0000
0000
0000
,
0000
0000
0000
0000
,
0000
0000
0000
0000
,
0000
0000
0000
0000
,
0020
0000
0000
0030
,
1000
0001
0100
0000
,
0001
1000
0100
0000
,
0010
0001
1000
0000
,
1000
0010
0001
0000
,
0020
0030
0200
0300
,
0002
0003
2000
3000
,
0002
0003
0020
0030
,
0200
0300
2000
3000
,
0200
0300
0020
0030
,
2000
3000
0002
0003
,
2000
3000
0020
0030
,
0200
0300
0002
0003
,
0010
0001
0100
1000
,
0010
0100
0010
0100
,
0001
0010
0100
1000
,
0001
1000
0001
1000
,
0100
0010
1000
0001
,
1000
0001
1000
0001
,
1000
0010
0100
0001
,
0100
0010
0100
0010
,
1000
2000
0000
3000
,
0001
0002
0000
0003
,
0100
0200
0000
0300
,
0010
0020
0000
0030
,
1000
0001
1000
0000
,
0010
0010
0010
0000
,
0100
0010
0100
0000
,
0001
0001
0001
0000
,
0010
0010
0001
0001
,
0100
0100
1000
1000
,
0001
1000
0001
1000
,
0010
0100
0010
0100
,
0110
0000
0110
0000
,
1001
0000
1001
0000
,
0110
0000
1001
0000
,
0110
0000
1001
0000
,
1100
0000
1100
0000
,
0101
0000
0101
0000
,
1100
0000
0101
0000
,
1100
0000
0101
0000
,
0020
0000
0000
0030
,
0200
0000
0000
0300
,
0001
0001
1000
1000
,
0010
0010
0100
0100
,
0001
0010
0100
1000
,
0100
1000
0010
0001
,
1000
0001
0010
0100
,
0010
0100
0001
2000
,
0000
0000
0000
3000
;

//---------------dance-single - ----------------
#NOTEDATA:;
#CHARTNAME:;
#STEPSTYPE:dance-single;
#DESCRIPTION:;
#CHARTSTYLE:;
#DIFFICULTY:Beginner;
#METER:2;
#RADARVALUES:0.122223,0.196511,0.042778,0.000000,0.000000,80.000000,76.000000,4.000000,0.000000,0.000000,0.000000,0.000000,0.000000,0.000000,0.122223,0.196511,0.042778,0.000000,0.000000,80.000000,76.000000,4.000000,0.000000,0.000000,0.000000,0.000000,0.000000,0.000000;
#CREDIT:;
#DISPLAYBPM:145.000000:150.000000;
#NOTES:
0000
0000
0000
0000
,
0000
0000
0000
0000
,
0000
0000
0000
0000
,
0000
0000
0000
0000
,
0010
0000
0000
0000
,
1000
0000
0000
0000
,
0001
0000
0000
0000
,
0100
0000
0000
0000
,
1001
0000
0000
0000
,
0001
0000
0001
0000
,
0001
0000
0001
0000
,
1000
0000
1000
0000
,
1000
0000
1000
0000
,
0010
0000
0010
0000
,
0010
0000
0010
0000
,
0100
0000
0100
0000
,
0100
0000
0100
0000
,
0001
0000
0000
0000
,
1000
0000
0100
0000
,
0010
0000
0000
0000
,
0100
0000
0010
0000
,
0001
0000
0000
0000
,
0100
0000
1000
0000
,
0010
0000
0000
0000
,
1000
0000
0001
0000
,
1001
0000
0000
0000
,
0000
0000
0000
0000
,
0110
0000
0000
0000
,
0000
0000
0000
0000
,
1000
0000
0000
0000
,
0100
0000
0000
0000
,
0010
0000
0000
0000
,
0001
0000
0000
0000
,
0010
0000
0001
0000
,
0010
0000
0001
0000
,
1000
0000
0100
0000
,
1000
0000
0100
0000
,
1000
0000
1000
0000
,
0001
0000
0001
0000
,
0100
0000
0100
0000
,
0010
0000
0010
0000
,
0010
0000
0000
0000
,
1000
0000
0000
0000
,
0100
0000
0000
0000
,
0001
0000
0000
0000
,
1001
0000
0000
0000
,
0000
0000
0000
0000
,
0001
0000
0100
0000
,
1000
0000
0010
0000
,
0100
0100
0100
0000
,
0010
0010
0010
0000
,
1000
1000
1000
0000
,
0001
0001
0001
0000
;

//---------------dance-double - ----------------
#NOTEDATA:;
#CHARTNAME:;
#STEPSTYPE:dance-double;
#DESCRIPTION:;
#CHARTSTYLE:;
#DIFFICULTY:Easy;
#METER:5;
#RADARVALUES:0.212362,0.258673,0.064167,0.363613,0.000000,139.000000,133.000000,6.000000,34.000000,0.000000,0.000000,0.000000,0.000000,0.000000,0.212362,0.258673,0.064167,0.363613,0.000000,139.000000,133.000000,6.000000,34.000000,0.000000,0.000000,0.000000,0.000000,0.000000;
#CREDIT:;
#DISPLAYBPM:145.000000:150.000000;
#NOTES:
00000000
00000000
00000000
00000000
,
00000000
00000000
00000000
00000000
,
00000000
00000000
00000000
00000000
,
00000000
00000000
00000000
00000000
,
00100000
10000000
00010000
00000000
,
10000000
00010000
01000000
00000000
,
00001000
00010000
00000100
00000000
,
00001000
00000010
00000100
00000000
,
00000001
00000010
00000100
00000000
,
00002000
00003000
00000020
00000030
,
00000200
00000300
00000002
00000003
,
00002000
00003000
00000200
00000300
,
00020000
00030000
00002000
00003000
,
00200000
00300000
00002000
00003000
,
02000000
03000000
00200000
00300000
,
20000000
30000000
00020000
00030000
,
02000000
03000000
00200000
00300000
,
10000000
01000000
10000000
00010000
,
00100000
00000000
00001000
00000000
,
00010000
00000010
00001000
00000100
,
00000010
00000000
00000001
00000000
,
00000100
00000001
00001000
00000010
,
00001000
00000000
00000100
00000000
,
00010000
00000100
00010000
00001000
,
01000000
00000000
00100000
00000000
,
10000000
11000000
00000000
00000000
,
00010000
01010000
00000000
00000000
,
00001000
00001100
00000000
00000000
,
00000001
00000101
00000000
00000000
,
00000010
00001000
00000100
00000000
,
00010000
00001000
00100000
00000000
,
00001000
00010000
00000100
00000000
,
00001000
00000010
00000100
00000000
,
00000001
00000010
00000001
00000100
,
00000010
00001000
00000100
00001000
,
00000100
00010000
00001000
01000000
,
00100000
10000000
01000000
00100000
,
00020000
00030000
00200000
00300000
,
02000000
03000000
20000000
30000000
,
00200000
00300000
02000000
03000000
,
00002000
00003000
00020000
00030000
,
00000200
00000300
00000020
00000030
,
00000002
00000003
00000200
00000300
,
00000020
00000030
00020000
00030000
,
00000200
00000300
00002000
00003000
,
00001001
00000000
00000001
00000100
,
00000010
00000000
00010000
00000000
,
00011000
00000000
00001000
01000000
,
00100000
00000000
10000000
00000000
,
00010000
00100000
00001000
01000000
,
00100000
10000000
01000000
00100000
,
00001000
00010000
00000100
00001000
,
00000010
00000100
00000002
00002000
,
00000000
00000000
00000000
00003003
;

//---------------dance-double - ----------------
#NOTEDATA:;
#CHARTNAME:;
#STEPSTYPE:dance-double;
#DESCRIPTION:;
#CHARTSTYLE:;
#DIFFICULTY:Medium;
#METER:8;
#RADARVALUES:0.340696,0.402381,0.042778,0.064167,0.064167,223.000000,219.000000,4.000000,6.000000,0.000000,0.000000,0.000000,0.000000,0.000000,0.340696,0.402381,0.042778,0.064167,0.064167,223.000000,219.000000,4.000000,6.000000,0.000000,0.000000,0.000000,0.000000,0.000000;
#CREDIT:;
#DISPLAYBPM:145.000000:150.000000;
#NOTES:
00000000
00000000
00000000
00000000
,
00000000
00000000
00000000
00000000
,
00000000
00000000
00000000
00000000
,
00000000
00000000
00000000
00000000
,
10000000
00000000
00000000
00010000
00000000
00000000
00100000
00000000
00000000
00000000
00000000
00000000
00000000
00000000
00000000
00000000
,
00001000
00000000
00000000
00010000
00000000
00000000
00000100
00000000
00000000
00000000
00000000
00000000
00000000
00000000
00000000
00000000
,
00000010
00000000
00000000
00000001
00000000
00000000
00001000
00000000
00000000
00000000
00000000
00000000
00000000
00000000
00000000
00000000
,
00000010
00000000
00000000
00000100
00000000
00000000
00000001
00000000
00000000
00000000
00000000
00000000
00000000
00000000
00000000
00000000
,
00001000
00000001
00000100
00000020
00000000
00000000
00000000
00000000
,
00010030
00001000
00000000
00000000
00001000
01000000
00000000
00000000
,
01000000
00100000
00000000
00000000
00100000
10000000
00000000
00000000
,
10000000
00010000
00000000
00000000
00010000
00100000
00000000
00100000
,
00001000
00000000
00000000
00000000
00001000
00010000
00000000
00000000
,
00010000
00000010
00000000
00000000
00000010
00001000
00000000
00000000
,
00001000
00000001
00000000
00000000
00000001
00000100
00000000
00000000
,
00000100
00000010
00000000
00000000
00000010
00010000
00000000
00000000
,
00010000
00000100
00000000
00000000
00000100
00001000
00000000
00000000
,
00000100
00010000
00000100
00000000
00010000
00001000
00010000
00000000
,
00001000
00100000
00001000
00000000
01000000
00010000
01000000
00000000
,
00100000
10000000
00100000
00000000
10000000
01000000
10000000
00000000
,
00010000
00100000
00010000
00000000
01000000
00001000
01000000
00000000
,
00001000
00010000
00001000
00000000
00010000
00000010
00010000
00000000
,
00000010
00001000
00000010
00000000
00001000
00000001
00001000
00000000
,
00000001
00000010
00000001
00000000
00001000
00000100
00001000
00000000
,
00000100
00001000
00000100
00000000
00010000
00001000
00010000
00000000
,
00001000
00000000
00000000
00001000
00000000
00000000
00002000
00000000
00000000
00000000
00000000
00000000
00003000
00000000
00000000
00000000
,
00010000
00000000
00000000
00010000
00000000
00000000
00020000
00000000
00000000
00000000
00000000
00000000
00030000
00000000
00000000
00000000
,
01000000
00000000
00000000
01000000
00000000
00000000
02000000
00000000
00000000
00000000
00000000
00000000
03000000
00000000
00000000
00000000
,
00100000
00000000
00000000
00100000
00000000
00000000
00100000
00000000
00000000
00000000
00000000
00000000
01100000
00000000
00000000
00000000
,
10010000
00000000
00000000
10000000
00000000
00000000
01000000
00000000
00000000
00000000
00000000
00000000
00000000
00000000
00000000
00000000
,
00100000
00000000
00000000
00001000
00000000
00000000
00010000
00000000
00000000
00000000
00000000
00000000
00000000
00000000
00000000
00000000
,
00000010
00000000
00000000
00010000
00000000
00000000
00000100
00000000
00000000
00000000
00000000
00000000
00000000
00000000
00000000
00000000
,
00001000
00000000
00000000
00000001
00000000
00000000
00000010
00000000
00000000
00000000
00000000
00000000
00000000
00000000
00000000
00000000
,
00000001
00000010
00000100
00000000
00010000
00001000
01000000
00000000
,
00010000
00100000
00001000
00000000
01000000
00100000
10000000
00000000
,
00010000
00100000
01000000
00000000
00100000
00001000
01000000
00000000
,
00001000
00010000
00000010
00000000
00000100
00000001
00001000
00000000
,
00000001
00000001
00000000
00000000
00001000
00001000
00000000
00000000
,
00000100
00000100
00000000
00000000
00010000
00010000
00000000
00000000
,
00001000
00001000
00000000
00000000
00100000
00100000
00000000
00000000
,
00010000
00010000
00000000
00000000
01000000
01000000
00000000
00000000
,
00100000
00100000
00000000
00000000
10000000
10000000
00000000
00000000
,
00010000
00010000
00000000
00000000
01000000
01000000
00000000
00000000
,
00001000
00001000
00000000
00000000
00100000
00100000
00000000
00000000
,
00001000
00001000
00000000
00000000
00010000
00010000
00000000
00000000
,
00011000
00000100
00001000
00000001
,
00000010
00000100
00001000
00000001
,
00001001
00000010
00001000
00000100
,
00010000
00001000
01000000
00100000
,
10000000
01000000
00100000
00000000
00001000
00100000
00010000
00000000
,
01000000
00100000
10000000
00000000
00010000
10000000
00100000
00000000
,
01000000
00001000
00010000
00000000
00000010
00001000
00000100
00000000
,
00000010
00000001
00000100
00000010
00001000
00000100
00002000
00000002
,
00000000
00000000
00000000
00003003
;

//---------------dance-double - ----------------
#NOTEDATA:;
#CHARTNAME:;
#STEPSTYPE:dance-double;
#DESCRIPTION:;
#CHARTSTYLE:;
#DIFFICULTY:Challenge;
#METER:12;
#RADARVALUES:0.603475,0.622019,0.684448,0.342224,0.331530,395.000000,331.000000,64.000000,32.000000,0.000000,0.000000,0.000000,0.000000,0.000000,0.603475,0.622019,0.684448,0.342224,0.331530,395.000000,331.000000,64.000000,32.000000,0.000000,0.000000,0.000000,0.000000,0.000000;
#CREDIT:;
#DISPLAYBPM:145.000000:150.000000;
#NOTES:
// measure 0
00000000
00000000
00000000
00000000
,  // measure 1
00000000
00000000
00000000
00000000
,  // measure 2
00000000
00000000
00000000
00000000
,  // measure 3
00000000
00000000
00000000
00000000
,  // measure 4
00000011
00000000
00000000
00001100
00000000
00000000
00001001
00000000
00000000
00000000
00000001
00000000
00000000
00001000
00000000
00000000
,  // measure 5
00001010
00000000
00000000
00010100
00000000
00000000
01001000
00000000
00000000
00000000
01000000
00000000
00000000
00100000
00000000
00000000
,  // measure 6
10100000
00000000
00000000
11000000
00000000
00000000
01100000
00000000
00000000
00000000
00001000
00000000
00000000
00010000
00000000
00000000
,  // measure 7
00011000
00000000
00000000
00010010
00000000
00000000
00000101
00000000
00000000
00000000
00000010
00000000
00000000
00000100
00000000
00000000
,  // measure 8
00000110
00000000
00010000
00000000
00001000
00000000
02002000
00000000
00000000
00003000
00100000
00000000
03100000
00000000
00010000
01000000
,  // measure 9
00010000
00000000
10000000
00000000
11000000
00000000
00000000
10000000
00100000
00000000
01000000
00000000
01010000
00000000
00000000
01000000
,  // measure 10
00001000
00000000
00010000
00000000
00011000
00000000
00000000
00010000
00000100
00000000
00001000
00000000
00001010
00000000
00000000
00001000
,  // measure 11
00000001
00000000
00000010
00000000
00000011
00000000
00000000
00000001
00001000
00000000
00000100
00000000
00010100
00000000
00000000
00010000
,  // measure 12
00000100
00000000
00000010
00000000
00000011
00000000
00000000
00000001
00000010
00000000
00000100
00000000
00001100
00000000
00000000
00000100
,  // measure 13
00010000
00000000
00000010
00000000
00001010
00000000
00000000
00000010
00010000
00000000
00001000
00000000
00101000
00000000
00000000
00001000
,  // measure 14
01000000
00000000
00100000
00000000
10100000
00000000
00000000
10000000
01000000
00000000
00100000
00000000
00101000
00000000
00000000
00001000
,  // measure 15
00100000
00000000
00010000
00000000
10010000
00000000
00000000
10000000
00010000
00000000
01000000
00000000
01001000
00000000
00000000
00001000
,  // measure 16
00010000
00000000
00000100
00000000
00000110
00000000
00000000
00000010
00000001
00000000
00001000
00000000
00001100
00000000
00000000
00000000
,  // measure 17
00000001
00000000
00002000
00000000
00000000
00003020
00000000
00000000
00000230
00000000
00000000
00000302
00000000
00000000
00001003
00000000
,  // measure 18
00000100
00000000
00002000
00000000
00000000
00003020
00000000
00000000
00010030
00000000
00000200
00000000
00000000
00020300
00000000
00000000
,  // measure 19
00031000
00000000
00200000
00000000
00000000
00320000
00000000
00000000
20030000
00000000
00000000
30200000
00000000
00000000
01300000
00000000
,  // measure 20
00001000
00000000
00020000
00000000
00000000
00030200
00000000
00000000
00001300
00000000
00000020
00000000
00000000
00000230
00000000
00000000
,  // measure 21
00000301
00000000
00002000
00000000
00000000
00003020
00000000
00000000
00020030
00000000
00000000
00032000
00000000
00000000
01003000
00000000
,  // measure 22
00100000
00000000
02000000
00000000
00000000
03002000
00000000
00000000
00103000
00000000
00020000
00000000
00000000
02030000
00000000
00000000
,  // measure 23
03100000
00000000
20000000
00000000
00000000
30020000
00000000
00000000
00230000
00000000
00000000
00302000
00000000
00000000
01003000
00000000
,  // measure 24
00001000
00000000
00200000
00000000
00000000
00302000
00000000
00000000
00013000
00000000
00000010
00000000
00000100
00000001
00000100
00000000
,  // measure 25
00001001
00000000
00000000
00001100
00000000
00000000
00000101
00000000
00000000
00000000
00000000
00000000
00000000
00000110
00000000
00000000
,  // measure 26
00010010
00000000
00000000
00011000
00000000
00000000
00101000
00000000
00000000
00000000
11000000
00000000
00000000
01010000
00000000
00000000
,  // measure 27
00110000
00000000
00000000
10100000
00000000
00000000
10010000
00000000
00000000
00000000
00000000
00000000
00000000
01100000
00000000
00000000
,  // measure 28
01001000
00000000
00000000
00011000
00000000
00000000
00010100
00000000
00000000
00001100
00000000
00000000
00001001
00000000
00000000
00000000
,  // measure 29
00001010
00000000
00000000
00001000
00000100
00000000
00000000
00000100
00010000
00000000
00000010
00000000
00000100
00000000
00000000
00000000
,  // measure 30
00000101
00000000
00000000
00000001
00000010
00000000
00000000
00000010
00000001
00000000
00001000
00000000
00000100
00000000
00000000
00000000
,  // measure 31
00001100
00000000
00000000
00000100
00010000
00000000
00000000
00010000
00001000
00000000
01000000
00000000
00100000
00000000
00000000
00000000
,  // measure 32
01100000
00000000
00000000
00100000
10000000
00000000
00000000
10000000
00010000
00000000
00100000
00000000
01000000
00000000
00000000
00000000
,  // measure 33
10000000
00100000
10000000
00010000
00100000
01000000
00100000
00001000
,  // measure 34
00010000
00001000
00010000
00000010
00001000
00000100
00000010
00000001
,  // measure 35
00000100
00000001
00000010
00000100
00000010
00000001
00001000
00000100
,  // measure 36
00001000
00000010
00010000
00001000
01000000
00100000
10000000
00010000
,  // measure 37
00100000
00010000
01000000
00100000
10000000
01000000
00010000
00000000
,  // measure 38
00001000
00010000
00000010
00001000
00000100
00000010
00000001
00000000
,  // measure 39
00001000
00000100
00000010
00000100
00000010
00000001
00001000
00000000
,  // measure 40
00000100
00010000
00001000
01000000
00100000
10000000
00010000
00000000
,  // measure 41
00100000
00010000
01010000
00000000
10000000
01000000
11000000
00000000
,  // measure 42
10000000
00010000
10010000
00000000
01000000
00100000
01100000
00000000
,  // measure 43
01000000
00001000
00011000
00000000
00010000
00000010
00001010
00000000
,  // measure 44
00001000
00000100
00001100
00000000
00000010
00000001
00001001
00000000
,  // measure 45
00000110
00000000
00000000
00000010
00000000
00000000
00001000
00000000
00000001
00000000
00000000
00000010
00000000
00000000
00000100
00000000
,  // measure 46
00010000
00000000
00000000
00001000
00000000
00000000
01000000
00000000
00100000
00000000
00000000
10000000
00000000
00000000
00010000
00000000
,  // measure 47
00100000
01000000
00100000
00001000
00010000
00000010
00001000
00000100
,  // measure 48
00010000
00001000
01000000
00010000
00100000
01000000
10000000
00010000
,  // measure 49
10000000
00100000
01000000
00010000
00100000
01000000
10000000
00010000
,  // measure 50
00100000
00001000
01000000
00001000
00010000
00000010
00001000
00000100
,  // measure 51
00000010
00000001
00000100
00000010
00001000
00000100
00010000
00000010
,  // measure 52
00001000
00000000
00000100
00000000
00000010
00000001
00000010
00000000
00000011
00000000
00000000
00001001
00000000
00000000
00011000
00000000
;
