#VERSION:0.83;
#TITLE:Driven Shooter;
#SUBTITLE:;
#ARTIST:Nekomata Master+;
#TITLETRANSLIT:;
#SUBTITLETRANSLIT:;
#ARTISTTRANSLIT:;
#GENRE:;
#ORIGIN:;
#CREDIT:;
#BANNER:Driven Shooter-bn.png;
#BACKGROUND:Driven Shooter-bg.png;
#PREVIEWVID:;
#JACKET:Driven Shooter-jacket.png;
#CDIMAGE:;
#DISCIMAGE:;
#LYRICSPATH:;
#CDTITLE:;
#MUSIC:Driven Shooter.ogg;
#OFFSET:-0.062500;
#SAMPLESTART:34.005356;
#SAMPLELENGTH:20.000000;
#SELECTABLE:YES;
#DISPLAYBPM:175.000000;
#BPMS:0.000=175.000;
#STOPS:;
#DELAYS:;
#WARPS:;
#TIMESIGNATURES:0.000=4=4;
#TICKCOUNTS:0.000=4;
#COMBOS:0.000=1;
#SPEEDS:0.000=1.000=0.000=0;
#SCROLLS:0.000=1.000;
#FAKES:;
#LABELS:0.000=Song Start;
#BGCHANGES:;
#KEYSOUNDS:;
#ATTACKS:
;

//---------------dance-single - ----------------
#NOTEDATA:;
#CHARTNAME:;
#STEPSTYPE:dance-single;
#DESCRIPTION:;
#CHARTSTYLE:;
#DIFFICULTY:Hard;
#METER:12;
#RADARVALUES:0.590667,0.710513,0.342416,0.068483,0.141247,483.000000,443.000000,40.000000,8.000000,0.000000,0.000000,0.000000,0.000000,0.000000,0.590667,0.710513,0.342416,0.068483,0.141247,483.000000,443.000000,40.000000,8.000000,0.000000,0.000000,0.000000,0.000000,0.000000;
#CREDIT:;
#DISPLAYBPM:175.000000;
#NOTES:
0000
0000
0000
0000
,
0000
0000
0000
0000
,
0000
0000
0000
0000
,
0000
0000
0000
0000
,
0000
0000
0000
0000
,
0000
0000
0000
0000
,
0000
0000
0000
0000
,
0000
0000
0000
0000
,
0000
0000
0000
0000
,
1000
0000
1000
0100
0000
0100
0001
0000
,
0001
0010
0000
0010
0100
1000
0001
0000
,
0010
0000
0010
0001
0000
0001
0100
0000
,
0100
1000
0000
1000
0001
0100
0010
0000
,
0100
0000
0001
1000
0000
1000
0010
0000
,
0010
0100
0000
0100
0001
1000
0010
0000
,
1000
0000
0010
1000
0000
1000
0100
0000
,
0100
0001
0000
0001
0010
0100
1000
0000
,
0010
0000
1000
0000
0100
0000
0010
0000
0001
0000
1000
0000
0000
0001
0000
0000
,
0010
0000
0001
0000
0100
0000
0010
0000
1000
0000
0100
0000
0000
0010
0000
0000
,
0001
0000
1000
0000
0010
0000
0100
0000
0010
0000
1000
0000
0000
0100
0000
0000
,
0010
0000
0100
0000
1000
0000
0010
0000
1000
0000
0001
0000
0000
0100
0001
0000
,
0010
0000
0001
0000
0100
0000
0010
0000
1000
0000
0100
0000
0000
1000
0001
0000
,
1000
0000
0001
0000
0010
0000
0100
0000
0010
0000
0001
0000
0000
1000
0100
0000
,
1000
0000
0010
0000
0100
0000
0010
0000
1000
0000
0001
0000
0000
0001
0010
0000
,
0100
0000
1000
0000
0010
0000
0100
0000
0001
0000
0010
0000
0001
1000
0001
1000
,
0001
0000
0000
0000
0010
0000
0000
0001
0100
0000
0010
0000
1000
0000
0000
0000
,
1100
0000
0000
0000
0001
0000
0101
0000
0000
0000
1010
0000
0000
0101
0000
0000
,
1001
0000
0000
0000
0010
0000
0000
1000
0100
0000
0010
0000
0001
0000
0000
0000
,
0011
0000
0000
0000
1000
0000
1010
0000
0000
0000
0101
0000
0000
1010
0000
0000
,
0110
0000
0000
0000
0010
0000
0000
1000
0001
0000
0010
0000
0100
0000
0000
0000
,
1100
0000
0000
0000
0010
0000
0011
0000
0000
0000
0101
0000
0000
1010
0000
0000
,
1001
0000
0001
0000
1000
0000
0000
0010
1000
0000
0100
0000
0010
0000
0000
0000
,
0001
0000
1000
0000
0010
0000
1000
0000
0100
0000
0010
0000
0001
0100
0001
0100
,
0001
0000
0010
0000
0100
0000
0000
1000
0010
0000
1000
0000
0001
0000
0000
0000
,
0011
0000
0000
0000
0001
0000
0101
0000
0000
0000
1010
0000
0000
1100
0000
0000
,
1001
0000
1000
0000
0010
0000
0000
0100
0010
0000
1000
0000
0001
0000
0000
0000
,
0011
0000
0000
0000
0100
0000
0110
0000
0000
0000
1001
0000
0000
1100
0000
0000
,
0101
0000
0001
0000
0010
0000
0000
0001
1000
0000
0010
0000
0100
0000
0000
0000
,
0110
0000
0000
0000
0100
0000
0101
0000
0000
0000
0011
0000
0000
1001
0000
0000
,
1100
0000
1000
0000
0010
0000
0100
0001
0100
0000
0001
0000
0010
0000
0200
0000
,
2000
0000
0000
3300
,
1000
0010
0100
0001
0010
0100
1000
0001
,
0000
0001
0100
0010
1000
0100
0010
0001
,
0100
0010
0100
0001
0010
0100
1000
0001
,
0000
0000
0010
0000
0001
0000
0000
0001
0100
0000
0000
0100
0010
0000
0000
0000
,
0100
0010
1000
0100
0010
0001
0100
0001
,
0000
0001
0010
0100
1000
0001
1000
0100
,
0010
0100
1000
0010
1000
0001
0100
0010
,
0000
0000
0100
0000
0001
0000
0000
0001
1000
0000
0000
1000
0010
0000
0000
0000
,
0100
0010
0100
0001
0010
0100
1000
0010
,
0000
0010
0100
0010
1000
0100
0010
0001
,
1000
0010
1000
0100
0010
0001
0100
0001
,
0000
0000
1000
0000
0001
0000
0000
0001
1000
0000
0000
1000
0100
0000
0000
0000
,
0010
0100
0010
0001
1000
0010
1000
0100
,
0000
1000
0001
0010
0100
1000
0010
0100
,
0001
0100
0010
1000
0001
0010
0100
1000
,
0000
0000
0001
0000
0100
0000
0000
0100
0010
0000
0000
0010
1000
0000
0000
0000
,
1001
0000
0001
0010
0000
0010
1000
0000
,
1000
0100
0000
0100
0001
0000
0001
0100
,
0000
0100
1000
0000
1000
0010
0000
0010
,
0001
0000
0001
0010
0000
0100
1000
0000
,
0010
1010
0000
1000
1100
0000
0100
0101
,
0000
0001
0011
0000
0010
0110
0000
0100
,
0001
0100
0010
1000
0001
0010
0100
1000
,
0010
0100
0001
1000
0100
0010
0001
1000
,
2010
0000
0000
0001
0000
0100
3100
0000
,
1000
0001
0000
0001
0010
0100
1000
0000
,
0102
0000
0000
0010
0000
1000
1003
0000
,
0001
0100
0000
0010
1000
0001
0100
0000
,
0021
0000
0000
1000
0000
0001
0031
0000
,
0010
0001
0000
0001
1000
0010
0100
0000
,
0210
0000
0000
1000
0000
0010
0310
0000
,
0100
0010
0000
1000
0100
0010
0001
0000
,
0010
0000
0000
0001
0000
1000
0100
0000
,
0000
1000
0000
0010
0100
0001
1000
0000
,
0100
0000
0000
0010
0000
0001
0100
0000
,
0000
0010
0000
1000
0001
1000
0100
0000
,
0010
0000
0000
0100
0000
1000
0010
0000
,
0000
1000
0000
0001
0010
0001
1000
0000
,
0100
0000
0000
0010
0000
0001
1000
0000
,
0000
0001
0000
1000
0100
0020
0002
0000
,
0000
0000
0000
0000
,
0000
0000
0000
0000
,
0033
0000
0000
0000
;

//---------------dance-single - ----------------
#NOTEDATA:;
#CHARTNAME:;
#STEPSTYPE:dance-single;
#DESCRIPTION:;
#CHARTSTYLE:;
#DIFFICULTY:Medium;
#METER:10;
#RADARVALUES:0.468376,0.568410,0.393778,0.085604,0.025681,383.000000,337.000000,46.000000,10.000000,0.000000,0.000000,0.000000,0.000000,0.000000,0.468376,0.568410,0.393778,0.085604,0.025681,383.000000,337.000000,46.000000,10.000000,0.000000,0.000000,0.000000,0.000000,0.000000;
#CREDIT:;
#DISPLAYBPM:175.000000;
#NOTES:
0000
0000
0000
0000
,
0000
0000
0000
0000
,
0000
0000
0000
0000
,
0000
0000
0000
0000
,
0000
0000
0000
0000
,
0000
0000
0000
0000
,
0000
0000
0000
0000
,
0000
0000
0000
0000
,
0000
0000
0000
0000
,
1000
0000
0000
0010
0000
0000
0100
0000
,
0000
0001
0000
0001
0010
0100
1000
0000
,
0010
0000
0000
0100
0000
0000
0001
0000
,
0000
1000
0000
1000
0001
0010
0100
0000
,
1000
0000
0000
0001
0000
0000
0100
0000
,
0000
0010
0000
0010
1000
0001
0100
0000
,
0001
0000
0000
0010
0000
0000
0001
0000
,
0000
1000
0000
0100
0010
1000
0100
0000
,
0010
0001
0100
0000
0001
0001
0000
0000
,
0010
0100
1000
0000
0010
0010
0000
0000
,
0100
0001
1000
0000
0100
0100
0000
0000
,
1000
0001
0100
0000
0010
0010
0000
0100
,
0001
0010
0100
0000
1000
1000
0000
0001
,
0010
0001
1000
0000
0100
0100
0000
1000
,
0010
0100
0001
0000
0010
0010
0000
0001
,
1000
0010
0100
0000
0001
1000
0100
0000
,
1001
0000
0100
0000
0010
1000
0001
0000
,
0012
0000
0000
0000
0000
0000
1000
0000
0000
0000
0010
0000
0000
0103
0000
0000
,
0101
0000
0001
0000
1000
0010
0100
0000
,
0120
0000
0000
0000
0000
0000
0001
0000
0000
0000
1000
0000
0000
0130
0000
0000
,
1010
0000
1000
0000
0010
0100
0001
0000
,
2100
0000
0000
0000
0000
0000
0001
0000
0000
0000
0100
0000
0000
3010
0000
0000
,
1001
0000
0001
0000
1000
0100
0010
0000
,
0001
1000
0010
0000
1000
0001
0100
0000
,
0110
0000
0010
0000
1000
0100
0001
0000
,
0201
0000
0000
0000
0000
0000
1000
0000
0000
0000
0010
0000
0000
0301
0000
0000
,
1001
0000
1000
0000
0100
0010
0001
0000
,
0012
0000
0000
0000
0000
0000
0100
0000
0000
0000
0010
0000
0000
1003
0000
0000
,
1100
0000
0001
0000
0100
0010
1000
0000
,
1020
0000
0000
0000
0000
0000
0100
0000
0000
0000
0001
0000
0000
1030
0000
0000
,
0110
0000
0010
0000
1000
0001
0100
0020
,
2000
0000
0000
3030
,
0001
0010
0100
0000
1000
1000
0000
0101
,
0000
0001
1000
0000
0001
0010
0100
1000
,
0000
0010
0100
0000
0001
0001
0000
1100
,
0000
1000
0001
0000
1001
0000
0110
0000
,
0010
1000
0100
0000
0001
0001
0000
1010
,
0000
0001
0010
0000
0001
1000
0010
0100
,
0000
0100
0010
0000
1000
1000
0000
0011
,
0000
0010
0001
0000
1001
0000
0110
0000
,
1000
0001
0010
0000
0001
0001
0000
0110
,
0000
0001
0100
0000
0010
0100
0001
1000
,
0000
1000
0010
0000
0100
0100
0000
1001
,
0000
0001
0100
0000
0101
0000
1100
0000
,
0010
0100
0001
0000
1000
1000
0000
0110
,
0000
0010
1000
0000
1000
0100
0010
0001
,
0000
0010
0001
0000
0100
0100
0000
1001
,
0000
0010
1000
0000
1100
0000
0101
0000
,
0010
0000
0000
0100
0000
0001
1000
0000
,
0000
0001
0000
1000
0010
0100
0001
0000
,
0010
0000
0000
0001
0000
1000
0100
0000
,
0000
1000
0000
0010
0100
0001
1000
0000
,
0100
0000
0000
0010
0000
0001
1000
0000
,
0000
0010
0000
0100
0010
1000
0001
0000
,
0010
0001
0010
0001
0010
0001
0010
0000
,
1000
0100
1000
0100
1000
0100
1000
0000
,
0101
0000
0000
1100
0000
0000
0101
0000
,
0000
1100
0000
0001
0100
0010
1000
0000
,
1100
0000
0000
0101
0000
0000
1100
0000
,
0000
0101
0000
0100
0010
1000
0001
0000
,
0011
0000
0000
1010
0000
0000
0011
0000
,
0000
1010
0000
0010
0100
0001
1000
0000
,
1010
0000
0000
0011
0000
0000
1010
0000
,
0000
0011
0000
0001
0100
0010
1000
0000
,
0001
0000
0000
0001
0000
0000
0001
0000
,
0000
0000
0000
0100
0010
1000
0010
1000
,
0010
0000
0000
0010
0000
0000
0010
0000
,
0000
0000
0000
0100
0001
1000
0001
1000
,
0100
0000
0000
0100
0000
0000
0100
0000
,
0000
0000
0000
0100
1000
0010
1000
0010
,
1000
0000
0000
1000
0000
0000
1000
0000
,
0000
0000
0000
1000
0010
0200
0002
0000
,
0000
0000
0000
0000
,
0000
0000
0000
0000
,
0303
0000
0000
0000
;

//---------------dance-single - ----------------
#NOTEDATA:;
#CHARTNAME:;
#STEPSTYPE:dance-single;
#DESCRIPTION:;
#CHARTSTYLE:;
#DIFFICULTY:Easy;
#METER:7;
#RADARVALUES:0.321626,0.390782,0.136966,0.085604,0.000000,263.000000,247.000000,16.000000,10.000000,0.000000,0.000000,0.000000,0.000000,0.000000,0.321626,0.390782,0.136966,0.085604,0.000000,263.000000,247.000000,16.000000,10.000000,0.000000,0.000000,0.000000,0.000000,0.000000;
#CREDIT:;
#DISPLAYBPM:175.000000;
#NOTES:
0000
0000
0000
0000
,
0000
0000
0000
0000
,
0000
0000
0000
0000
,
0000
0000
0000
0000
,
0000
0000
0000
0000
,
0000
0000
0000
0000
,
0000
0000
0000
0000
,
0000
0000
0000
0000
,
0000
0000
0000
0000
,
1000
1000
1000
1000
,
1000
1000
1000
1000
,
0010
0010
0010
0010
,
0010
0010
0010
0010
,
0100
0100
0100
0100
,
0100
0100
0100
0100
,
0001
0001
0001
0001
,
0001
0001
0001
0001
,
0010
0100
1000
0000
,
0001
0100
0010
0000
,
0100
0001
1000
0000
,
0001
1000
0010
0000
,
1000
0000
0001
0000
0100
0010
0000
0000
,
1000
0000
0100
0000
0010
0001
0000
0000
,
0100
0000
0010
0000
1000
0001
0000
0000
,
0010
0001
1000
0100
,
1001
0010
0100
0001
,
2000
0000
0000
0010
0000
3100
0000
0000
,
1100
1000
0010
0001
,
0200
0000
0000
1000
0000
0301
0000
0000
,
0101
0001
0010
0100
,
0020
0000
0000
1000
0000
0031
0000
0000
,
0011
0001
0100
1000
,
0010
0100
0001
1000
,
1010
0001
1000
0100
,
0020
0000
0000
0001
0000
0130
0000
0000
,
0110
0010
0001
0100
,
2000
0000
0000
0001
0000
3100
0000
0000
,
1010
0010
1000
0100
,
0002
0000
0000
0010
0000
1003
0000
0000
,
0101
0001
0100
0020
,
2000
0000
0000
3030
,
0001
0100
0001
1000
,
0100
0010
0001
1000
,
0010
1000
0001
0010
,
0001
0100
0010
0100
,
0010
1000
0100
0010
,
0001
1000
0010
1000
,
0010
0100
0010
1000
,
0100
0010
0001
0010
,
0001
0100
0001
1000
,
0010
1000
0100
0010
,
0100
1000
0010
0100
,
0001
1000
0010
1000
,
0100
0010
0100
0010
,
0001
0100
0001
1000
,
0010
1000
0100
0010
,
0001
1000
0100
0010
,
0001
0000
0000
0010
0000
0000
0100
0000
,
0000
1000
0000
0000
0010
0000
0000
0100
,
0000
0000
0001
0000
0000
1000
0000
0000
,
0010
0000
0000
1000
0000
0000
0100
0000
,
0000
0010
0000
0000
0001
0000
0000
0100
,
0000
0000
0010
0000
0000
1000
0000
0000
,
0001
0001
0001
0001
,
1000
1000
1000
1000
,
0010
0000
0000
0100
0000
0000
0001
0000
,
0000
1000
0000
0000
1100
0000
0101
0000
,
0001
0000
0000
0100
0000
0000
0010
0000
,
0000
1000
0000
0000
1100
0000
0011
0000
,
1000
0000
0000
0001
0000
0000
0100
0000
,
0000
0010
0000
0000
1010
0000
0011
0000
,
0100
0000
0000
0001
0000
0000
1000
0000
,
0000
0010
0000
0000
1010
0000
0101
0000
,
0001
0000
0000
0001
0000
0000
0001
0000
,
0000
0000
0100
0010
,
1000
0000
0000
1000
0000
0000
1000
0000
,
0000
0000
0001
0100
,
0010
0000
0000
0010
0000
0000
0010
0000
,
0000
0000
0001
1000
,
0100
0000
0000
0100
0000
0000
0100
0000
,
0000
0000
2000
0002
,
0000
0000
0000
0000
,
0000
0000
0000
0000
,
3003
0000
0000
0000
;

//---------------dance-single - ----------------
#NOTEDATA:;
#CHARTNAME:;
#STEPSTYPE:dance-single;
#DESCRIPTION:;
#CHARTSTYLE:;
#DIFFICULTY:Beginner;
#METER:4;
#RADARVALUES:0.155310,0.248680,0.102725,0.034242,0.000000,127.000000,115.000000,12.000000,4.000000,0.000000,0.000000,0.000000,0.000000,0.000000,0.155310,0.248680,0.102725,0.034242,0.000000,127.000000,115.000000,12.000000,4.000000,0.000000,0.000000,0.000000,0.000000,0.000000;
#CREDIT:;
#DISPLAYBPM:175.000000;
#NOTES:
// measure 0
0000
0000
0000
0000
,  // measure 1
0000
0000
0000
0000
,  // measure 2
0000
0000
0000
0000
,  // measure 3
0000
0000
0000
0000
,  // measure 4
0000
0000
0000
0000
,  // measure 5
0000
0000
0000
0000
,  // measure 6
0000
0000
0000
0000
,  // measure 7
0000
0000
0000
0000
,  // measure 8
0000
0000
0000
0000
,  // measure 9
1000
0000
1000
0000
,  // measure 10
1000
0000
1000
0000
,  // measure 11
0010
0000
0010
0000
,  // measure 12
0010
0000
0010
0000
,  // measure 13
0100
0000
0100
0000
,  // measure 14
0100
0000
0100
0000
,  // measure 15
0001
0000
0001
0000
,  // measure 16
0001
0000
0001
0000
,  // measure 17
0010
0000
0000
0000
,  // measure 18
0001
0000
0000
0000
,  // measure 19
1000
0000
0000
0000
,  // measure 20
0100
0000
0000
0000
,  // measure 21
1000
0000
0000
0000
,  // measure 22
0001
0000
0000
0000
,  // measure 23
0100
0000
0000
0000
,  // measure 24
0010
0000
0000
0000
,  // measure 25
1001
0000
0000
0001
,  // measure 26
0001
0000
1000
0000
,  // measure 27
1001
0000
0000
1000
,  // measure 28
1000
0000
0001
0000
,  // measure 29
1001
0000
0000
1000
,  // measure 30
1000
0000
0010
0000
,  // measure 31
0110
0000
0000
0000
,  // measure 32
0000
0000
0000
0000
,  // measure 33
1001
0000
0000
0010
,  // measure 34
0010
0000
0100
0000
,  // measure 35
0110
0000
0000
0100
,  // measure 36
0100
0000
0010
0000
,  // measure 37
0110
0000
0000
0010
,  // measure 38
0010
0000
1000
0000
,  // measure 39
1001
0000
0000
0000
,  // measure 40
2000
0000
0000
3000
,  // measure 41
0000
0000
0001
0000
,  // measure 42
0001
0000
0100
0000
,  // measure 43
0010
0000
1000
0000
,  // measure 44
0100
0000
1000
1000
,  // measure 45
0000
0000
0010
0000
,  // measure 46
0100
0000
0010
0000
,  // measure 47
1000
0000
0100
0000
,  // measure 48
0010
0000
0001
0001
,  // measure 49
0000
0000
1000
0000
,  // measure 50
0001
0000
0010
0000
,  // measure 51
0001
0000
0100
0000
,  // measure 52
0010
0000
0100
0100
,  // measure 53
0000
0000
0100
0000
,  // measure 54
0001
0000
0010
0000
,  // measure 55
0100
0000
1000
0000
,  // measure 56
0001
0000
0010
0010
,  // measure 57
0010
0000
0000
0001
,  // measure 58
0000
0000
0100
0000
,  // measure 59
0000
0010
0000
0000
,  // measure 60
1000
0000
0000
0100
,  // measure 61
0000
0000
0010
0000
,  // measure 62
0000
0001
0000
0000
,  // measure 63
0200
0000
0300
0000
,  // measure 64
0020
0000
0030
0000
,  // measure 65
1000
0000
1000
0000
,  // measure 66
0010
0000
0010
0000
,  // measure 67
0100
0000
0100
0000
,  // measure 68
0001
0000
0001
0000
,  // measure 69
0010
0000
0010
0000
,  // measure 70
0100
0000
0100
0000
,  // measure 71
1000
0000
1000
0000
,  // measure 72
0001
0000
0001
0000
,  // measure 73
1001
0000
0000
0000
,  // measure 74
0000
0000
0000
0000
,  // measure 75
0110
0000
0000
0000
,  // measure 76
0000
0000
0000
0000
,  // measure 77
1001
0000
0000
0000
,  // measure 78
0000
0000
0000
0000
,  // measure 79
0110
0000
0000
0000
,  // measure 80
0000
0000
0001
0002
,  // measure 81
0000
0000
0000
0000
,  // measure 82
0000
0000
0000
0000
,  // measure 83
0003
0000
0000
0000
;
