#TITLE:DoLL;
#SUBTITLE:;
#ARTIST:TЁЯRA;
#TITLETRANSLIT:;
#SUBTITLETRANSLIT:;
#ARTISTTRANSLIT:TERRA;
#GENRE:;
#CREDIT:;
#BANNER:DoLL.png;
#BACKGROUND:DoLL-bg.png;
#LYRICSPATH:;
#CDTITLE:;
#MUSIC:DoLL.ogg;
#OFFSET:0.000000;
#SAMPLESTART:51.450001;
#SAMPLELENGTH:15.000000;
#SELECTABLE:YES;
#DISPLAYBPM:170.000000;
#BPMS:0.000000=169.899994
,4.000000=170.000000
;
#STOPS:
;
#BGCHANGES:;
#KEYSOUNDS:;
#ATTACKS:;

//---------------dance-single - ----------------
#NOTES:
     dance-single:
     :
     Beginner:
     4:
     0.145755,0.199841,0.000000,0.000000,0.000000,121.000000,121.000000,0.000000,0.000000,0.000000,0.000000,0.145755,0.199841,0.000000,0.000000,0.000000,121.000000,121.000000,0.000000,0.000000,0.000000,0.000000:
// measure 0
0000
0000
0000
0000
,  // measure 1
0000
0000
0000
0000
,  // measure 2
0000
0000
0000
0000
,  // measure 3
0000
0000
0000
0000
,  // measure 4
0000
0000
0000
0000
,  // measure 5
0001
0000
0000
0000
,  // measure 6
1000
0000
0000
0000
,  // measure 7
0001
0000
0000
0000
,  // measure 8
1000
0000
0000
0000
,  // measure 9
0001
0000
0001
0000
,  // measure 10
0001
0000
0000
0000
,  // measure 11
1000
0000
1000
0000
,  // measure 12
1000
0000
0000
0000
,  // measure 13
0010
0000
0010
0000
,  // measure 14
0010
0000
0000
0000
,  // measure 15
0100
0000
0100
0000
,  // measure 16
0100
0000
0000
0000
,  // measure 17
0001
0000
0000
0000
,  // measure 18
0010
0000
0000
0000
,  // measure 19
0100
0000
0000
0000
,  // measure 20
1000
0000
0000
0000
,  // measure 21
0010
0010
0010
0000
,  // measure 22
0010
0000
0010
0000
,  // measure 23
0100
0100
0100
0000
,  // measure 24
0100
0000
0100
0000
,  // measure 25
0001
0000
0001
0000
,  // measure 26
1000
0000
1000
0000
,  // measure 27
0001
0000
0000
0000
,  // measure 28
0100
0000
0000
0000
,  // measure 29
1000
0000
1000
0000
,  // measure 30
0001
0000
0001
0000
,  // measure 31
1000
0000
0000
0000
,  // measure 32
0100
0000
0000
0000
,  // measure 33
0001
0000
0000
0000
,  // measure 34
1000
0000
0000
0000
,  // measure 35
0010
0000
0000
0000
,  // measure 36
0100
0000
0000
0000
,  // measure 37
0001
0001
0001
0000
,  // measure 38
0001
0000
0001
0000
,  // measure 39
1000
1000
1000
0000
,  // measure 40
1000
0000
1000
0000
,  // measure 41
0001
0000
1000
0000
,  // measure 42
0001
0000
1000
0000
,  // measure 43
0010
0000
0100
0000
,  // measure 44
0010
0000
0100
0000
,  // measure 45
0001
0000
1000
0000
,  // measure 46
0001
0000
1000
0000
,  // measure 47
0010
0000
0000
0000
,  // measure 48
0100
0000
0000
0000
,  // measure 49
0001
0000
0000
0000
,  // measure 50
1000
0000
0000
0000
,  // measure 51
0010
0000
0000
0000
,  // measure 52
0100
0000
0000
0000
,  // measure 53
0001
0001
0000
0000
,  // measure 54
1000
1000
0000
0000
,  // measure 55
0010
0010
0000
0000
,  // measure 56
0100
0100
0000
0000
,  // measure 57
0100
0000
0000
0000
,  // measure 58
0001
0000
0000
0000
,  // measure 59
0010
0000
0000
0000
,  // measure 60
0100
0000
0000
0000
,  // measure 61
1000
0000
0000
0000
,  // measure 62
0001
0000
1000
0000
,  // measure 63
0001
0000
1000
0000
,  // measure 64
0100
0000
0000
0000
,  // measure 65
0100
0000
0000
0000
,  // measure 66
1000
0000
0001
0000
,  // measure 67
1000
0000
0001
0000
,  // measure 68
0100
0000
0000
0000
,  // measure 69
0100
0000
0000
0000
,  // measure 70
0010
0010
0010
0000
,  // measure 71
0010
0000
0010
0000
,  // measure 72
0100
0100
0100
0000
,  // measure 73
0100
0000
0100
0000
,  // measure 74
0001
0001
0001
0000
,  // measure 75
0001
0000
0001
0000
,  // measure 76
1000
1000
1000
0000
,  // measure 77
1000
0000
1000
0000
,  // measure 78
0100
0000
0000
0000
,  // measure 79
0010
0000
0000
0000
;

//---------------dance-single - ----------------
#NOTES:
     dance-single:
     :
     Easy:
     5:
     0.239713,0.299762,0.042161,0.151778,0.000000,199.000000,194.000000,5.000000,18.000000,0.000000,0.000000,0.239713,0.299762,0.042161,0.151778,0.000000,199.000000,194.000000,5.000000,18.000000,0.000000,0.000000:
0000
0000
0000
0000
,
0000
0000
0000
0000
,
0000
0000
0000
0000
,
0000
0000
0000
0000
,
0000
0000
0000
0000
,
0200
0000
0300
0000
,
2000
0000
3000
0000
,
0002
0000
0003
0000
,
0200
0000
0300
0000
,
0001
0010
0001
0100
,
0001
0100
1000
0100
,
1000
0010
1000
0100
,
1000
0100
0001
0100
,
0001
0010
0100
1000
,
0001
0100
0010
1000
,
0200
0000
0300
0000
,
0020
0000
0030
0000
,
0001
0000
1000
0000
,
0001
0000
1000
0000
,
0100
0000
0010
0000
,
0100
0000
0010
0000
,
0001
1000
0001
0100
,
0010
1000
0010
0010
,
1000
0001
1000
0100
,
0010
0001
0010
0010
,
0001
0000
1000
0000
,
0100
0010
0100
0000
,
1000
0000
0001
0000
,
0100
0010
0100
0010
,
1000
0000
0001
0000
,
0100
0010
1000
0000
,
0100
0010
0001
0000
,
1001
0000
0000
0000
,
2000
0000
3000
0000
,
0002
0000
0003
0000
,
0200
0000
0300
0000
,
1001
0000
0000
0000
,
0001
0010
0100
1000
,
0010
0100
0001
0000
,
1000
0010
0100
0001
,
0010
0100
1000
0000
,
0001
0100
0001
0010
,
0100
1000
0010
1000
,
0001
0010
0001
0100
,
0010
1000
0100
1000
,
0001
1000
0001
1000
,
0010
0100
0010
0100
,
0001
0000
1000
0000
,
2002
0000
3003
0000
,
1000
0100
0001
0100
,
0010
0000
0010
0000
,
0001
0100
1000
0100
,
0010
0000
0010
0000
,
1000
0010
1000
0001
,
0010
0001
0100
0100
,
0001
0000
1000
0000
,
0001
0000
1000
0000
,
0000
0000
0000
0000
,
0020
0000
0030
0000
,
2000
0000
3000
0000
,
0002
0000
0003
0000
,
0020
0000
0030
0000
,
0100
0000
1000
0000
,
0100
0000
0001
0000
,
0100
0000
0100
0000
,
1001
0000
0000
0000
,
0001
0001
0100
0000
,
1000
1000
0100
0000
,
0001
0001
0010
0000
,
1000
1000
0010
0000
,
1000
0100
1000
0010
,
0100
0001
0010
0001
,
1000
0010
1000
0100
,
0010
0001
0100
0001
,
1000
0001
1000
0001
,
0010
0100
0010
0100
,
2000
0000
3000
0000
,
0002
0000
0003
0000
,
0200
0000
0300
0000
,
1001
0000
0000
0000
;

//---------------dance-single - ----------------
#NOTES:
     dance-single:
     :
     Medium:
     8:
     0.321626,0.399683,0.134914,0.590249,0.004216,267.000000,251.000000,16.000000,70.000000,0.000000,0.000000,0.321626,0.399683,0.134914,0.590249,0.004216,267.000000,251.000000,16.000000,70.000000,0.000000,0.000000:
0000
0000
0000
0000
,
0000
0000
0000
0000
,
0000
0000
0000
0000
,
0000
0000
0000
0000
,
0000
0000
0000
0000
,
2000
0000
0000
3000
,
0002
0000
0000
0003
,
2000
0000
0000
0001
0002
0000
0000
0000
,
0000
3003
0001
1000
,
0001
0010
0100
1000
,
0100
0000
1000
0000
0010
1000
0010
0000
,
0001
0000
0010
0001
0010
0000
1000
0000
,
0100
0000
0010
0000
0001
0100
0001
0000
,
0100
0000
1000
0100
1000
0000
0100
0000
,
0010
0000
0100
0000
0001
1000
0001
0000
,
2000
0000
0000
0001
0002
0000
0000
0000
,
0000
0000
0000
3003
,
1000
0000
1000
0000
,
0001
0000
0001
0000
,
1000
0000
0100
0000
,
0001
0000
0000
0000
0100
0000
0000
1000
,
1000
1000
0010
0100
,
0001
0001
0010
0100
,
1000
0010
0100
0001
,
1000
0100
1100
0101
,
0010
0100
0001
1000
,
0100
0000
0010
0000
0001
0000
1000
0100
,
1000
0001
0010
0100
,
0020
0032
2003
3200
,
0310
0001
0100
0001
,
2000
3200
2300
3020
,
0230
0000
0000
0000
,
0010
0000
0000
0310
0000
0000
0000
0000
0000
0000
0000
0000
0000
0000
0000
0000
,
0102
0000
0000
0003
,
2100
0000
0000
3000
,
2002
0000
0000
0000
,
3003
0000
1000
0001
,
1000
0000
0010
0200
0001
0000
0301
0000
,
1000
0000
0100
0020
0001
0000
0031
0000
,
0100
0000
0001
2000
0100
0000
0100
0000
,
3100
1000
0101
1100
,
0100
0010
0100
1001
,
0002
0023
0230
2300
,
3001
0100
0010
1001
,
2000
3200
0320
0032
,
1003
0010
0100
1001
,
2000
3002
0203
0320
,
2030
0000
0000
0001
0002
0000
0000
0000
,
0000
0000
0000
3003
,
0120
0100
0100
0130
,
2000
3001
0020
0031
,
0200
0010
0010
0310
,
2000
0100
0100
3100
,
1002
1000
1000
1003
,
0200
0010
0010
0310
,
0002
0100
0203
0010
,
0320
1000
2030
0000
,
3000
0000
0000
0000
,
1000
0000
0001
0200
0000
0000
0300
0000
,
0001
0000
0010
0200
0000
0000
1300
0000
,
1000
0001
0001
1000
,
0200
0000
0000
0300
,
1000
0000
0001
0020
0001
0000
0031
0000
,
0100
0000
0010
2000
0001
0000
3001
0000
,
0200
0000
0000
0300
,
1001
0000
1000
0001
,
1000
0000
0001
0200
0010
0000
0310
0000
,
0100
0000
0001
0020
0100
0000
0130
0000
,
1000
0000
0000
0001
0200
0000
0000
0000
,
0000
0300
0101
1100
,
0001
0000
0010
0000
0100
1000
0100
0000
,
2000
3020
0230
0302
,
1003
0000
0010
0000
0100
0001
0100
0000
,
0002
0023
0230
2300
,
3010
0000
0100
0000
0001
1000
0001
0000
,
0020
0230
2300
3002
,
0013
0010
0100
0100
,
1000
0001
1000
0001
,
2002
0000
0000
0000
,
3003
0000
0000
0000
;

//---------------dance-single - ----------------
#NOTES:
     dance-single:
     :
     Hard:
     12:
     0.474608,0.607113,0.236100,0.489064,0.075889,394.000000,366.000000,28.000000,58.000000,0.000000,0.000000,0.474608,0.607113,0.236100,0.489064,0.075889,394.000000,366.000000,28.000000,58.000000,0.000000,0.000000:
0000
0000
0000
0000
,
0000
0000
0000
0000
,
0000
0000
0000
0000
,
0000
0000
0000
0000
,
0000
0000
0000
0000
,
1000
0000
0000
0010
0000
0000
0100
0000
,
0001
0000
0000
0010
0000
0000
0100
0000
,
2000
0000
0000
0001
0002
0000
0000
0000
,
0000
3003
0010
0100
,
1000
0100
1000
0000
0001
0100
0001
0000
,
2000
3200
0320
0032
,
0103
0010
1000
0000
0100
0010
0001
0000
,
2000
3020
0230
0302
,
1003
0010
1000
0000
0001
0010
0001
0000
,
2000
3002
0023
0230
,
2300
0000
0000
0001
3001
0000
1000
0001
,
1000
0100
0010
0100
1000
0001
0010
0100
,
0000
0010
0001
1000
0010
0100
0010
2000
,
0000
0001
0001
0002
3000
0000
1003
0000
,
0000
0010
0100
0010
1000
0001
1000
0200
,
0000
0000
0000
0000
0000
0000
0000
0300
,
0000
1000
0010
0100
0001
0000
1000
0002
,
0000
1000
1000
2000
0003
0000
3001
0000
,
0000
0010
0001
0010
0100
1000
0001
0020
,
0000
0031
1000
0001
,
1000
1000
0100
0010
0001
0100
0100
0000
,
0001
0001
0010
0100
1000
0010
0010
0000
,
1000
0100
0001
0000
0001
0100
1000
0000
,
0020
2030
3002
0203
,
0301
0001
0100
0010
1000
0100
0100
0000
,
1000
1000
0010
0100
0001
0010
0010
0000
,
0001
0100
1000
0000
1000
0100
0001
0000
,
1001
0000
0000
1001
0000
0000
0000
0000
0000
0000
0000
0000
0000
0000
0000
0000
,
1000
0000
0000
1010
0000
0000
0000
0000
,
0001
0000
0000
0011
0000
0000
0100
0000
,
2002
0000
0000
3003
,
0110
0000
0010
0100
,
1000
0010
1000
0001
0200
0000
0301
0000
,
0010
0001
0010
0100
2000
0000
3010
0000
,
0100
0001
1000
0000
0100
1000
0001
0000
,
1000
0001
1100
0101
,
1000
0100
1000
0010
0100
0001
0100
0000
,
0002
0023
0230
2300
,
3001
0100
0001
0010
0100
1000
0100
0000
,
2000
3200
0320
0032
,
1003
0010
1000
0100
0010
0001
0010
0000
,
0002
2003
3002
1003
,
1002
0000
0000
0100
0200
0000
0003
0000
,
1000
0001
1000
0301
,
1001
0000
0000
0010
0100
0000
1000
0000
0001
0000
1000
0000
0010
0000
0100
0000
,
0001
0000
0000
1000
0100
0000
0010
0000
0001
0000
0100
0000
1000
0000
0100
0000
,
0010
0000
0000
1000
0001
0000
0010
0000
0001
0000
1000
0000
0010
0000
0001
0000
,
0010
0000
0000
0100
0001
0000
0010
0000
0100
0000
1000
0000
0010
0000
0100
0000
,
0001
0000
0000
0010
0001
0000
1000
0000
0100
0000
1000
0000
0010
0000
0100
0000
,
0001
0000
0000
0010
0100
0000
1000
0000
0010
0000
0100
0000
0010
0000
1000
0000
,
0001
0000
0000
0100
0010
0000
1000
0000
0100
0000
1000
0000
0001
0000
0100
0000
,
0001
0000
0000
1000
0010
0000
0001
0000
0010
0000
1000
0000
0100
0000
0010
0002
,
0000
0000
0000
0003
,
1000
0000
0000
1100
0000
0000
0000
0000
,
0001
0000
0000
0101
0000
0000
0010
0000
,
2002
0000
0000
3003
0000
1000
0100
1000
,
0010
1000
0001
0010
0001
1000
0010
0100
,
0001
0000
0000
1001
0000
0000
0110
0000
,
1000
0000
0000
1001
0000
0000
0110
0000
,
2002
0000
0000
3003
,
0220
0330
0002
2003
,
3001
0000
0100
0002
0000
0000
1000
0000
,
1003
0000
0100
2000
0000
0000
0010
0000
,
3020
0000
0000
0100
0200
0000
0030
0000
,
0001
0301
0101
1100
,
0001
0100
0010
0001
0010
1000
0010
0100
,
0001
0011
1000
1010
,
0100
0010
1000
0100
0001
0100
0010
0001
,
1000
1010
0001
0011
,
0100
1000
0010
0100
1000
0100
0001
0010
,
0100
1001
0010
0110
,
2002
0000
0000
0000
,
0000
0000
0000
3003
,
1000
0100
1000
0010
0100
0010
0100
0001
0010
0001
1000
0001
,
0200
0000
0000
0000
,
0300
0000
0000
0000
;

//---------------dance-single - ----------------
#NOTES:
     dance-single:
     :
     Challenge:
     13:
     0.581817,0.640842,0.438471,0.438471,0.096969,483.000000,431.000000,52.000000,52.000000,0.000000,0.000000,0.581817,0.640842,0.438471,0.438471,0.096969,483.000000,431.000000,52.000000,52.000000,0.000000,0.000000:
0000
0000
0000
0000
,
0000
0000
0000
0000
,
0000
0000
0000
0000
,
0000
0000
0000
0000
,
0000
0000
0000
0000
,
2000
0000
0000
3020
0000
0000
0100
0000
,
0230
0000
0000
0302
0000
0000
0010
0000
,
0023
0000
0000
0032
2000
0000
3003
0000
,
0001
1001
0000
0000
0010
0000
0100
0000
,
0001
1000
0001
0100
1000
0100
0001
0000
,
0011
1100
1010
0101
,
1000
0001
1000
0100
0001
0100
1000
0000
,
1010
0101
0011
1100
,
0100
1000
0010
0001
0010
1000
0100
0000
,
1001
1100
0101
1001
,
0120
0000
0000
0100
0130
0000
0010
1000
,
0100
1000
0010
0100
0001
1000
0001
0100
,
0000
0010
1000
0010
0100
0001
1000
0002
,
0000
0100
0203
0002
0300
0000
1003
0000
,
0000
0100
1000
0010
0100
1000
0100
0002
,
0000
0000
0000
0000
1003
0000
0100
0100
,
0100
1000
0100
0010
0001
0000
0100
0020
,
0000
1000
2030
0020
3000
0000
0130
0000
,
0000
1000
0100
0001
0010
0100
1000
0020
,
0000
1030
1100
0101
,
0010
1000
0010
1000
0100
0010
0100
0010
,
0001
0100
0001
0100
0010
0001
0010
0001
,
1000
0100
1000
0100
0001
0010
0001
0010
,
2000
3020
0032
0203
,
0301
0001
0020
0100
0130
0010
0002
1000
,
1003
0001
0200
0010
0310
0100
2000
0100
,
3100
1000
0200
0010
0310
0100
0002
1000
,
1003
0000
0000
1001
0000
0000
0000
0000
0000
0000
0000
0000
0000
0000
0000
0000
,
0002
0000
0000
0023
0000
0000
0000
0000
,
0230
0000
0000
0320
0000
0000
0032
0000
,
2000
0000
0000
3003
,
0110
0000
0000
0000
0000
0000
0000
0000
0010
0000
1000
0001
1000
0000
0100
0000
,
0010
0001
1000
0100
1000
0010
0100
0010
,
0001
1000
0100
0001
0010
0100
1000
0010
,
0100
1000
0001
0010
1000
0100
0010
0001
,
0100
0000
0010
0000
0100
0000
0001
0000
1000
0100
0000
0000
0100
1000
0000
0000
,
0001
1000
0100
1000
0010
0100
0001
1000
,
1100
1001
0110
1001
,
0101
0001
0010
0100
1000
0001
0100
0010
,
1010
1001
0110
1001
,
0011
0001
1000
0001
0100
0010
1000
0100
,
0110
1001
1010
0011
,
1001
0000
0000
1100
0102
0000
0000
0000
,
0100
0203
0010
0320
1000
2030
3002
1003
,
1001
0000
0000
0000
0100
0000
0010
0000
0001
1000
0001
0000
0100
0000
0010
0000
,
1000
0000
0000
0000
0001
0000
1000
0000
0010
0100
0010
0000
1000
0000
0001
0000
,
0010
0000
0000
0000
0100
0000
0010
0000
0001
1000
0001
0000
0100
0000
1000
0000
,
0100
0000
0000
0000
0010
0000
1000
0000
0001
0010
0001
0000
1000
0000
0100
0000
,
0001
0000
0100
0000
1000
0000
0010
0000
0100
1000
0100
0000
0001
0000
0010
0000
,
0100
0000
0001
0000
0100
0000
1000
0000
0010
0001
0010
0000
0100
0000
0001
0000
,
0010
0000
0100
0000
1000
0000
0001
0000
0100
0010
0100
0000
0001
0000
0010
0000
,
1000
0000
0010
0000
0100
0000
1000
0000
0001
0010
0001
0000
1000
0000
0100
0020
,
0000
0000
0000
0030
,
0002
0000
0000
2003
0000
0000
0000
0000
,
3020
0000
0000
0230
0000
0000
0001
0000
,
0302
0000
1000
0000
1003
0100
0010
0001
,
0010
0100
1000
0001
0010
0100
1000
0001
,
0100
0010
0100
0002
0000
0000
1003
0000
,
0100
0010
0100
2000
0000
0000
3001
0000
,
0100
0010
1000
0020
0000
0000
0000
0030
,
0210
0000
0302
2003
,
3001
0010
0001
0100
0010
1000
0100
0000
,
1000
0010
1000
0100
0010
0001
0100
0000
,
0010
0100
0001
0010
1000
0010
0100
1000
,
0010
0000
0001
0000
0010
0000
0100
0000
0001
0010
0000
0000
0100
1000
0000
0000
,
0001
0100
0001
0010
0100
1000
0010
0100
,
0101
1001
0110
1001
,
1100
0100
0010
0001
1000
0010
0100
0001
,
0011
1001
0110
1001
,
1010
1000
0100
0010
0001
1000
0010
1000
,
1001
0110
1010
0011
,
2002
0000
0000
0000
,
0000
0000
0000
3003
,
1000
0100
0010
0001
1000
0100
0010
0100
1000
0001
0010
0100
,
2000
0000
0000
0000
,
3000
0000
0000
0000
;

//---------------dance-double - ----------------
#NOTES:
     dance-double:
     :
     Easy:
     5:
     0.242123,0.298814,0.025296,0.177075,0.000000,201.000000,198.000000,3.000000,21.000000,0.000000,0.000000,0.242123,0.298814,0.025296,0.177075,0.000000,201.000000,198.000000,3.000000,21.000000,0.000000,0.000000:
00000000
00000000
00000000
00000000
,
00000000
00000000
00000000
00000000
,
00000000
00000000
00000000
00000000
,
00000000
00000000
00000000
00000000
,
00000000
00000000
00000000
00000000
,
00020000
00000000
00030000
00000000
,
00002000
00000000
00003000
00000000
,
00020000
00000000
00030000
00000000
,
00002000
00000000
00003000
00000000
,
01000000
00000000
00100000
00000000
,
10000000
00010000
10000000
00010000
,
01000000
00000000
00001000
00000000
,
00010000
00001000
00010000
00001000
,
00010000
00000000
00000100
00000000
,
00001000
00000001
00001000
00000001
,
00000020
00000000
00000030
00000000
,
00000200
00000000
00000300
00000000
,
00001000
00000000
00001000
00000000
,
00000001
00000000
00000001
00000000
,
00000100
00000000
00001000
00000000
,
00010000
00000000
01000000
00000000
,
10000000
00100000
01000000
00010000
,
00100000
01000000
10000000
00000000
,
00010000
00100000
01000000
10000000
,
00100000
01000000
00010000
00000000
,
10000000
01000000
00010000
00000000
,
00001000
00000100
00000001
00000000
,
00000001
00000010
00001000
00000000
,
00010000
00001000
00010000
00001000
,
00010000
00100000
10000000
00000000
,
10000000
01000000
00010000
00000000
,
00001000
00000100
00000001
00000000
,
00002002
00000000
00003003
00000000
,
00000200
00000000
00000300
00000000
,
00020000
00000000
00030000
00000000
,
00002000
00000000
00003000
00000000
,
00022000
00000000
00033000
00000000
,
00010000
00001000
00010000
00001000
,
01000000
00010000
01000000
00010000
,
10000000
00100000
10000000
00100000
,
01000000
00001000
01000000
00001000
,
00010000
00000100
00010000
00000100
,
00001000
00000010
00001000
00000010
,
00000100
00000001
00000100
00000001
,
00001000
00000010
00001000
00000010
,
00010000
00001000
00010000
00001000
,
00100000
00010000
00100000
00010000
,
10000000
01000000
10000000
01000000
,
00100000
00001000
00100000
00001000
,
00020000
00000000
00030000
00000000
,
02000000
00000000
03000000
00000000
,
20000000
00000000
30000000
00000000
,
00200000
00000000
00300000
00000000
,
01000000
01000000
00001000
00000000
,
00001000
00001000
00010000
00000000
,
00010000
00010000
00000100
00000000
,
00000100
00000100
00000010
00000000
,
00002002
00000000
00003003
00000000
,
00000001
00000000
00001000
00000000
,
00000010
00000000
00000100
00000000
,
00000001
00000000
00000001
00000000
,
00001000
00000000
00001000
00000000
,
00000001
00000001
00000010
00000000
,
00000010
00000010
00001000
00000000
,
00010000
00010000
00100000
00000000
,
00100000
00100000
10000000
00000000
,
01000000
00010000
00001000
00010000
,
00001000
00000100
00000001
00000000
,
00000100
00001000
00010000
00001000
,
00010000
01000000
10000000
00000000
,
00100000
10000000
01000000
10000000
,
00100000
01000000
00010000
00100000
,
00001000
00010000
00000010
00001000
,
00000100
00001000
00000010
00000100
,
00000001
00000010
00000001
00000100
,
00000001
00000100
00001000
00010000
,
00002000
00000000
00000000
00000000
,
00000000
00000000
00000000
00003000
,
00020000
00000000
00000000
00030000
;

//---------------dance-double - ----------------
#NOTES:
     dance-double:
     :
     Medium:
     8:
     0.314398,0.432990,0.143346,0.615545,0.004216,261.000000,244.000000,17.000000,73.000000,0.000000,0.000000,0.314398,0.432990,0.143346,0.615545,0.004216,261.000000,244.000000,17.000000,73.000000,0.000000,0.000000:
00000000
00000000
00000000
00000000
,
00000000
00000000
00000000
00000000
,
00000000
00000000
00000000
00000000
,
00000000
00000000
00000000
00000000
,
00000000
00000000
00000000
00000000
,
00000002
00000000
00000000
00000003
,
00000020
00000000
00000000
00000030
,
00000200
00000000
00000000
00010000
00020000
00000000
00000000
00000000
,
00000000
00030300
00010000
00001000
,
00010000
01000000
10000000
01000000
,
00100000
00001000
00100000
00001000
,
00010000
00001000
00000100
00000001
,
00000010
00000100
00000010
00000100
,
00010000
00001000
00000010
00000001
,
00000100
00000010
00000100
00000010
,
00020000
00000000
00000000
00001000
00002000
00000000
00000000
00000000
,
00000000
00000000
00000000
00033000
,
00010000
00000000
00010000
00000000
,
00001000
00000000
00001000
00000000
,
01000000
00000000
00010000
00000000
,
10000000
00000000
01000000
00000000
,
10000000
10000000
00100000
01000000
,
00001000
00010000
00000010
00000100
,
00000001
00000001
00000010
00000100
,
00010000
00001000
00011000
00000000
,
00010000
01000000
00100000
00010000
,
01000000
00100000
00010000
00001000
,
00000100
00000010
00001000
00000100
,
00000020
00000032
00002003
00003200
,
00000310
00000001
00000100
00001000
,
00020000
02030000
23000000
30200000
,
00320000
00000000
00000000
00000000
,
00001000
00000000
00000000
00031000
00000000
00000000
00000000
00000000
00000000
00000000
00000000
00000000
00000000
00000000
00000000
00000000
,
00020000
00000000
00000000
00030000
,
00000200
00000000
00000000
00000300
,
00002002
00000000
00000000
00000000
,
00003003
00000000
00001100
00000101
,
00000001
00000000
00000010
00000200
00001000
00000000
00001300
00000000
,
00000010
00000000
00010000
00002000
01000000
00000000
01003000
00000000
,
00010000
00000000
00100000
02000000
10000000
00000000
13000000
00000000
,
00100000
00000000
00010000
00002000
00000010
00000000
00003010
00000000
,
00000100
00001000
00000001
00001001
,
00002000
00003020
00020030
00032000
,
01003000
00010000
10000000
10010000
,
00020000
02030000
03002000
00023000
,
00030010
00001000
00000001
00001001
,
00002000
00003200
00020300
00030020
,
00002030
00000000
00000000
00000001
00000002
00000000
00000000
00000000
,
00000000
00000000
00000000
00003003
,
00000210
00000010
00000010
00000310
,
00000002
00000103
00002000
00013000
,
02000000
10000000
10000000
13000000
,
00200000
01000000
01000000
01300000
,
10020000
10000000
10000000
10030000
,
02000000
00010000
00010000
03010000
,
00002000
00003100
00000002
00000013
,
00000200
00001300
00000020
00000000
,
00000030
00000000
00000000
00000000
,
00001001
00000000
00000001
00000200
00000000
00000000
00000300
00000000
,
00001001
00000000
00001000
00000200
00000000
00000000
00010300
00000000
,
00020000
00001000
00032000
00010000
,
00023000
00000000
00030000
00000000
,
01000000
00000000
10000000
00020000
01000000
00000000
01030000
00000000
,
00100000
00000000
10000000
00020000
00100000
00000000
00130000
00000000
,
02000000
00000000
00000000
03000000
,
10010000
00000000
11000000
01010000
,
00010000
00000000
00100000
00002000
00010000
00000000
00013000
00000000
,
00001000
00000000
00010000
00000020
00001000
00000000
00001030
00000000
,
00000001
00000000
00000000
00001000
00000200
00000000
00000000
00000000
,
00000000
00000300
00001100
00000101
,
00000001
00000000
00000010
00000000
00000100
00001000
00000100
00000000
,
00000020
00000032
00000203
00002300
,
00013000
00000000
01000000
00000000
10000000
00100000
10000000
00000000
,
02000000
03200000
00302000
00023000
,
00030100
00000000
00001000
00000000
00000001
00000100
00000001
00000000
,
00000020
00000230
00020300
00032000
,
00103000
00010000
00100000
00010000
,
10000000
01000000
10000000
01000000
,
20020000
00000000
00000000
00000000
,
30030000
00000000
00000000
00000000
;

//---------------dance-double - ----------------
#NOTES:
     dance-double:
     :
     Hard:
     12:
     0.495086,0.605216,0.311989,0.354149,0.042161,411.000000,374.000000,37.000000,42.000000,0.000000,0.000000,0.495086,0.605216,0.311989,0.354149,0.042161,411.000000,374.000000,37.000000,42.000000,0.000000,0.000000:
00000000
00000000
00000000
00000000
,
00000000
00000000
00000000
00000000
,
00000000
00000000
00000000
00000000
,
00000000
00000000
00000000
00000000
,
00000000
00000000
00000000
00000000
,
00001000
00000000
00000000
00001100
00000000
00000000
00001000
00000000
,
00000001
00000000
00000000
00000101
00000000
00000000
00000001
00000000
,
00001000
00000000
00000000
00000010
00000020
00000000
00000000
00000000
,
00000000
00000030
00001000
00000001
,
00001000
00000100
00010000
00000000
00001000
01000000
00010000
00000000
,
00200000
00320000
20030000
32000000
,
03010000
00001000
01000000
00000000
00001000
00010000
00000100
00000000
,
00002000
00003020
00000230
00000302
,
00000013
00000100
00001000
00000000
00000010
00000100
00000001
00000000
,
00000200
00002300
00023000
02030000
,
23000000
00000000
00000000
00010000
30010000
00000000
10000000
01000000
,
10000000
00100000
01000000
00001000
00010000
00001000
00100000
01000000
,
00000000
10000000
00100000
00010000
00001000
00010000
00100000
10000000
,
00000000
01000000
00100000
00002000
00000000
00000000
00013000
00000000
,
00000000
00001000
00000100
00000001
00000010
00000100
00001000
00000020
,
00000000
00000000
00000000
00000030
,
00000000
00001000
00000100
00000010
00000001
00000000
00000100
00000001
,
00000000
00000010
00001000
00020000
00000000
00000000
00031000
00000000
,
00000000
00100000
00010000
01000000
00100000
10000000
01000000
00200000
,
00000000
00301000
00010000
00001000
,
00000100
00000001
00000010
00000001
00001000
00000010
00000100
00000000
,
00000001
00000010
00000100
00010000
00001000
00000100
00000001
00000000
,
00001000
00000001
00000100
00000000
00000001
00001000
00000100
00000000
,
00000020
00000032
00000203
00002300
,
00013000
00000100
00000010
00000100
00010000
00001000
01000000
00000000
,
00100000
01000000
00010000
01000000
00100000
10000000
01000000
00000000
,
00010000
00001000
00000100
00000000
00001000
00010000
01000000
00000000
,
10010000
00000000
00000000
10010000
00000000
00000000
00000000
00000000
00000000
00000000
00000000
00000000
00000000
00000000
00000000
00000000
,
10000000
00000000
00000000
11000000
00000000
00000000
00000000
00000000
,
01000000
00000000
00000000
01010000
00000000
00000000
00010000
00000000
,
00022000
00000000
00000000
00033000
,
00011000
00000000
00010000
00001000
,
00010000
00000100
00000010
00000002
00000100
00000000
00001003
00000000
,
00000001
00000100
00000010
00020000
00001000
00000000
01030000
00000000
,
10000000
00100000
01000000
00000000
00010000
00100000
01000000
00000000
,
10000000
00010000
10100000
00110000
,
10000000
01000000
10000000
10000000
00010000
00010000
02000000
00000000
,
10000000
00010000
10000000
03010000
,
00100000
00001000
00010000
00010000
00000010
00000010
00000200
00000000
,
00000001
00001000
00000001
00001300
,
00010000
00001000
00100000
00100000
01000000
01000000
00200000
00000000
,
00010000
01000000
00010000
01300000
,
21000000
00000000
00000000
00010000
00020000
00000000
30000000
00000000
,
00100000
01000000
00100000
01030000
,
10010000
00000000
01000000
00100000
10000000
01000000
00100000
00001000
,
00101000
00000000
00010000
00000010
00001000
00000100
00000010
00000001
,
00000011
00000000
00000100
00010000
00001000
00100000
01000000
10000000
,
11000000
00000000
00100000
01000000
00001000
00010000
00100000
10000000
,
10100000
00000000
01000000
00010000
00001000
00000100
00000001
00000010
,
00000011
00000000
00000100
00010000
00000010
00001000
00000100
00000010
,
00000110
00000000
00000001
00000100
00001000
00010000
01000000
10000000
,
11000000
00000000
00000000
00000000
00010000
00000000
01000000
00000000
00100000
00000000
10000000
00000000
01000000
00000000
00100000
00020000
,
00000000
00000000
00000000
00030000
,
10000000
00000000
00000000
10100000
00000000
00000000
00000000
00000000
,
00100000
00000000
00000000
00110000
00000000
00000000
00010000
00000000
,
00022000
00000000
00000000
00033000
00000000
00001000
01000000
00010000
,
00100000
00001000
00010000
00000010
00001000
00000100
00010000
00001000
,
00000100
00000000
00000000
00000101
00000000
00000000
00001001
00000000
,
00001000
00000000
00000000
00001100
00000000
00000000
00001001
00000000
,
00000220
00000000
00000000
00000330
,
00002002
00003003
00000101
00001100
,
00001000
00000100
00000010
00000001
00000010
00000100
00010000
00000000
,
00001000
01000000
00100000
10000000
00100000
01000000
00010000
00000000
,
00100000
01000000
00100000
01000000
02000000
00000000
00000000
00000000
,
00010000
13000000
10100000
00110000
,
00010000
00001000
00000010
00000001
00000100
00000010
00010000
00001000
,
00000010
00000010
00000001
00000001
00001000
00001000
00000100
00000100
,
00010000
00001000
00100000
01000000
10000000
00100000
01000000
00001000
,
00010000
00010000
01000000
01000000
10000000
10000000
00100000
00100000
,
01000000
00001000
00010000
00000100
00000010
00000001
00000100
00000010
,
00010010
00010100
00101000
01001000
,
00022000
00000000
00000000
00000000
,
00000000
00000000
00000000
00033000
,
00010000
00001000
00010000
00001000
01000000
00010000
01000000
00010000
00100000
01000000
00100000
01000000
,
20000000
00000000
00000000
30000000
;

//---------------dance-double - ----------------
#NOTES:
     dance-double:
     :
     Challenge:
     14:
     0.584226,0.638839,0.261396,0.320421,0.177075,485.000000,454.000000,31.000000,38.000000,0.000000,0.000000,0.584226,0.638839,0.261396,0.320421,0.177075,485.000000,454.000000,31.000000,38.000000,0.000000,0.000000:
00000000
00000000
00000000
00000000
,
00000000
00000000
00000000
00000000
,
00000000
00000000
00000000
00000000
,
00000000
00000000
00000000
00000000
,
00000000
00000000
00000000
00000000
,
00000010
00000000
00000000
00020000
00000000
00000000
00001000
00000000
,
01030000
00000000
00000000
00200000
00000000
00000000
00010000
00000000
,
10300000
00000000
00000000
00100000
00002000
00000000
00000000
00000000
,
00010000
00013000
00000000
00000000
01000000
00000000
10000000
00000000
,
00100000
00010000
00001000
00010000
00100000
01000000
00010000
00000000
,
01010000
11000000
01010000
11000000
,
00010000
01000000
00001000
00010000
00000010
00001000
00000100
00000000
,
00001100
00000101
00001100
00000101
,
00000001
00000010
00001000
00010000
00100000
00010000
00001000
00000000
,
00011000
01001000
00011000
00010100
,
00012000
00000000
00000000
00000100
00003100
00000000
00000001
00000010
,
00001000
00010000
00001000
00000100
00000001
00000010
00000100
00001000
,
00000000
00000001
00000010
00000001
00001000
00000010
00010000
00002000
,
00000000
00010000
00013000
00002000
00000000
00000000
00003100
00000000
,
00000000
00000010
00010000
00001000
00010000
00100000
10000000
02000000
,
00000000
00000000
03000000
00000000
20010000
00000000
01000000
01000000
,
31000000
00100000
00001000
00010000
01000000
00000000
10000000
20000000
,
00000000
00010000
30010000
20000000
00000000
00000000
30100000
00000000
,
00000000
00010000
00001000
00000010
00000001
00000010
00001000
00020000
,
00000000
00031000
00001100
00000101
,
00000001
00000010
00000001
00000100
00001000
00010000
00001000
00010000
,
01000000
10000000
00100000
10000000
01000000
00100000
00001000
00010000
,
00000010
00010000
00001000
01000000
00001000
00010000
00000100
00001000
,
00000002
00000023
00000230
00002300
,
00003001
00000100
00000010
00010000
00001000
00001000
00001000
00000100
,
00000010
00010000
00001000
00100000
01000000
01000000
01000000
10000000
,
00100000
00010000
00001000
00100000
01000000
01000000
01000000
10000000
,
00010000
00000000
00000000
10010000
00000000
00000000
10000000
00000000
01000000
00000000
00100000
00000000
00001000
00000000
00010000
00000000
,
00002000
00000000
00000000
00203000
00000000
00000000
00000000
00000000
,
00302000
00000000
00000000
00023000
00000000
00000000
00030200
00000000
,
00000020
00000000
00000000
00000330
,
00001001
00000000
00000000
00000000
00000001
00001000
00000001
00001000
,
00000001
00000100
00000010
00010000
00001000
00000100
00000010
00001000
,
00000001
00000010
00000100
00010000
00001000
00000010
00000100
00010000
,
00001000
00000100
00000010
00001000
00000100
00010000
00001000
00100000
,
00001000
01000000
00010000
00100000
00110000
00000000
11000000
00000000
,
10000000
01000000
00100000
00001000
00010000
00100000
10000000
00010000
,
10000000
01000000
00000000
00000000
01000000
00010000
00000000
00000000
00010000
00001000
00000000
00000000
00001000
00000100
00000000
00000000
,
00000001
00000010
00000100
00010000
00001000
00000010
00000100
00001000
,
00000001
00000100
00000000
00000000
00000100
00001000
00000000
00000000
00001000
00010000
00000000
00000000
00010000
01000000
00000000
00000000
,
10000000
00100000
01000000
00001000
00100000
01000000
10000000
00100000
,
01000000
00001000
00000000
00000000
00001000
00010000
00000000
00000000
00010000
00000100
00000000
00000000
00000100
00000010
00000000
00000000
,
00001001
00000000
00000000
00001000
00000002
00000000
00000000
00000000
,
00001000
00002003
00000001
00003002
00002003
00003001
00001001
00000000
,
00000110
00000000
00000000
00000000
00000100
00000000
00000001
00000000
00001000
00000100
00001000
00000000
00000001
00000000
00000100
00000000
,
00001000
00000000
00000000
00000000
00010000
00000000
01000000
00000000
10000000
00100000
10000000
00000000
01000000
00000000
00100000
00000000
,
00001000
00000000
00000000
00000000
00010000
00000000
01000000
00000000
00100000
00001000
00100000
00000000
00010000
00000000
01000000
00000000
,
00001000
00000000
00000000
00000000
00010000
00000000
00000100
00000000
00000010
00000001
00000010
00000000
00000100
00000000
00001000
00000000
,
00000001
00000000
00000010
00000000
00001000
00000000
00010000
00000000
00001000
01000000
00001000
00000000
00010000
00000000
00100000
00000000
,
10000000
00000000
01000000
00000000
00100000
00000000
00001000
00000000
00010000
00000010
00010000
00000000
00001000
00000000
00000100
00000000
,
00001000
00000000
00010000
00000000
01000000
00000000
10000000
00000000
00100000
01000000
00100000
00000000
10000000
00000000
00010000
00000000
,
01000000
00000000
00100000
00000000
00010000
00000000
00001000
00000000
00010000
00000010
00010000
00000000
00000100
00000000
00001000
00000001
,
00000000
00000000
00000000
00000000
,
10000000
00000000
00000000
12000000
00000000
00000000
00000000
00000000
,
03100000
00000000
00000000
00102000
00000000
00000000
00010000
00000000
,
00023000
00000000
00000010
00000000
00030010
00001000
00000100
00000001
,
00000100
00010000
00001000
00000010
00000001
00000010
00001000
00010000
,
01000000
01000000
10000000
00020000
00000000
00030000
10010000
00000000
,
01000000
01000000
00001000
00020000
00000000
00030000
00011000
00000000
,
00001000
00001000
00000100
00000020
00000000
00000000
00000030
00000000
,
00002002
00000000
00000000
00000003
00000002
00003000
00002003
00000000
,
00003100
00000010
00000001
00000010
00000100
00010000
00001000
00000000
,
00000100
00000001
00000010
00001000
00010000
00001000
01000000
00000000
,
00100000
10000000
00010000
00100000
10000000
00100000
00001000
00010000
,
00100000
10000000
01000000
00100000
01100000
00000000
10010000
00000000
,
00010000
01000000
00100000
00010000
00001000
00010000
01000000
10000000
,
00100000
00010000
00000000
00000000
00010000
00001000
00000000
00000000
00001000
00000010
00000000
00000000
00000010
00000001
00000000
00000000
,
00000100
00000001
00000010
00000100
00010000
00000010
00001000
00000100
,
00010000
01000000
00000000
00000000
01000000
10000000
00000000
00000000
10000000
00100000
00000000
00000000
00100000
00010000
00000000
00000000
,
00001000
00100000
00001000
00010000
00100000
00010000
00001000
00100000
,
00010000
01000000
00000000
00000000
01000000
00001000
00000000
00000000
00001000
00010000
00000000
00000000
00010000
00000100
00000000
00000000
,
00002002
00000000
00000000
00000000
,
00000000
00000000
00000000
00003003
,
00001000
00000100
00010000
00001000
00010000
00000010
00001000
00000010
00010000
00001000
00010000
00000100
,
00002000
00000000
00000000
00003000
;
