#TITLE:Do You Wanna Touch Me;
#SUBTITLE:(Oh Yeah);
#ARTIST:Joan Jett and the Blackhearts;
#TITLETRANSLIT:;
#SUBTITLETRANSLIT:;
#ARTISTTRANSLIT:;
#GENRE:;
#CREDIT:;
#BANNER:Do You Wanna Touch Me (Oh Yeah)-bn.png;
#BACKGROUND:Do You Wanna Touch Me (Oh Yeah)-bg.png;
#LYRICSPATH:;
#CDTITLE:;
#MUSIC:Do You Wanna Touch Me (Oh Yeah).ogg;
#OFFSET:0.000000;
#SAMPLESTART:52.969002;
#SAMPLELENGTH:20.000000;
#SELECTABLE:YES;
#DISPLAYBPM:124.000000:131.000000;
#BPMS:0.000000=124.000000
,16.000000=125.999992
,24.000000=124.999992
,32.000000=126.999992
,44.000000=125.999992
,56.000000=128.000000
,72.000000=130.000000
,80.000000=127.989990
,112.000000=131.000000
,120.000000=129.000000
,128.000000=126.999992
,148.000000=129.000000
,156.000000=125.999992
,164.000000=126.400009
,180.000000=128.000000
,212.000000=124.000000
,224.000000=126.999992
,236.000000=128.399994
;
#STOPS:
;
#BGCHANGES:;
#KEYSOUNDS:;
#ATTACKS:;

//---------------dance-single - ----------------
#NOTES:
     dance-single:
     :
     Hard:
     11:
     0.466416,0.464448,0.213823,0.279614,0.127471,397.000000,371.000000,26.000000,34.000000,0.000000,0.000000,0.466416,0.464448,0.213823,0.279614,0.127471,397.000000,371.000000,26.000000,34.000000,0.000000,0.000000:
0000
0000
0000
0000
,
0000
0000
0000
0000
,
0000
0000
0000
0000
,
0000
0000
0000
0000
,
2010
0000
0000
0000
0001
0000
0100
0000
3100
0000
0000
0000
0001
0000
0000
1000
,
0020
0000
0000
0000
0100
0000
1000
0000
1030
0000
0000
0000
0001
0000
0000
0100
,
0002
0000
0010
0100
0103
0000
0101
0000
,
1000
0000
0000
0000
0001
0000
0010
0000
0010
0000
0000
0100
1000
0000
0000
0000
,
1200
0000
0000
0000
0001
0000
1000
0000
1300
0000
0000
0000
0010
0000
0000
0100
,
0002
0000
0000
0000
1000
0000
0010
0000
0013
0000
0000
0000
1000
0000
0000
0100
,
0020
0000
0100
0001
0031
0000
0011
0000
,
1000
0000
0010
0100
0001
1000
1000
2000
,
3001
0100
0010
1000
0100
0010
0001
2000
,
0000
0001
0001
3100
1000
1000
0101
0000
,
0010
1000
0100
0010
0001
0100
1000
0000
,
1001
0000
0010
0100
0001
1000
1000
2000
,
3010
1000
0100
0010
0001
1000
0001
0200
,
0000
0010
0310
0100
0001
0001
1100
0000
,
0001
1000
0100
0010
0001
0100
0010
2000
,
0000
3100
1010
0000
0001
1000
0010
0120
,
2030
0000
3001
0010
0200
1000
1300
0000
,
0001
0100
0010
1000
0020
0100
0130
0000
,
0001
0010
1000
0010
0001
0000
0100
0010
,
2000
0000
0100
0000
3001
0000
0000
0010
0001
0000
0000
1000
0100
0000
0000
1000
,
0001
0000
0100
0010
2000
0100
3100
0000
,
0010
1000
0010
0100
0002
1000
1003
0000
,
0001
0010
1000
0010
0001
0100
1000
0100
,
0001
1010
0001
1100
,
0010
0000
0100
0000
0001
0000
0100
0000
0001
0000
1000
0010
1000
0000
0000
0000
,
1000
0000
0010
0000
1000
0000
0100
0000
0010
0000
0001
0100
0001
0000
0000
0000
,
0001
1000
0010
1000
0100
0010
0001
1000
,
0010
1100
0010
0101
,
0001
0000
1000
0000
0001
0000
1000
0000
0010
0000
0100
0010
0100
0000
0000
0000
,
0010
0000
1000
0000
0100
0000
1000
0000
0100
0000
0001
0010
0001
0000
0000
0000
,
1000
0010
1000
0001
0100
0010
0100
0001
,
1000
0101
1000
0011
,
0100
1010
0100
0011
,
2001
0000
0000
0000
0100
0000
0001
0000
3001
0000
0000
0000
0010
0000
0000
1000
,
0002
0000
0000
0000
1000
0000
0100
0000
0103
0000
0000
0000
0010
0000
0000
1000
,
0200
0000
0001
1000
1300
0000
0110
0000
,
0001
0001
0100
0010
1000
1000
0100
0000
,
0021
0000
0000
0000
1000
0000
0100
0000
0130
0000
0000
0000
0001
0000
0000
1000
,
0002
0000
0000
0000
0010
0000
0100
0000
0103
0000
0000
0000
0001
0000
0000
1000
,
0200
0000
0010
1000
1300
0000
0101
0000
,
1000
1000
0010
0100
0001
0001
0010
0000
,
1000
0000
0001
0000
0100
0000
0001
0000
1000
0000
0010
0100
0020
0000
0000
0000
,
1030
0000
0010
0000
0100
0000
0010
0000
0100
0000
0001
1000
0002
0000
0000
0000
,
0013
0000
0001
0000
0100
0000
0001
0000
0010
0000
1000
0100
1000
0000
0000
0000
,
0001
0000
0000
0000
1000
0000
0010
0000
0010
0000
0000
0100
0001
0000
0000
0000
,
1000
0000
0010
0000
1000
0000
0010
0000
0100
0000
0001
0100
0002
0000
0000
0000
,
0013
0000
0001
0000
1000
0000
0001
0000
1000
0000
0100
0010
0200
0000
0000
0000
,
1300
0000
0010
0000
1000
0000
0001
0000
0010
0000
0100
0001
0100
0000
0000
0000
,
1000
0000
0000
0000
0010
0000
0001
0000
0001
0000
0000
1000
0100
0000
0000
0000
,
1020
0000
0000
0000
1000
0000
0100
0000
0130
0000
0001
1000
0001
0000
0000
0000
,
0012
0000
0000
0000
0100
0000
1000
0000
1003
0000
0010
0100
0010
0000
0000
0000
,
2100
0000
0000
0000
0001
0000
0100
0000
3100
0000
0010
1000
0010
0000
0000
0000
,
1000
0000
0000
0000
0001
0000
0100
0000
0100
0000
0000
0010
1000
0000
0000
0001
,
0200
0000
0000
0000
0001
0000
0010
0000
0310
0000
1000
0001
1000
0000
0000
0000
,
2100
0000
0000
0000
0010
0000
0001
0000
3001
0000
1000
0100
1000
0000
0000
0000
,
0120
1000
0000
0001
,
0000
1000
0000
0001
,
0000
0000
0000
0000
,
0000
0000
0000
0030
;

//---------------dance-single - ----------------
#NOTES:
     dance-single:
     :
     Medium:
     8:
     0.361854,0.412843,0.361854,0.148031,0.000000,308.000000,264.000000,44.000000,18.000000,0.000000,0.000000,0.361854,0.412843,0.361854,0.148031,0.000000,308.000000,264.000000,44.000000,18.000000,0.000000,0.000000:
0000
0000
0000
0000
,
0000
0000
0000
0000
,
0000
0000
0000
0000
,
0000
0000
0000
0000
,
2010
0001
3100
1000
,
0102
0010
1003
0001
,
2001
0100
0010
0001
,
0100
3010
1000
0001
,
1200
0001
1300
0100
,
0021
0100
0031
0010
,
0120
1000
0001
0100
,
1000
0000
0031
0000
0100
0010
0100
0010
,
0000
1000
0001
0100
0010
0000
0000
1000
,
0000
0001
0100
0010
0100
0000
0000
0000
,
0001
1000
0100
0000
1000
0001
0100
0000
,
0010
0000
0100
0000
1000
0001
1000
0001
,
0000
0010
0001
1000
0100
0000
0000
0010
,
0000
0100
0010
0100
0001
0000
0000
0000
,
1000
0001
0010
0000
0001
1000
0010
0000
,
0100
0000
0001
0000
1000
0010
1000
0010
,
0100
0000
1001
0000
0001
0000
0000
1000
,
0000
0010
1000
0000
0101
0000
0000
0010
,
0000
1000
0010
1000
0001
0000
0100
0010
,
1000
0001
0101
1100
,
0001
0000
0110
0000
1000
0000
0000
0010
,
0000
1000
0100
1000
0001
0000
0000
0000
,
0010
0001
0010
0001
0100
0000
0100
0000
,
1000
1010
0001
0011
,
1000
0001
1000
0001
1000
0000
0101
0000
,
1000
0001
1000
0001
1000
0000
1010
0000
,
0001
1000
0100
1000
0001
0000
0100
0000
,
0010
1001
0100
1001
,
0010
0100
0010
0100
0010
0000
1100
0000
,
0010
0100
0010
0100
0010
0000
0011
0000
,
0100
0010
0100
0010
0100
0000
0001
0000
,
1000
0101
0001
1100
,
0010
1010
0100
0101
,
1002
0100
1000
0103
,
2001
0100
0001
3100
,
1002
0100
0010
0103
,
1000
0001
0000
0000
0100
0010
0000
0000
,
0210
0001
1000
0301
,
0120
1000
0100
1030
,
0210
0001
0010
0301
,
0100
0001
0000
0000
1000
0010
0000
0000
,
1000
0100
1000
0100
1000
0000
0011
0000
,
1000
0100
1000
0100
1000
0000
1010
0000
,
0002
0100
1000
0103
,
2000
0010
0001
3010
,
0001
0100
0001
0100
0001
0000
1100
0000
,
0001
0100
0001
0100
0001
0000
0101
0000
,
0020
0100
0001
1030
,
0200
1000
0010
0301
,
1100
0000
1000
0001
0100
0000
0101
0000
,
1010
0000
0010
1000
0001
0000
0011
0000
,
1001
0000
0100
0010
0100
0000
0110
0000
,
0001
1000
0001
1000
,
1100
0000
0010
1000
0100
0000
0011
0000
,
1010
0000
0001
0100
0010
0000
0101
0000
,
2002
0000
0000
3000
,
0000
0100
0000
0100
,
0000
0000
0000
0000
,
0000
0000
0000
0003
;

//---------------dance-single - ----------------
#NOTES:
     dance-single:
     :
     Easy:
     5:
     0.230271,0.309632,0.197375,0.082240,0.000000,196.000000,172.000000,24.000000,10.000000,0.000000,0.000000,0.230271,0.309632,0.197375,0.082240,0.000000,196.000000,172.000000,24.000000,10.000000,0.000000,0.000000:
0000
0000
0000
0000
,
0000
0000
0000
0000
,
0000
0000
0000
0000
,
0000
0000
0000
0000
,
1001
0000
0000
0001
,
1001
0000
0000
1000
,
1001
0000
0000
0000
,
0010
1000
0100
0001
,
0110
0000
0000
0010
,
0110
0000
0000
0100
,
0110
0000
0000
0000
,
0001
0010
1000
0100
,
0010
1000
0001
0000
,
0010
0001
1000
0000
,
0001
1000
0001
1000
,
0100
0010
0001
1000
,
0010
1000
0100
0000
,
1000
0010
0001
0000
,
0100
0010
0100
0010
,
1000
0100
0010
0001
,
0100
0100
0100
0000
,
0001
1000
0001
0000
,
0010
0001
0100
0001
,
1000
0000
0101
1100
,
0010
0010
0010
0000
,
1000
0001
1000
0000
,
0001
0010
0001
0100
,
2000
3000
0002
0003
,
0100
0100
0100
0000
,
0010
0010
0010
0000
,
1000
0010
1000
0010
,
0200
0300
0020
0030
,
1000
1000
1000
0000
,
0001
0001
0001
0000
,
0010
0001
0100
0001
,
0200
0300
0020
0030
,
2000
3000
0002
0003
,
1001
0000
0000
0100
,
1001
0000
0000
0010
,
1001
0000
0000
0000
,
1000
0100
0001
0010
,
0110
0000
0000
1000
,
0110
0000
0000
0001
,
0110
0000
0000
0000
,
0010
0100
0001
1000
,
0001
0001
0001
0101
,
1000
1000
1000
1100
,
0010
0100
0001
1000
,
0001
1000
0010
0100
,
0010
0010
0010
1001
,
0100
0100
0100
1001
,
0001
1000
0100
0010
,
0100
1000
0001
0010
,
1001
0100
0001
0100
,
1001
0100
1000
0100
,
1001
0010
0100
0010
,
1000
1000
0001
0001
,
0110
0001
1000
0100
,
0110
1000
0001
0100
,
0220
0000
0000
0000
,
0000
0000
0000
0000
,
0000
0000
0000
0000
,
0000
0000
0000
0330
;

//---------------dance-single - ----------------
#NOTES:
     dance-single:
     :
     Beginner:
     1:
     0.095163,0.145564,0.148031,0.000000,0.000000,81.000000,63.000000,18.000000,0.000000,0.000000,0.000000,0.095163,0.145564,0.148031,0.000000,0.000000,81.000000,63.000000,18.000000,0.000000,0.000000,0.000000:
// measure 0
0000
0000
0000
0000
,  // measure 1
0000
0000
0000
0000
,  // measure 2
0000
0000
0000
0000
,  // measure 3
0000
0000
0000
0000
,  // measure 4
1001
0000
0000
0000
,  // measure 5
1001
0000
0000
0000
,  // measure 6
1001
0000
0000
0000
,  // measure 7
0000
0000
0000
0000
,  // measure 8
0110
0000
0000
0000
,  // measure 9
0110
0000
0000
0000
,  // measure 10
0110
0000
0000
0000
,  // measure 11
0000
0000
0000
0000
,  // measure 12
1000
0000
0000
0000
,  // measure 13
0001
0000
0000
0000
,  // measure 14
0100
0000
0100
0000
,  // measure 15
0100
0000
0000
0000
,  // measure 16
0001
0000
0000
0000
,  // measure 17
1000
0000
0000
0000
,  // measure 18
0010
0000
0010
0000
,  // measure 19
0010
0000
0000
0000
,  // measure 20
1000
0000
0000
0000
,  // measure 21
0100
0000
0000
0000
,  // measure 22
1000
0000
0001
0000
,  // measure 23
0100
0000
0000
0000
,  // measure 24
0001
0000
0000
0000
,  // measure 25
0010
0000
0000
0000
,  // measure 26
0001
0000
1000
0000
,  // measure 27
0010
0000
0010
0000
,  // measure 28
1000
0000
0000
0000
,  // measure 29
0001
0000
0000
0000
,  // measure 30
1000
0000
0001
0000
,  // measure 31
0100
0000
0100
0000
,  // measure 32
0010
0000
0000
0000
,  // measure 33
0100
0000
0000
0000
,  // measure 34
0010
0000
0100
0000
,  // measure 35
0001
0000
0001
0000
,  // measure 36
1000
0000
1000
0000
,  // measure 37
1001
0000
0000
0000
,  // measure 38
1001
0000
0000
0000
,  // measure 39
1001
0000
0000
0000
,  // measure 40
0000
0000
0000
0000
,  // measure 41
0110
0000
0000
0000
,  // measure 42
0110
0000
0000
0000
,  // measure 43
0110
0000
0000
0000
,  // measure 44
0000
0000
0000
0000
,  // measure 45
1000
0000
1000
0000
,  // measure 46
0001
0000
0001
0000
,  // measure 47
1000
0000
0000
0000
,  // measure 48
0000
0000
0000
0000
,  // measure 49
0010
0000
0010
0000
,  // measure 50
0100
0000
0100
0000
,  // measure 51
0010
0000
0000
0000
,  // measure 52
0000
0000
0000
0000
,  // measure 53
1001
0000
0000
0000
,  // measure 54
1001
0000
0000
0000
,  // measure 55
1001
0000
0000
0000
,  // measure 56
0000
0000
0000
0000
,  // measure 57
0110
0000
0000
0000
,  // measure 58
0110
0000
0000
0000
,  // measure 59
0110
0000
0000
0000
;
