#TITLE:Distorted Lovers;
#SUBTITLE:;
#ARTIST:HAMA topground;
#TITLETRANSLIT:;
#SUBTITLETRANSLIT:;
#ARTISTTRANSLIT:;
#GENRE:;
#CREDIT:;
#BANNER:Distorted Lovers-bn.png;
#BACKGROUND:Distorted Lovers-bg.png;
#LYRICSPATH:;
#CDTITLE:;
#MUSIC:Distorted Lovers.ogg;
#OFFSET:0.000000;
#SAMPLESTART:79.058998;
#SAMPLELENGTH:20.000000;
#SELECTABLE:YES;
#DISPLAYBPM:170.000000;
#BPMS:0.000000=170.000000
;
#STOPS:
;
#BGCHANGES:;
#KEYSOUNDS:;
#ATTACKS:;

//---------------dance-single - ----------------
#NOTES:
     dance-single:
     :
     Hard:
     14:
     0.719303,0.815033,0.338495,0.710840,0.731996,595.000000,555.000000,40.000000,84.000000,0.000000,0.000000,0.719303,0.815033,0.338495,0.710840,0.731996,595.000000,555.000000,40.000000,84.000000,0.000000,0.000000:
0000
0000
0000
0000
,
0000
0000
0000
0000
,
0000
0000
0000
0000
,
0000
0000
0000
0000
,
0020
0000
0000
2030
0000
0000
3001
0000
0000
0000
0100
0000
0110
0000
0000
0000
,
0002
0000
0000
0203
0000
0000
0310
0000
0000
0000
1000
0000
0001
0000
1000
0000
,
0020
0000
0000
0230
0000
0000
0301
0000
0000
0000
1000
0000
1001
0000
0000
0010
,
1000
0001
1000
0001
0100
0001
0100
0010
0100
0010
1000
0010
,
0100
0000
0001
0000
0010
0100
0010
0000
0001
0000
1000
0000
0001
0000
0100
0000
,
0010
0000
1000
0000
0001
0010
0001
0000
0100
0000
0010
0000
1000
0000
0000
0000
,
0100
0000
0010
0000
0001
0000
0100
0000
0010
0000
1000
0001
0000
1000
0001
0000
,
0020
0000
0000
0031
0000
0000
1000
0100
2000
0000
0000
0000
3001
0000
0000
0000
,
2200
0000
0000
0000
3300
0000
0001
1000
0002
0000
0000
0000
0103
0000
0000
0000
,
0202
0000
0000
0000
0303
0000
0010
1000
0020
0000
0000
0000
0230
0000
0000
0000
,
0301
0010
0100
1000
0010
0001
0010
1000
,
0001
0000
0000
0001
0000
0000
0001
0000
1000
0000
0000
1000
0000
0000
1000
0000
,
1002
0100
2003
3001
,
0201
0000
0320
0100
0100
0100
0100
0130
,
0001
0001
0001
0001
2000
0000
3200
0010
,
0320
0000
0000
0000
0031
0100
0001
0100
0001
0000
1000
0000
0100
0000
0000
0000
,
0110
0000
0000
0000
1010
0000
0000
0000
0100
0000
0100
0000
0100
0000
1000
0001
,
1000
0010
0100
0001
0020
0100
0130
0000
,
0001
0100
2000
0000
3010
0100
0010
1000
,
1100
0000
0000
0110
0000
0000
0011
0000
0000
0000
1000
0000
0001
0000
0100
0000
,
0120
0000
0000
1030
0000
0000
2100
0000
0000
3001
0010
0100
,
2000
0000
3010
0100
0002
1000
1003
0000
,
0010
0000
0010
0000
0010
0000
0010
0000
0010
0000
1000
0001
1000
0000
0100
0000
,
0010
0001
0010
0001
1000
0001
1000
0100
1000
0001
0000
0000
,
0012
0000
0103
0000
2010
0000
3100
0010
,
0002
0000
0000
0100
0000
0000
0203
0000
0000
0000
0000
0000
0310
0000
1000
0000
0001
0000
0100
0000
0000
0000
0000
0000
,
0001
1000
0001
0000
0010
0000
0000
0000
1100
0000
1100
0000
1100
0000
0010
0100
,
0020
0000
0000
0000
0000
0000
0000
0000
0000
2030
0000
0000
0000
0000
0000
0000
0000
0000
3001
0000
0000
0000
0000
0000
0100
0000
0000
0000
0010
0000
0000
0000
1000
0000
0000
0000
0100
0000
0000
0000
0010
0000
0000
0000
0001
0000
0000
0000
,
2000
0000
0000
3020
0000
0000
0230
0000
0000
0000
0000
0000
0302
0000
0000
0000
,
0023
0000
0000
0032
0000
0000
2003
0000
0000
0000
0000
0000
3200
0000
0000
0000
,
2300
0000
0000
3002
0000
0000
0203
0000
0000
0000
0000
0000
0320
0000
0000
0000
,
1030
0010
0001
0010
1000
0100
0010
0001
,
0110
0000
1001
0000
0001
0100
2000
0000
,
3010
1000
0200
0000
0310
0001
1000
1000
,
0001
0000
0100
0000
0001
0000
1000
0000
0100
0000
1000
0000
0010
0000
0000
0010
0000
0000
0010
0000
0000
0010
0000
0000
,
1010
0000
0000
0000
0000
0000
0000
0000
0000
0101
0000
0000
0000
0000
0000
0000
0000
0000
1100
0000
0000
0000
0000
0000
0001
0000
0000
0000
1000
0000
0000
0000
0010
0000
0000
0000
0200
0000
0000
0000
0000
0000
0000
0000
0000
0000
0000
0000
,
0302
0000
0000
2003
0000
0000
3020
0000
0000
0000
0130
0000
0101
0000
0000
0000
,
0002
0000
0000
0023
0000
0000
0230
0000
0000
0000
1300
0000
1010
0000
0000
0000
,
2000
0000
0000
3200
0000
0000
0320
0000
0000
0000
0031
0000
1001
0000
0000
0000
,
0010
0001
0100
0010
0001
0010
1000
0100
,
2000
0000
0000
3002
0000
0000
0203
0000
0000
0000
0310
0000
0110
0000
0000
0000
,
1000
0001
1000
0001
0010
0001
0010
0100
0010
0100
1000
0100
,
2000
0000
0000
3002
0000
0000
0023
0000
0000
0000
0130
0000
1100
0000
0000
0000
,
0001
1000
0010
0100
0001
0010
0100
1000
,
1020
0130
0201
0310
,
1002
0013
1200
1300
,
0201
0301
0210
0310
,
2010
3100
0012
1003
,
0001
0100
0001
0100
0000
0000
0010
1000
0010
1000
0000
0000
,
0001
0010
0001
0010
0000
0000
0100
1000
0100
1000
0000
0000
,
0001
1000
0001
1000
0000
0000
0010
0100
0010
0100
0000
0000
,
0001
0000
0001
0000
0001
0000
0002
0000
0000
0000
0000
0000
,
1003
0000
0000
0001
0010
0001
0010
0000
0000
0001
0100
0001
,
0100
0000
0000
0010
1000
0010
2000
0000
0001
0000
3100
0000
,
1000
0000
0000
0100
0010
0100
0010
0000
0000
0001
0100
0001
,
0100
0000
0000
0001
0010
0100
1000
0001
1000
0001
0100
0010
,
1000
0000
0000
0100
0010
0100
1000
0000
0000
0001
0010
0001
,
0100
0000
0000
0001
1000
0001
1000
0000
1100
0000
0011
0000
,
0100
0000
0000
0010
1000
0001
0100
0000
0000
0001
0010
0100
,
1000
0001
1000
0001
1000
0001
0100
0010
0100
0010
0100
0010
,
1000
0000
0000
0001
0100
0010
1000
0000
0000
0100
0010
0001
,
1000
0000
0000
0001
1000
0001
0020
0000
0230
0000
2300
0000
,
3001
0000
0000
1000
0010
0100
0001
0000
0000
0010
0001
0100
,
0010
0000
0000
1000
0001
0010
0100
0010
0100
1000
0010
0100
,
0001
0000
0000
0010
0001
0100
0010
0000
0000
1000
0100
0010
,
0001
0000
0000
1000
0010
0100
0002
0000
2003
0000
3020
0000
,
1030
0000
0000
0100
1000
0001
0010
0000
0000
0100
1000
0001
,
0010
0001
0100
0010
1000
0100
0010
0001
0100
0010
1000
0100
,
0010
0000
0001
1000
0000
1000
0100
0000
0010
0000
0001
0000
1000
0000
0010
0000
,
0100
0000
0010
1000
0000
1000
0001
0000
1000
0000
0100
0000
0010
0000
0001
0000
,
0100
0000
0010
1000
0000
0001
0010
0000
0100
0000
1000
0000
0010
0000
0100
0000
,
0001
0000
0010
0001
0000
1000
0001
0000
1000
0000
0010
0000
0100
0000
1000
0000
,
0100
0000
0001
0010
0000
0100
0010
0000
0001
0000
1000
0000
0100
0000
0001
0000
,
0100
0000
1000
0010
0000
0001
0010
0000
0100
0000
0001
0000
1000
0000
0010
0000
,
0001
0000
0010
0100
0000
0100
0001
0000
1000
0000
0001
0000
0010
0000
0100
0000
,
1000
0000
0100
0010
0000
0010
0100
0000
1000
0000
0001
0000
1000
0000
0010
0000
,
2002
0000
0000
0000
,
0000
0000
0000
3003
,
0220
0000
0000
0000
,
0000
0000
0000
0330
;

//---------------dance-single - ----------------
#NOTES:
     dance-single:
     :
     Medium:
     11:
     0.540384,0.637852,0.524668,0.524668,0.148092,447.000000,385.000000,62.000000,62.000000,0.000000,0.000000,0.540384,0.637852,0.524668,0.524668,0.148092,447.000000,385.000000,62.000000,62.000000,0.000000,0.000000:
0000
0000
0000
0000
,
0000
0000
0000
0000
,
0000
0000
0000
0000
,
0000
0000
0000
0000
,
0010
0000
0000
1000
0000
0000
0100
0000
0000
0000
0000
0000
0110
0000
0000
0000
,
0010
0000
0000
0001
0000
0000
1000
0000
0000
0000
0000
0000
1001
0000
0000
0000
,
0010
0000
0000
0100
0000
0000
0001
0000
0000
0000
0000
0000
0011
0000
0000
0000
,
1000
0100
0010
0001
0100
0010
1000
0001
,
0010
0000
0001
0100
0000
0001
1000
0100
,
0010
0000
0100
1000
0000
0001
0200
0000
,
0310
0000
0100
0000
0001
0000
0000
0000
1000
0000
0000
0001
0000
0000
0100
0000
,
0002
0000
0003
1000
0010
0000
1100
0000
,
2000
0000
3000
0010
0100
0000
0101
0000
,
0020
0000
0030
1000
0001
0000
1010
0000
,
1000
0100
0010
0001
1000
0010
0100
0001
,
0010
1001
0100
0110
,
0102
2003
3200
0320
,
0032
0000
1003
0001
0010
0100
0010
0100
,
1000
0001
1000
0001
0020
0000
0230
0000
,
2300
0000
3001
0100
0010
1000
0002
0000
,
0023
0000
0032
0000
1003
0001
1000
0001
,
0010
0100
1000
0001
0200
0000
0300
0000
,
0001
0100
1000
0000
1010
0000
0011
0000
,
2000
0000
0000
3002
0000
0000
0023
0000
0000
0000
0130
0000
1100
0000
0000
0000
,
0002
0000
1003
0000
0210
0000
0301
0010
,
0200
0000
1300
0001
0010
0001
0100
0000
,
0001
1000
0001
1000
0001
0000
1010
0000
,
1000
0100
0010
0001
0100
0010
1000
0000
,
0001
0100
1000
0000
0010
1000
0001
0000
,
0010
0100
1000
0000
0001
1000
0010
0000
,
1000
0001
1000
0000
0010
0100
0010
0000
,
2000
0000
0000
3002
0000
0000
0013
0000
0001
0000
0100
0000
1000
0000
0000
0000
,
1002
0000
0000
0203
0000
0000
0310
0000
,
2010
0000
0000
3002
0000
0000
0013
0000
,
0021
0000
0000
0032
0000
0000
0103
0000
,
0001
0010
1000
0000
0001
0100
1000
0000
,
2100
0000
3020
0000
1030
0100
0002
0000
,
0013
0001
0200
0000
0320
0000
1030
0001
,
1000
0010
0100
0001
0010
0100
1000
0001
,
1000
0000
0000
0100
0000
0000
0001
0000
0010
0000
0100
0000
2000
0000
0000
0000
,
3001
0000
0000
0010
0000
0000
0100
0000
0000
0000
0000
0000
1100
0000
0000
0000
,
1000
0000
0000
0001
0000
0000
0010
0000
0000
0000
0000
0000
1001
0000
0000
0000
,
0100
0000
0000
0010
0000
0000
1000
0000
0000
0000
0000
0000
0101
0000
0000
0000
,
0001
0000
0000
0010
0000
0000
0100
0000
0000
0000
0000
0000
0110
0000
0000
0000
,
1000
0000
0000
0010
0000
0000
0001
0000
0000
0000
0000
0000
0011
0000
0000
0000
,
0010
0000
0000
0100
0000
0000
1000
0000
0000
0000
0000
0000
1010
0000
0000
0000
,
0001
0000
0000
1000
0000
0000
0001
0000
0000
0000
0000
0000
1010
0000
0000
0000
,
0100
0000
0000
0010
0000
0000
0001
0000
0000
0000
0000
0000
0110
0000
0000
0000
,
2000
3100
0020
0031
,
0200
0310
2000
3001
,
0200
0301
0020
1030
,
0001
1000
0010
0100
0001
0010
0100
1000
,
1100
1100
0011
0011
,
0101
0101
1010
1010
,
1001
1001
0110
0110
,
0001
0000
0001
0000
0001
0000
0002
0000
0000
0000
0000
0000
,
0013
0011
1000
1100
,
0001
0000
0000
0101
0000
0000
2000
0000
3020
0000
0230
0000
,
0301
1001
0010
1010
,
1000
0110
0002
2003
,
3100
0011
0001
0101
,
0010
0000
0000
1001
0000
0000
1000
0000
0001
0000
0010
0000
,
0100
1100
0001
1001
,
0010
0000
1000
0200
0000
0000
0310
0000
0001
0200
0000
0000
,
0310
0011
1000
1100
,
0010
0000
0000
0110
0000
0000
0002
0000
2003
0000
3002
0000
,
0013
1100
0100
0110
,
0001
1001
0200
0320
,
1030
1100
0001
0011
,
0100
0000
0000
0110
0000
0000
2000
0000
3002
0000
2003
0000
,
3100
0011
0001
1001
,
1000
0010
0100
0001
0010
0100
1000
0001
,
0100
0000
0000
0010
0000
0000
1000
0000
0100
0000
0010
0000
0001
0000
0000
0000
,
0010
0000
0000
0001
0000
0000
1000
0000
0010
0000
0100
0000
0001
0000
0000
0000
,
1000
0000
0000
0001
0000
0000
0010
0000
0001
0000
0100
0000
1000
0000
0000
0000
,
0010
0000
0000
1000
0000
0000
0100
0000
1000
0000
0001
0000
0010
0000
0000
0000
,
0100
0000
0000
0010
0000
0000
0001
0000
1000
0000
0010
0000
0100
0000
0000
0000
,
0001
0000
0000
1000
0000
0000
0001
0000
0100
0000
0010
0000
1000
0000
0000
0000
,
0001
0000
0000
1000
0000
0000
0001
0000
0010
0000
0100
0000
0010
0000
0000
0000
,
0001
0000
0000
0010
0000
0000
1000
0000
0100
0000
0010
0000
0100
0000
0000
0000
,
2002
0000
0000
0000
,
0000
0000
0000
3003
,
0220
0000
0000
0000
,
0000
0000
0000
0330
;

//---------------dance-single - ----------------
#NOTES:
     dance-single:
     :
     Easy:
     7:
     0.369927,0.531544,0.321571,0.524668,0.000000,306.000000,268.000000,38.000000,62.000000,0.000000,0.000000,0.369927,0.531544,0.321571,0.524668,0.000000,306.000000,268.000000,38.000000,62.000000,0.000000,0.000000:
0000
0000
0000
0000
,
0000
0000
0000
0000
,
0000
0000
0000
0000
,
0000
0000
0000
0000
,
0010
1000
0100
0001
,
0010
0100
1000
0001
,
0100
0010
1000
0001
,
0010
0100
1000
0001
,
0010
0001
0100
0010
,
1000
0001
1000
0100
,
0010
0100
1000
0010
,
0220
0330
1000
0001
,
0022
0033
0001
1000
,
2200
3300
0010
0100
,
0001
0100
0010
1000
,
2002
0000
0000
3003
,
1100
0101
0020
2030
,
3002
0010
0010
0013
,
0001
0100
0020
2030
,
3200
0310
0001
1000
,
1001
0110
0001
1000
,
0001
0010
0200
0000
,
2300
3002
2003
3100
,
2020
3000
0001
1030
,
1001
0100
0201
0310
,
0120
1030
0002
0103
,
0001
0001
0001
1100
,
0002
0023
0230
2300
,
3020
0130
2010
3100
,
0011
1100
0001
0020
,
0031
0110
1000
0100
,
0022
0003
1000
0031
,
2000
0000
3001
0000
,
0020
0000
0130
0000
,
2000
0000
3010
0000
,
0100
0001
1000
0100
,
2001
3001
0020
0230
,
2300
3002
2003
3010
,
0110
1001
1100
0011
,
0100
0100
0101
1100
,
0002
0000
0013
0000
,
0200
0000
1300
0000
,
0020
0000
0130
0000
,
0002
0000
1003
0000
,
0200
0000
0310
0000
,
2000
0000
3100
0000
,
0002
0000
0013
0000
,
1000
0001
1000
0001
,
2001
0000
3020
0000
,
2030
0000
3200
0000
,
0320
0000
0032
0000
,
0203
0000
0320
0000
,
1030
0100
1000
0100
,
0010
0001
0010
0001
,
1000
0100
0010
0001
,
1001
0110
2002
3003
,
0001
0010
0001
0100
,
0010
1000
0100
0100
,
0010
0001
1000
0001
,
1000
0010
0100
0001
,
0010
0100
1000
0010
,
1000
0001
0010
0010
,
0001
0100
0010
1000
,
0100
0100
1000
1000
,
0010
1000
0001
0010
,
0001
0100
1000
1000
,
0010
1000
0100
1000
,
0010
0100
0001
0010
,
0001
0100
0010
1000
,
0100
0010
0001
0001
,
0010
0001
0100
1000
,
0001
0001
1000
1000
,
0010
1000
0100
0011
,
0001
0100
0010
1010
,
1000
0001
1000
1100
,
0010
0100
0001
0011
,
0100
0010
1000
1100
,
0010
1000
0001
1001
,
0100
0010
0100
1010
,
1000
0100
0001
0010
,
2002
0000
0000
0000
,
0000
0000
0000
3003
,
0220
0000
0000
0000
,
0000
0000
0000
0330
;

//---------------dance-single - ----------------
#NOTES:
     dance-single:
     :
     Beginner:
     5:
     0.177710,0.346958,0.194635,0.000000,0.000000,147.000000,124.000000,23.000000,0.000000,0.000000,0.000000,0.177710,0.346958,0.194635,0.000000,0.000000,147.000000,124.000000,23.000000,0.000000,0.000000,0.000000:
// measure 0
0000
0000
0000
0000
,  // measure 1
0000
0000
0000
0000
,  // measure 2
0000
0000
0000
0000
,  // measure 3
0000
0000
0000
0000
,  // measure 4
0010
0000
0000
0000
,  // measure 5
0010
0000
0000
0000
,  // measure 6
0010
0000
0000
0000
,  // measure 7
0110
0000
1001
0000
,  // measure 8
0001
0000
1000
0000
,  // measure 9
0010
0000
0100
0000
,  // measure 10
0001
0000
0010
0000
,  // measure 11
0100
0000
1000
0000
,  // measure 12
0010
0000
0100
0000
,  // measure 13
0001
0000
1000
0000
,  // measure 14
0100
0000
0010
0000
,  // measure 15
1001
0000
0000
0000
,  // measure 16
0001
0000
1000
0000
,  // measure 17
0110
0000
0000
0000
,  // measure 18
0001
0000
0010
0000
,  // measure 19
1000
0000
1000
0000
,  // measure 20
0100
0000
0010
0000
,  // measure 21
0100
0000
1000
0000
,  // measure 22
0010
0000
0100
0000
,  // measure 23
1001
0000
0000
0000
,  // measure 24
0001
0000
0010
0000
,  // measure 25
0001
0000
1000
0000
,  // measure 26
0100
0000
0010
0000
,  // measure 27
0110
0000
1001
0000
,  // measure 28
0010
0000
1000
0000
,  // measure 29
0100
0000
0010
0000
,  // measure 30
0100
0000
1000
0000
,  // measure 31
0001
0000
0110
0000
,  // measure 32
1001
0000
0000
0000
,  // measure 33
0001
0000
0000
0000
,  // measure 34
1000
0000
0000
0000
,  // measure 35
0100
0000
0100
0000
,  // measure 36
0110
0000
0100
0000
,  // measure 37
1000
0000
0001
0000
,  // measure 38
0010
0010
0010
0010
,  // measure 39
0000
0000
1001
0000
,  // measure 40
0100
0000
0000
0000
,  // measure 41
0010
0000
0000
0000
,  // measure 42
0001
0000
0000
0000
,  // measure 43
1000
0000
0000
0000
,  // measure 44
0001
0000
0000
0000
,  // measure 45
0100
0000
0000
0000
,  // measure 46
1000
0000
0000
0000
,  // measure 47
0010
0000
0100
0000
,  // measure 48
1001
0000
0000
0000
,  // measure 49
0010
0000
0000
0000
,  // measure 50
1000
0000
0000
0000
,  // measure 51
0001
0000
0000
0000
,  // measure 52
0110
0000
0110
0000
,  // measure 53
1001
0000
1001
0000
,  // measure 54
0110
0000
1001
0000
,  // measure 55
1001
0000
0110
0000
,  // measure 56
0001
0000
0000
0000
,  // measure 57
1000
0000
0000
0000
,  // measure 58
0010
0000
0000
0000
,  // measure 59
0100
0000
0000
0000
,  // measure 60
0001
0000
0000
0000
,  // measure 61
0010
0000
0000
0000
,  // measure 62
0100
0000
0000
0000
,  // measure 63
1000
0000
0000
0000
,  // measure 64
0001
0000
0001
0000
,  // measure 65
0001
0000
0000
0000
,  // measure 66
0100
0000
0100
0000
,  // measure 67
0100
0000
0000
0000
,  // measure 68
0010
0000
0010
0000
,  // measure 69
0010
0000
0000
0000
,  // measure 70
1000
0000
1000
0000
,  // measure 71
1000
0000
1001
0000
,  // measure 72
0010
0000
0010
0000
,  // measure 73
1000
0000
1000
0000
,  // measure 74
0100
0000
0100
0000
,  // measure 75
0001
0000
0001
0000
,  // measure 76
1000
0000
1000
0000
,  // measure 77
0010
0000
0010
0000
,  // measure 78
0100
0000
0100
0000
,  // measure 79
0001
0000
0001
0000
,  // measure 80
1001
0000
0000
0000
,  // measure 81
0000
0000
0000
0000
,  // measure 82
0110
0000
0000
0000
;
