#VERSION:0.83;
#TITLE:Disabled the FLAW;
#SUBTITLE:(ANOTHER version);
#ARTIST:D-crew;
#TITLETRANSLIT:;
#SUBTITLETRANSLIT:;
#ARTISTTRANSLIT:;
#GENRE:;
#ORIGIN:;
#CREDIT:;
#BANNER:Disabled the FLAW (ANOTHER version)-bn.png;
#BACKGROUND:Disabled the FLAW (ANOTHER version)-bg.png;
#PREVIEWVID:;
#JACKET:Disabled the FLAW (ANOTHER version)-jacket.png;
#CDIMAGE:;
#DISCIMAGE:;
#LYRICSPATH:;
#CDTITLE:;
#MUSIC:Disabled the FLAW (ANOTHER version).ogg;
#OFFSET:0.000000;
#SAMPLESTART:19.900999;
#SAMPLELENGTH:20.000000;
#SELECTABLE:YES;
#DISPLAYBPM:135.000000:195.000000;
#BPMS:0.000=171.000,
52.000=145.161,
56.000=171.000,
192.000=135.000,
208.000=195.000;
#STOPS:;
#DELAYS:;
#WARPS:;
#TIMESIGNATURES:0.000=4=4;
#TICKCOUNTS:0.000=4;
#COMBOS:0.000=1;
#SPEEDS:0.000=1.000=0.000=0;
#SCROLLS:0.000=1.000;
#FAKES:;
#LABELS:0.000=Song Start;
#BGCHANGES:;
#KEYSOUNDS:;
#ATTACKS:
;

//---------------dance-single - ----------------
#NOTEDATA:;
#CHARTNAME:;
#STEPSTYPE:dance-single;
#DESCRIPTION:;
#CHARTSTYLE:;
#DIFFICULTY:Hard;
#METER:13;
#RADARVALUES:0.679829,0.656454,0.312907,0.182529,0.104302,365.000000,341.000000,24.000000,14.000000,0.000000,0.000000,0.000000,0.000000,0.000000,0.679829,0.656454,0.312907,0.182529,0.104302,365.000000,341.000000,24.000000,14.000000,0.000000,0.000000,0.000000,0.000000,0.000000;
#CREDIT:;
#DISPLAYBPM:135.000000:195.000000;
#NOTES:
0000
0000
0000
0000
,
0000
0000
0000
0000
,
0000
0000
0000
0000
,
0000
0000
0000
0000
,
2010
0001
3001
0000
0102
1000
1003
0000
,
0021
0100
0130
0000
1200
0010
0310
0000
,
0110
1000
0001
0000
1001
0010
0100
0000
,
0001
0000
0001
0000
0001
0000
0000
0010
0100
0000
1000
0000
0010
0000
1000
0000
,
0100
0000
0100
0000
0100
0000
0000
0001
1000
0000
0010
0000
1000
0000
0001
0000
,
0010
0000
0010
0000
0010
0000
0000
0001
1000
0000
0100
0000
1000
0000
0001
0000
,
1000
0000
1000
0000
1000
0000
0010
0000
0100
0000
0001
0000
0010
0100
0010
0000
,
0001
0000
0001
0000
0001
0000
0000
0010
0001
0000
0100
0000
0010
0000
1000
0000
,
0100
0000
0100
0000
0100
0000
0000
1000
0010
0000
1000
0000
0001
0000
0010
0000
,
0202
0000
0000
0303
,
1100
0010
0100
1000
0010
0100
0001
1000
,
0100
0010
0001
0100
0001
0010
0100
1000
,
0010
0100
0010
1000
0100
0010
0001
1000
,
0001
0010
0001
1000
0010
0100
0001
1000
,
0100
0010
0100
0001
0100
1000
0010
0100
,
0010
0001
0010
1000
0001
0010
0100
0001
,
0100
0010
0100
1000
0010
0001
0010
0100
,
0010
1000
0100
0001
0100
0010
0001
1000
,
0010
0000
1010
0000
0001
0101
0000
1000
,
0010
1100
0000
0001
1001
0000
0100
0010
,
1000
0000
0011
0000
0100
1010
0000
0001
,
0110
1000
0010
0100
0001
0010
0001
1000
,
0100
1000
0010
0100
0001
0011
0000
1000
,
0100
1001
0000
0010
0101
0001
1000
0100
,
1000
0001
0010
0100
1000
1010
0000
0001
,
1000
0100
0011
0000
0001
0100
1000
0000
,
2001
0000
0010
3020
0000
0230
0000
0301
,
0012
0000
1003
0001
0010
0100
1000
0010
,
0200
0000
0301
2000
0000
0001
3001
0100
,
0010
0100
0010
1000
0100
0001
0100
1000
,
0010
0100
1000
0100
0010
0100
0010
1000
,
0010
0001
0010
0100
0010
0001
0010
1000
,
0100
1000
0100
0010
0100
0001
0100
1000
,
0010
1000
0010
0001
0010
0100
0001
0010
,
1000
0000
0100
0000
0010
0000
0001
0000
0100
0000
0010
1000
0010
0000
0100
0000
,
0001
0000
0010
0000
0100
0000
0010
0000
0100
0000
1000
0001
1000
0000
0010
0000
,
0001
0000
0010
0000
0100
0000
0010
0000
1000
0000
0100
0010
0100
0000
1000
0000
,
0001
0000
1000
0000
0010
0000
1000
0000
0100
0000
0010
0001
0010
0000
1000
0000
,
0010
0000
0001
0000
1000
0000
0010
0000
0100
0000
0001
1000
0001
0000
1000
0000
,
0100
0000
0001
0000
0100
0000
0010
0000
0100
0000
1000
0001
1000
0000
0010
0000
,
0100
0010
1000
0100
0010
0100
0010
0001
,
1000
0000
0010
0000
0001
0000
0010
0000
1000
0000
0100
0000
1000
0001
1000
0000
,
0010
0000
0010
0000
0010
0000
0000
0100
0001
0000
1000
0000
0001
0000
0100
0000
,
1000
0000
1000
0000
1000
0000
0000
0001
0010
0000
0100
0000
0010
0000
0001
0000
,
1000
0010
0100
0000
0000
0000
0220
0000
0000
0000
0000
0000
0000
0000
0000
0000
,
0000
0000
0000
0000
,
0330
0000
0000
0000
,
0000
0000
0000
0000
,
0001
0010
1000
0010
0001
0010
1000
0010
,
0101
0000
0000
0000
;

//---------------dance-single - ----------------
#NOTEDATA:;
#CHARTNAME:;
#STEPSTYPE:dance-single;
#DESCRIPTION:;
#CHARTSTYLE:;
#DIFFICULTY:Medium;
#METER:10;
#RADARVALUES:0.556901,0.552803,0.352021,0.130378,0.006519,299.000000,272.000000,27.000000,10.000000,0.000000,0.000000,0.000000,0.000000,0.000000,0.556901,0.552803,0.352021,0.130378,0.006519,299.000000,272.000000,27.000000,10.000000,0.000000,0.000000,0.000000,0.000000,0.000000;
#CREDIT:;
#DISPLAYBPM:135.000000:195.000000;
#NOTES:
0000
0000
0000
0000
,
0000
0000
0000
0000
,
0000
0000
0000
0000
,
0000
0000
0000
0000
,
0120
1030
2100
3001
,
0102
0103
1200
0310
,
0011
1100
1001
0110
,
0001
0010
0001
0000
1000
0010
1000
0100
,
0010
0001
0010
0000
0001
1000
0100
1000
,
0010
0100
0001
0000
0010
0100
1000
0000
,
0001
1000
0010
0100
0001
0010
0100
1000
,
0010
0100
0010
0000
1000
0001
1000
0100
,
1000
0001
1000
0000
0010
0100
0010
0200
,
0002
0000
0000
0303
,
0001
0010
0001
1000
0010
0100
0001
0000
,
0010
0100
0010
0001
1000
0001
0100
0000
,
0001
0010
0001
0000
1000
0010
1000
0000
,
0100
1000
0100
0010
0001
1000
0010
0000
,
1000
0010
0100
0001
0010
0100
1000
0000
,
0001
1000
0010
0100
0010
1000
0100
0000
,
1000
0001
0100
0000
0001
1000
0100
0000
,
1000
0001
0100
0001
0010
0100
1000
0010
,
0100
0000
0110
0000
0000
0101
0000
0000
,
0000
1001
0000
0000
1100
0000
0000
0000
,
0010
0000
1001
0000
0000
0011
0000
0000
,
1100
0000
0001
0000
0000
0101
0000
0000
,
1000
0000
1100
0000
0000
0011
0000
0110
,
0000
1100
0000
0000
1001
0000
0000
0000
,
0011
0000
0101
0000
0000
1100
0000
0110
,
0000
0001
1000
0010
0000
1000
0001
0000
,
0200
0000
0310
1000
0000
0101
0000
0001
,
1000
0000
1000
0001
0010
0100
1000
0001
,
0200
0000
0301
1000
0000
1000
0100
0010
,
0001
0100
0001
0000
1000
0100
1000
0000
,
0010
1000
0100
0010
0001
1000
0001
0000
,
0010
0001
0100
0010
0100
0001
1000
0000
,
0100
1000
0001
0010
0100
0010
0001
0000
,
1000
0010
1000
0001
0010
0100
1000
0000
,
0010
0100
0001
0010
0100
1000
0001
0100
,
0001
0010
0100
1000
0010
0100
0001
0000
,
0010
0100
1000
0001
0100
0001
1000
0010
,
0100
0001
0010
0100
1000
0001
0100
0000
,
0010
0100
0001
1000
0100
0010
0100
0010
,
0001
0100
0001
1000
0100
0010
0001
0000
,
0100
0001
0010
0100
1000
0001
1000
0010
,
1000
0001
0010
0100
1000
0010
0100
0000
,
0001
1000
0001
0000
0010
0100
1000
0010
,
0100
0010
0100
0000
0001
0010
0001
1000
,
0010
0200
0020
0000
0000
0000
0000
0000
0000
0000
0000
0000
0000
0000
0000
0000
,
0000
0000
0000
0000
,
0330
0000
0000
0000
,
0000
0000
0000
0000
,
0001
0100
1000
0000
0001
0100
1000
0000
,
1001
0000
0000
0000
;

//---------------dance-single - ----------------
#NOTEDATA:;
#CHARTNAME:;
#STEPSTYPE:dance-single;
#DESCRIPTION:;
#CHARTSTYLE:;
#DIFFICULTY:Easy;
#METER:7;
#RADARVALUES:0.365059,0.414602,0.104302,0.208605,0.000000,196.000000,188.000000,8.000000,16.000000,0.000000,0.000000,0.000000,0.000000,0.000000,0.365059,0.414602,0.104302,0.208605,0.000000,196.000000,188.000000,8.000000,16.000000,0.000000,0.000000,0.000000,0.000000,0.000000;
#CREDIT:;
#DISPLAYBPM:135.000000:195.000000;
#NOTES:
0000
0000
0000
0000
,
0000
0000
0000
0000
,
0000
0000
0000
0000
,
0000
0000
0000
0000
,
2002
3003
0202
0303
,
2020
3030
0220
0330
,
0002
0023
0230
2300
,
3010
0100
0010
0000
1000
0000
0001
0000
,
0100
0010
0100
0000
0001
0000
1000
0000
,
0100
1000
0100
0000
0010
0000
0001
0000
,
0100
0001
0100
0000
0010
0000
1000
0000
,
0001
1000
0001
0000
0010
0000
0100
0000
,
1000
0010
1000
0000
0001
0000
0100
0000
,
0220
0000
0000
0330
,
1000
0010
0100
0001
,
0010
0100
1000
0010
,
0100
0010
1000
0100
,
0010
0001
0100
0001
,
0010
0100
0010
0001
,
1000
0010
1000
0100
,
1000
0001
0010
0100
,
0010
0000
0001
0000
0100
0000
1000
0010
,
0000
0000
1000
0000
0000
0001
0000
0000
,
0000
0010
0000
0000
0100
0000
0000
0000
,
0000
0000
1000
0000
0000
0010
0000
0000
,
0100
0000
0000
0000
0000
0001
0000
1000
,
0001
0000
0100
0000
0000
0010
0000
1000
,
0000
0100
0000
0000
1000
0000
0000
0000
,
0001
0000
0100
0000
0000
0010
0000
1000
,
0000
0001
1000
0000
0000
0010
0100
0000
,
1001
0001
1000
0100
,
1000
0000
0010
0000
0100
0001
0100
0000
,
0001
0010
0100
1000
,
0010
0000
0100
0000
0001
1000
0001
0000
,
0010
0001
1000
0010
,
0100
0000
0001
0000
1000
0100
1000
0000
,
0100
0010
0001
0100
,
0010
0000
1000
0000
0001
1000
0001
0000
,
1000
0100
1000
0000
0010
0000
0100
0000
,
0001
0000
0010
0000
0001
1000
0001
0000
,
0010
0001
0010
0000
0001
0000
1000
0000
,
0100
0000
0010
0000
0100
1000
0100
0000
,
1000
0001
1000
0000
0001
0000
0100
0000
,
0010
0000
0100
0000
0001
0010
0001
0000
,
0010
0100
0010
0000
0100
0000
1000
0000
,
0001
0000
1000
0000
0001
0100
0001
0000
,
1000
0001
1000
0000
0100
0000
0010
0000
,
0001
0100
0001
0000
1000
0000
0010
0000
,
1000
2002
0000
0000
0000
0000
0000
0000
,
0000
0000
0000
0000
,
3003
0000
0000
0000
,
0000
0000
0000
0000
,
0001
1000
0001
1000
,
0011
0000
0000
0000
;

//---------------dance-single - ----------------
#NOTEDATA:;
#CHARTNAME:;
#STEPSTYPE:dance-single;
#DESCRIPTION:;
#CHARTSTYLE:;
#DIFFICULTY:Beginner;
#METER:3;
#RADARVALUES:0.206742,0.276402,0.091265,0.000000,0.000000,111.000000,104.000000,7.000000,0.000000,0.000000,0.000000,0.000000,0.000000,0.000000,0.206742,0.276402,0.091265,0.000000,0.000000,111.000000,104.000000,7.000000,0.000000,0.000000,0.000000,0.000000,0.000000,0.000000;
#CREDIT:;
#DISPLAYBPM:135.000000:195.000000;
#NOTES:
0000
0000
0000
0000
,
0000
0000
0000
0000
,
0000
0000
0000
0000
,
0000
0000
0000
0000
,
0010
0000
0100
0000
,
0001
0000
1000
0000
,
0010
0010
0010
0010
,
0010
0000
1000
0000
,
0100
0000
0010
0000
,
0001
0000
0100
0000
,
0001
0000
1000
0000
,
0010
0010
0010
0000
,
0100
0100
0100
0000
,
1001
0000
0000
0000
,
0001
0001
0001
0000
,
1000
1000
1000
0000
,
0010
0000
0100
0000
,
0010
0010
0010
0000
,
0100
0100
0100
0000
,
0001
0001
0001
0000
,
1000
0000
0010
0000
,
1000
1000
1000
0000
,
0000
0110
0000
0000
,
0100
0000
0001
0000
,
0000
1001
0000
0000
,
1000
0000
0000
0100
,
0000
1001
0000
0000
,
0001
0000
0010
0000
,
0000
0110
0000
0000
,
0000
1000
0000
0010
,
0000
0100
0000
0000
,
0001
0000
1000
0000
,
0010
0000
0100
0000
,
0001
0000
1000
0000
,
0100
0000
0100
0000
,
1000
0000
0001
0000
,
0010
0000
0010
0000
,
0001
0000
1000
0000
,
0010
0010
0010
0000
,
1000
0000
0100
0000
,
0010
0010
0010
0000
,
0001
0000
1000
0000
,
0001
0001
0001
0000
,
1000
1000
1000
0000
,
0010
0010
0010
0000
,
0100
0100
0100
0000
,
0001
0001
0001
0000
,
1000
1000
1000
0000
,
0110
0000
0000
0000
,
0000
0000
0000
0000
,
0000
0000
0000
0000
,
0000
0000
0000
0000
,
0001
0000
0001
0000
,
1001
0000
0000
0000
;

//---------------dance-single - ----------------
#NOTEDATA:;
#CHARTNAME:;
#STEPSTYPE:dance-single;
#DESCRIPTION:;
#CHARTSTYLE:;
#DIFFICULTY:Challenge;
#METER:17;
#RADARVALUES:0.977836,1.036506,0.456323,0.039113,0.938722,525.000000,490.000000,35.000000,3.000000,0.000000,0.000000,0.000000,0.000000,0.000000,0.977836,1.036506,0.456323,0.039113,0.938722,525.000000,490.000000,35.000000,3.000000,0.000000,0.000000,0.000000,0.000000,0.000000;
#CREDIT:;
#DISPLAYBPM:135.000000:195.000000;
#NOTES:
// measure 0
0000
0000
0000
0000
,  // measure 1
0000
0000
0000
0000
,  // measure 2
0000
0000
0000
0000
,  // measure 3
0000
0000
0000
0000
,  // measure 4
0101
0001
1000
0100
0110
0010
0001
1000
,  // measure 5
1010
1000
0100
0010
0011
0001
0100
0010
,  // measure 6
1000
0100
1000
0000
0001
0100
0001
0000
1000
0010
1000
0000
0001
0010
0001
0000
,  // measure 7
1000
0000
1000
0000
1000
0000
0000
0001
0010
0001
0100
0010
0100
0001
0010
0000
,  // measure 8
0001
0000
0001
0000
0001
0000
0010
0100
1000
0010
0100
0010
1000
0100
1000
0000
,  // measure 9
0001
0010
0100
0010
0001
0000
0100
0010
1000
0100
1000
0001
1000
0001
0100
0000
,  // measure 10
0001
0010
0001
0010
0100
1000
0100
1000
0010
0100
0001
0000
0010
0100
1000
0000
,  // measure 11
0010
0000
0010
0000
0010
1000
0000
0001
0100
0000
0010
1000
0100
0000
1000
0001
,  // measure 12
0100
0000
0100
0000
0100
0010
0000
1000
0001
0000
1000
0001
0010
0000
0100
1000
,  // measure 13
0002
0100
0010
1003
,  // measure 14
0001
0000
0010
0100
1000
0000
0010
0100
0001
1000
0001
0010
0100
0000
1000
0000
,  // measure 15
0010
0000
0100
0001
1000
0000
0001
1000
0010
0100
0001
0010
0100
0000
1000
0000
,  // measure 16
0100
0000
0010
0001
1000
0000
0010
0100
0001
1000
0001
0000
1000
0010
0100
0000
,  // measure 17
0001
0000
1000
0100
0010
0000
0100
0010
0001
1000
0001
0010
0100
0000
1000
0000
,  // measure 18
0010
0000
1000
0001
0010
0000
0100
1000
0100
0010
0100
1000
0001
0010
0001
0000
,  // measure 19
0010
0000
0001
0100
0010
0000
0100
0001
1000
0100
1000
0010
1000
0001
0100
0000
,  // measure 20
0010
0000
0001
0100
0001
0000
0010
0100
1000
0001
1000
0010
1000
0100
1000
0000
,  // measure 21
0010
0000
0100
0001
0010
0000
0100
1000
0001
1000
0010
0100
0001
0010
0100
1000
,  // measure 22
0010
0000
0101
0001
1000
1100
0100
0010
,  // measure 23
0001
1001
1000
0010
0110
0100
0001
1000
,  // measure 24
0010
0000
1001
1000
0001
0011
0010
0100
,  // measure 25
1100
1000
0010
0100
0001
0101
0100
0110
,  // measure 26
1010
0000
1100
1000
0001
0101
0100
0110
,  // measure 27
0010
1010
1000
0001
0011
0010
0100
1000
,  // measure 28
1001
0000
0110
0010
1000
1100
0100
0110
,  // measure 29
0010
0011
1001
1000
0100
1100
0110
0010
,  // measure 30
0011
0000
1100
0101
0000
0001
1000
0100
,  // measure 31
0110
0000
0000
0000
0001
0010
0001
0000
1000
0010
1000
0000
0100
0010
0100
0000
,  // measure 32
1100
0000
0011
1010
0000
0001
1000
0010
,  // measure 33
0100
0000
0001
0000
0010
0000
0100
0000
1000
0010
1000
0000
0100
0010
0001
0000
,  // measure 34
0010
0000
1000
0000
0010
0000
0001
0000
0100
0010
1000
0000
0010
0100
0001
0000
,  // measure 35
0010
0000
1000
0000
0010
0000
0100
0000
0010
0001
1000
0000
0001
1000
0100
0000
,  // measure 36
0001
0000
0100
0000
0010
0000
0100
0000
1000
0010
0100
0000
0001
1000
0001
0000
,  // measure 37
0010
0000
1000
0000
0010
0000
0001
0000
0100
0010
0001
0000
1000
0100
0001
0000
,  // measure 38
1000
0010
0100
0000
0001
0000
0010
0100
1000
0000
0010
0100
0001
1000
0100
0000
,  // measure 39
1000
0000
0001
0000
0010
0100
1000
0000
0010
0100
0001
0010
0100
1000
0001
0000
,  // measure 40
0100
0000
0001
0000
0010
0100
1000
0000
0010
1000
0100
1000
0001
0010
0001
0000
,  // measure 41
1000
0000
0001
0010
0100
1000
0010
0000
0100
0001
0100
0001
0010
0100
1000
0000
,  // measure 42
0010
0000
1000
0100
0010
0001
0100
0000
0001
0010
0100
0010
0001
1000
0001
0000
,  // measure 43
0100
0010
1000
0010
0100
0001
1000
0000
0010
1000
0100
0010
0001
0100
0001
0000
,  // measure 44
1000
0010
1000
0010
0100
0010
0100
0001
0010
0100
1000
0000
0001
0100
0010
0000
,  // measure 45
1000
0001
1000
0001
0010
0100
0010
0100
1000
0010
1000
0010
0100
0001
1000
0000
,  // measure 46
0010
0000
0010
0000
0010
1000
0000
0001
0100
0001
1000
0100
1000
0001
1000
0100
,  // measure 47
1000
0000
1000
0000
1000
0001
0000
0100
0001
0010
0001
0100
0010
0100
0001
0010
,  // measure 48
0001
0001
0001
0000
0000
0000
2200
0000
0000
0000
0000
0000
0000
0000
0000
0000
,  // measure 49
0000
0000
0000
0000
,  // measure 50
3300
0000
0000
0000
,  // measure 51
0000
0000
0000
0000
,  // measure 52
0001
0010
0100
1000
0001
0100
0010
1000
0001
0010
0100
1000
0001
0100
0010
1000
,  // measure 53
0001
0000
0000
0000
;
