#TITLE:Dip It Low;
#SUBTITLE:;
#ARTIST:Christina Milian;
#TITLETRANSLIT:;
#SUBTITLETRANSLIT:;
#ARTISTTRANSLIT:;
#GENRE:;
#CREDIT:;
#BANNER:Dip It Low-bn.png;
#BACKGROUND:Dip It Low-bg.png;
#LYRICSPATH:;
#CDTITLE:;
#MUSIC:Dip It Low.ogg;
#OFFSET:-0.100000;
#SAMPLESTART:44.129002;
#SAMPLELENGTH:20.000000;
#SELECTABLE:YES;
#DISPLAYBPM:169.000000;
#BPMS:0.000000=168.979996
;
#STOPS:
;
#BGCHANGES:;
#KEYSOUNDS:;
#ATTACKS:;

//---------------dance-single - ----------------
#NOTES:
     dance-single:
     :
     Hard:
     13:
     0.582171,0.591356,0.301547,0.353241,0.043078,473.000000,438.000000,35.000000,41.000000,0.000000,0.000000,0.582171,0.591356,0.301547,0.353241,0.043078,473.000000,438.000000,35.000000,41.000000,0.000000,0.000000:
0000
0000
0000
0000
,
0000
0000
0000
0000
,
0000
0000
0000
0000
,
0000
0000
0000
0000
,
0000
0000
0000
0000
,
0000
0000
0000
0000
,
0000
0000
0000
0000
,
0000
0000
0000
0000
,
1001
0000
0000
0001
1000
0000
0000
1000
,
0100
0000
0000
0100
0010
0000
0000
0010
,
0001
0000
0001
1000
0010
0000
1000
0100
,
0010
0000
0000
0001
0000
0000
1000
0000
0001
0000
0000
0100
0000
0000
0010
0000
,
1000
0000
0000
1000
0010
0000
0000
0010
,
0100
0000
0000
0010
0000
0000
1000
0000
0001
0000
0000
0000
0000
0000
0001
0000
,
1000
0000
0000
0010
0000
0000
0100
0000
0001
0000
0000
0000
0001
0000
0010
0000
,
0100
0000
0000
1000
0000
0000
0001
0000
0100
0000
0000
0000
0000
0000
0000
0000
,
0110
0001
1000
0010
1000
0100
0001
0000
,
0010
0001
1000
0010
0100
0001
1000
0000
,
0100
0010
0001
0100
0001
0010
1000
0001
,
1000
0100
0000
1100
0000
0110
0000
0012
,
0000
0000
1000
2003
0000
3001
0100
0000
,
0000
0000
0001
0010
0001
0000
0100
0000
2000
0000
0010
0000
3010
0000
0000
0000
,
0000
0000
1000
0100
1000
0000
0010
0000
0002
0000
0100
0000
0103
0000
0000
0000
,
1000
0001
0010
0100
1000
0010
0001
0000
,
0101
0000
0001
1000
0100
0010
0001
0000
,
1000
0100
1000
0001
0010
0100
0010
0000
,
0001
0010
0001
0100
0010
0100
0001
1000
,
0100
0010
0100
1000
0001
0100
0001
1000
,
0010
0100
0001
0000
1000
0100
0010
0000
,
0001
1000
0000
1010
0000
1001
0000
0201
,
0000
0000
0010
0320
0000
1030
0001
0000
,
1000
0010
0100
0010
0100
0001
1000
0001
,
1001
0000
0010
1000
0100
0010
0001
0000
,
1000
0010
0100
0010
2000
0001
3001
0000
,
0010
1000
0010
0100
1000
0010
0001
0010
,
0100
0010
0001
0010
1000
0100
0001
0100
,
1000
0000
0011
0000
0100
1010
0000
0001
,
1100
0000
1001
0000
0201
0010
0310
0000
,
1000
0010
0100
0001
0010
1000
0010
0001
,
0100
0010
1000
0000
0100
0010
1002
0000
,
0100
0000
0013
1000
0010
0001
0100
0000
,
0010
0100
0001
0010
0200
1000
1300
0000
,
0001
0010
1000
0010
0100
0010
1000
0010
,
0001
1000
0010
0001
0010
0100
0010
1000
,
0100
0000
1001
0000
0010
1100
0000
0001
,
0110
0000
0101
0000
2010
0100
3100
0000
,
1000
0001
0010
1000
0010
0100
0010
0001
,
0100
0010
1000
0000
0010
0100
1002
0000
,
0020
0000
0003
0001
0002
0000
0030
1000
,
2000
0000
0003
0010
0020
0000
3000
0100
,
0130
0000
0001
1000
0100
0000
1000
0001
,
0100
0000
0000
0000
0010
0000
1000
0000
0002
0000
0000
0023
0000
0000
0230
0000
,
2000
0000
0300
0001
0002
0000
3000
0100
,
0203
0000
0310
1000
0002
0000
0000
1000
,
2003
0000
0000
3002
0000
0000
2003
0000
0020
3000
0000
0000
0130
0000
0001
0000
,
0020
0000
0000
0032
0000
0000
2003
0000
0200
0000
0000
0000
3300
0000
0000
0000
,
0001
0000
1000
0010
0100
0010
1000
0000
,
0100
0000
0010
0001
1000
0001
0010
0000
,
1000
0000
0001
0100
0010
0100
0001
0000
,
0010
0000
0100
1000
0001
1000
0100
0000
,
1000
0000
0010
0100
0001
1000
0100
0000
,
0010
0000
0100
1000
0001
0100
0010
0000
,
1000
0000
0001
0100
0020
0000
2030
0000
,
3002
0000
0010
0000
1000
1000
1003
0000
,
1001
0000
0100
0001
0010
0100
1000
0000
,
0010
1000
0010
0001
0020
0100
0130
0000
,
0001
0010
1000
0010
0001
0100
1000
0100
,
0001
0010
1000
0010
0100
0010
1000
0010
,
0001
0000
1010
0000
0100
0011
0000
1000
,
0101
0000
1010
0000
1002
0010
0013
0000
,
0001
1000
0100
0010
0100
0010
0001
1000
,
0010
0100
0001
0000
0010
0100
2001
0000
,
0100
0000
3001
1000
0010
0100
0001
0000
,
1000
0010
0001
0010
2000
0100
3100
0000
,
1000
0010
0100
0010
0001
0010
1000
0100
,
0001
0100
0010
0100
0001
0100
1000
0010
,
0100
0000
1010
0000
0001
0110
0000
1000
,
0011
0000
1100
0000
0102
1000
1003
0000
,
0010
0001
0010
1000
0010
0001
0100
0010
,
0001
0010
1000
0000
0000
0000
2002
0000
,
0000
0000
0000
3003
;

//---------------dance-single - ----------------
#NOTES:
     dance-single:
     :
     Medium:
     9:
     0.455398,0.521785,0.387704,0.611710,0.000000,370.000000,325.000000,45.000000,71.000000,0.000000,0.000000,0.455398,0.521785,0.387704,0.611710,0.000000,370.000000,325.000000,45.000000,71.000000,0.000000,0.000000:
0000
0000
0000
0000
,
0000
0000
0000
0000
,
0000
0000
0000
0000
,
0000
0000
0000
0000
,
0000
0000
0000
0000
,
0000
0000
0000
0000
,
0000
0000
0000
0000
,
0000
0000
0000
0000
,
1001
0000
0000
0001
1000
0000
0000
1000
,
0100
0000
0000
0100
0010
0000
0000
0010
,
0001
0001
1000
1000
,
1010
0000
0000
0110
0000
0000
0101
0000
,
1001
0000
0000
1000
0001
0000
0000
0001
,
0100
0000
0010
0000
1000
0000
0000
1000
,
0010
0010
0100
0100
,
0101
0000
0000
0110
0000
0000
1010
0000
,
1001
0000
0010
1000
0001
0000
0001
0000
,
0000
0010
0001
1000
0100
0000
0100
0000
,
0000
1000
0010
0100
0001
0000
1000
0000
,
0001
0020
0000
0032
0000
2003
0000
3200
,
0000
0000
1000
2000
0000
0000
3300
0000
,
0000
0001
1000
0001
0010
0000
0010
0000
,
0000
0001
1000
0001
0100
0000
0100
0000
,
0001
1000
0100
1000
0002
0000
0103
0000
,
0110
0000
0001
1000
0000
0100
0000
0000
,
0000
1000
0001
0100
0010
0000
0000
0000
,
0000
0000
1000
0001
0010
0001
0000
0100
,
0000
0001
0010
0100
1000
0010
0100
0002
,
0000
2000
0000
0000
0000
0000
3003
0000
,
0010
0002
0000
0203
0000
0320
0000
2030
,
0000
0000
0010
0020
0000
0000
3030
0000
,
1000
0001
1000
0001
1000
0001
1000
0001
,
1001
0000
0010
0001
0200
0000
0300
0000
,
0001
1000
0010
0000
0202
0000
0303
0000
,
1000
0100
0001
0100
1000
0000
0001
0100
,
0010
0000
1000
0001
0200
0000
0320
0000
,
1030
0000
0101
0000
0000
1010
0000
0000
,
1100
0011
2002
3003
,
0010
0001
0010
0001
1000
0100
1000
0100
,
2000
3002
0103
2002
,
3003
0000
0001
1000
0200
0000
0300
0000
,
1000
0100
0010
0000
0022
0000
0033
0000
,
0001
0100
1000
0100
0001
0000
1000
0010
,
0100
0000
0010
1000
0002
0000
0203
0000
,
0310
0000
1001
0000
0000
0110
0000
0000
,
1010
0101
0022
0033
,
1000
0010
1000
0010
0100
0001
0100
0001
,
0200
0320
1030
2002
,
0003
0000
0000
3001
1000
0000
0000
1000
,
0010
0000
0000
0010
0100
0000
0000
0100
,
0001
0000
0010
0100
1000
0000
0010
0100
,
0001
1000
1010
0101
,
1001
0000
0000
1000
0001
0000
0000
0001
,
0010
0000
0100
0000
1000
0000
0000
1000
,
0010
0000
0010
1000
0001
0000
0001
0010
,
0100
1100
0202
0303
,
0010
0000
0001
1000
0002
0000
0103
0000
,
0010
0000
1000
0100
2000
0000
3002
0000
,
0103
0000
0001
0010
0002
0000
1003
0000
,
0100
0000
1000
0010
2000
0000
3002
0000
,
1003
0000
0010
0100
0020
0000
1030
0000
,
0100
0000
0010
0001
0020
0000
0230
0000
,
1300
0000
0001
0100
0002
0000
0023
0000
,
0230
0000
0000
1300
,
1001
0000
0010
1000
0200
0000
0300
0000
,
0100
1000
0010
0000
0202
0000
0303
0000
,
0001
0010
1000
0010
0001
0000
1000
0100
,
0001
0000
1000
0010
0200
0000
0302
0000
,
0013
0000
1100
0000
0000
0011
0000
0000
,
1001
1100
0022
0033
,
1000
0001
1000
0001
0100
0010
0100
0010
,
2000
3020
0130
2002
,
3003
0000
0001
0010
0200
0000
0300
0000
,
1000
0001
0010
0000
2200
0000
3300
0000
,
1000
0010
0001
0010
1000
0000
0100
0010
,
0001
0000
1000
0010
0002
0000
0203
0000
,
0310
0000
0101
0000
0000
1010
0000
0000
,
1100
1001
0220
0330
,
0010
1000
0010
1000
0001
0100
0001
0100
,
0002
2003
3010
2002
,
0000
0000
0000
3003
;

//---------------dance-single - ----------------
#NOTES:
     dance-single:
     :
     Easy:
     7:
     0.328625,0.417428,0.267085,0.206775,0.000000,267.000000,236.000000,31.000000,24.000000,0.000000,0.000000,0.328625,0.417428,0.267085,0.206775,0.000000,267.000000,236.000000,31.000000,24.000000,0.000000,0.000000:
0000
0000
0000
0000
,
0000
0000
0000
0000
,
0000
0000
0000
0000
,
0000
0000
0000
0000
,
0000
0000
0000
0000
,
0000
0000
0000
0000
,
0000
0000
0000
0000
,
0000
0000
0000
0000
,
1001
0000
0001
0000
,
1000
0000
0100
0000
,
1000
0010
0100
0001
,
0010
0000
0000
0010
0000
0000
0010
0000
,
1001
0000
0100
0000
,
0010
0000
1000
0000
,
0001
1000
0100
0000
,
0010
0001
1000
0000
,
1001
0001
0100
0100
,
0001
1000
0100
0100
,
1000
0010
0100
0001
,
0010
0000
0000
1000
0000
0001
0000
1000
,
0000
0020
0000
0130
,
0000
0001
1000
0001
,
0000
0100
0010
0100
,
0001
0010
0100
1000
,
1001
1000
0010
0010
,
0100
0001
1000
1000
,
0001
0010
0100
1000
,
0010
0100
0001
1000
,
0100
0010
0000
0000
,
0001
0000
0000
0100
0000
0010
0000
0100
,
0000
0002
0000
1003
,
0001
1000
0010
0100
,
1001
0001
0010
0100
,
1000
0010
0100
0001
,
0010
0001
0010
0100
,
1000
0010
1000
0001
,
0000
0000
0110
0000
0000
0110
0000
0000
,
0001
1000
0110
0000
,
1000
0010
0100
0001
,
1000
0001
0100
2002
,
3003
0001
0010
0100
,
0010
0001
1000
0010
,
0100
0001
0100
0010
,
0100
0001
1000
0100
,
0000
0000
1001
0000
0000
1001
0000
0000
,
0010
0100
1001
0000
,
0010
0100
0001
0010
,
0100
1000
0000
2002
,
0000
0003
3020
0000
,
0230
0000
0302
0000
,
1003
0001
0010
0100
,
1000
0010
1000
0001
,
0020
0000
0032
0000
,
2003
0000
3200
0000
,
1300
0010
1000
0001
,
0010
0100
1000
0000
,
0001
0100
0202
0303
,
1000
0100
1100
1100
,
0010
1000
2020
3030
,
0001
0010
0011
0011
,
0001
1000
2002
3003
,
0010
0100
0110
0110
,
0001
1000
0100
1000
,
0002
0000
0000
0003
,
1001
1000
0100
0010
,
0100
1000
0010
0001
,
0100
0001
0010
0001
,
0100
0010
1000
0100
,
0000
0000
0110
0000
0000
0110
0000
0000
,
0001
1000
0110
0000
,
0010
1000
0001
0010
,
0001
0100
0000
2002
,
3003
0010
1000
0001
,
0010
0100
0100
1000
,
0010
0100
0001
0010
,
1000
0010
0100
0001
,
0000
0000
1001
0000
0000
1001
0000
0000
,
0010
0100
1001
0000
,
0001
0010
0100
0010
,
0001
1000
0000
2002
,
0000
0000
0000
3003
;

//---------------dance-single - ----------------
#NOTES:
     dance-single:
     :
     Beginner:
     4:
     0.179698,0.240484,0.103388,0.051694,0.000000,146.000000,134.000000,12.000000,6.000000,0.000000,0.000000,0.179698,0.240484,0.103388,0.051694,0.000000,146.000000,134.000000,12.000000,6.000000,0.000000,0.000000:
// measure 0
0000
0000
0000
0000
,  // measure 1
0000
0000
0000
0000
,  // measure 2
0000
0000
0000
0000
,  // measure 3
0000
0000
0000
0000
,  // measure 4
0000
0000
0000
0000
,  // measure 5
0000
0000
0000
0000
,  // measure 6
0000
0000
0000
0000
,  // measure 7
0000
0000
0000
0000
,  // measure 8
1001
0000
0000
0000
,  // measure 9
0001
0000
0000
0000
,  // measure 10
1000
0000
0000
0000
,  // measure 11
0001
0000
0000
0000
,  // measure 12
1001
0000
0000
0000
,  // measure 13
1000
0000
0000
0000
,  // measure 14
0001
0000
0000
0000
,  // measure 15
1000
0000
0000
0000
,  // measure 16
0000
0010
0010
0000
,  // measure 17
0000
0100
0100
0000
,  // measure 18
0000
0001
0001
0000
,  // measure 19
1000
0000
1000
0000
,  // measure 20
0010
0000
0000
0000
,  // measure 21
0000
0100
0100
0000
,  // measure 22
0000
0010
0010
0000
,  // measure 23
1000
1000
1000
0000
,  // measure 24
0000
0001
0001
0000
,  // measure 25
0000
1000
1000
0000
,  // measure 26
0000
0010
0010
0000
,  // measure 27
0100
0000
0001
0000
,  // measure 28
1000
0000
0000
0000
,  // measure 29
0010
0000
0100
0000
,  // measure 30
0001
0000
0000
0000
,  // measure 31
1000
0000
0010
0000
,  // measure 32
1001
0000
0100
0000
,  // measure 33
0001
0001
0001
0000
,  // measure 34
0010
0010
0010
0000
,  // measure 35
0001
0001
0001
0000
,  // measure 36
0000
1001
0000
0000
,  // measure 37
0100
0100
0100
0000
,  // measure 38
0010
0010
0010
0000
,  // measure 39
1000
1000
0000
1001
,  // measure 40
0000
0000
0100
0000
,  // measure 41
1000
1000
1000
0000
,  // measure 42
0010
0010
0010
0000
,  // measure 43
0100
0100
0100
0000
,  // measure 44
0000
1001
0000
0000
,  // measure 45
0001
0001
0001
0000
,  // measure 46
0010
0010
0010
0000
,  // measure 47
0001
0001
0000
1001
,  // measure 48
0000
0000
0000
0000
,  // measure 49
0000
0000
0000
0000
,  // measure 50
0010
0000
0000
0000
,  // measure 51
0100
0000
0000
0000
,  // measure 52
0001
0000
0000
0000
,  // measure 53
1000
0000
0000
0000
,  // measure 54
0001
0000
0000
0000
,  // measure 55
1000
0000
0000
0000
,  // measure 56
0000
0000
0200
0000
,  // measure 57
0300
0000
2000
0000
,  // measure 58
3000
0000
0002
0000
,  // measure 59
0003
0000
0020
0000
,  // measure 60
0030
0000
0002
0000
,  // measure 61
0003
0000
2000
0000
,  // measure 62
3000
0000
0010
0000
,  // measure 63
0100
0000
0000
0000
,  // measure 64
1001
0000
0001
0000
,  // measure 65
0010
0010
0010
0000
,  // measure 66
0001
0001
0001
0000
,  // measure 67
0100
0100
0100
0000
,  // measure 68
0000
1001
0000
0000
,  // measure 69
0100
0100
0100
0000
,  // measure 70
0010
0010
0010
0000
,  // measure 71
1000
1000
0000
1001
,  // measure 72
0000
0000
0100
0000
,  // measure 73
1000
1000
1000
0000
,  // measure 74
0001
0001
0001
0000
,  // measure 75
1000
1000
1000
0000
,  // measure 76
0000
1001
0000
0000
,  // measure 77
0010
0010
0010
0000
,  // measure 78
1000
1000
1000
0000
,  // measure 79
0100
0100
0000
1001
;
