#VERSION:0.83;
#TITLE:Deeper Into Trance;
#SUBTITLE:;
#ARTIST:anubasu-anubasu;
#TITLETRANSLIT:;
#SUBTITLETRANSLIT:;
#ARTISTTRANSLIT:;
#GENRE:;
#ORIGIN:;
#CREDIT:;
#BANNER:Deeper Into Trance-bn.png;
#BACKGROUND:Deeper Into Trance-bg.png;
#PREVIEWVID:;
#JACKET:Deeper Into Trance-jacket.png;
#CDIMAGE:;
#DISCIMAGE:;
#LYRICSPATH:;
#CDTITLE:;
#MUSIC:Deeper Into Trance.ogg;
#OFFSET:0.000000;
#SAMPLESTART:81.555557;
#SAMPLELENGTH:20.000000;
#SELECTABLE:YES;
#DISPLAYBPM:150.000000;
#BPMS:0.000=150.000;
#STOPS:;
#DELAYS:;
#WARPS:;
#TIMESIGNATURES:0.000=4=4;
#TICKCOUNTS:0.000=4;
#COMBOS:0.000=1;
#SPEEDS:0.000=1.000=0.000=0;
#SCROLLS:0.000=1.000;
#FAKES:;
#LABELS:0.000=Song Start;
#BGCHANGES:;
#KEYSOUNDS:;
#ATTACKS:
;

//---------------dance-single - ----------------
#NOTEDATA:;
#CHARTNAME:;
#STEPSTYPE:dance-single;
#DESCRIPTION:;
#CHARTSTYLE:;
#DIFFICULTY:Hard;
#METER:12;
#RADARVALUES:0.496790,0.614054,0.270099,0.211015,0.113948,412.000000,380.000000,32.000000,25.000000,0.000000,0.000000,0.000000,0.000000,0.000000,0.496790,0.614054,0.270099,0.211015,0.113948,412.000000,380.000000,32.000000,25.000000,0.000000,0.000000,0.000000,0.000000,0.000000;
#CREDIT:;
#DISPLAYBPM:150.000000;
#NOTES:
0000
0000
0000
0000
,
0000
0000
0000
0000
,
0000
0000
0000
0000
,
0000
0000
0000
0000
,
0000
0000
0000
0000
,
0000
0000
0000
0000
,
0000
0000
0000
0000
,
0020
0000
0000
0000
,
0000
0000
0000
0000
,
0002
0000
0000
0030
,
2000
0000
0000
0003
,
3001
0000
1000
0100
1000
0000
0001
0000
,
0000
0000
0100
0010
0100
0000
0001
1000
,
1000
0000
0010
0100
0010
0000
1000
0000
,
0000
0000
0001
0010
0001
0000
0100
0000
,
0010
0000
1000
0100
1000
0000
0001
0000
,
0000
0000
0010
0001
0010
0000
0001
0100
,
0100
0000
0010
1000
0010
0000
0100
0000
,
0000
0000
0001
0100
0001
0000
1000
0000
,
0010
1000
0100
1000
0001
0000
0000
0100
,
0100
0000
0010
0000
1000
0001
1000
0000
0010
0000
0000
0000
0000
0000
1000
0000
,
1000
0001
0010
0001
0100
0000
0000
0010
,
0010
1000
0100
0010
0001
0000
0000
1000
,
1000
0001
0010
0100
1000
0000
0000
0001
,
0001
1000
0001
0010
0100
0000
0000
1000
,
1000
0010
0100
0001
0010
0000
0001
1000
,
0001
0000
1000
0000
0010
0000
0100
0000
0001
1000
0001
0000
0100
0000
0000
0000
,
1001
0000
0002
0000
2003
0000
3010
1000
,
0200
0000
1300
0001
0020
0000
0230
0000
,
2300
0000
3020
0000
0230
0000
0301
1000
,
0002
0000
0013
0001
1000
0010
0100
0001
,
2000
0000
3020
0000
0230
0000
0301
0010
,
0002
0000
0103
0010
1000
0100
0010
0001
,
0200
0000
0302
0000
0023
0000
0031
0100
,
0020
0000
1030
0010
0100
0010
1000
0001
,
0010
0000
0011
0000
1100
0000
0001
1000
,
1010
0000
0010
0100
0101
0000
1100
0000
,
1001
0000
0110
0000
1010
0000
0100
1000
,
1001
0000
0001
0010
0001
0100
0010
1000
,
1100
0000
0011
0000
1010
0000
0001
0100
,
0110
0000
0010
1000
0001
1000
0100
0010
,
0011
0000
0110
0000
1100
0000
0001
1000
,
1010
0000
0001
0010
0001
0100
0010
1000
,
0001
1000
0010
0100
0010
1000
0001
0000
,
0010
0000
0001
0000
0100
0010
0100
0000
0001
0000
1000
0000
0100
0000
0000
0000
,
1000
0010
0100
0001
0010
0100
1000
0000
,
0001
0010
0001
0100
0010
1000
0100
0000
,
1000
0010
0100
0001
0010
0100
1000
0001
,
0010
0001
0100
0010
1000
0100
1000
0001
,
0010
0100
0010
0001
0100
0010
1000
0001
,
1000
0010
1000
0001
0100
0000
0110
0000
,
1001
0000
0000
0000
1000
0000
0000
1000
0010
0000
0000
0010
0100
0000
0001
0000
,
0010
0000
0000
0010
0001
0000
1000
0000
0200
0000
0000
0000
2300
0000
0000
0000
,
3001
0000
0000
0000
1000
0000
0000
1000
0100
0000
0000
0100
0010
0000
0001
0000
,
0100
0000
0000
0100
0010
0000
1000
0000
0001
0000
0010
0000
0001
0000
1000
0000
,
0100
0000
0000
0000
1000
0000
0000
1000
0001
0000
0000
0001
0100
0000
0010
0000
,
1000
0000
0000
1000
0001
0000
0010
0000
0001
0000
0100
0000
0010
0000
1000
0000
,
0100
0000
0000
0000
1000
0000
0000
1000
0001
0000
0000
0001
0010
0000
0001
0000
,
0100
0000
0000
0001
1000
0000
0001
0000
0010
0000
0100
0000
1000
0000
0010
0000
,
0110
0000
0000
0000
0101
0000
0000
0001
1000
0000
0000
1000
0010
0000
0100
0000
,
0110
0000
0000
0010
1000
0000
0001
0000
0012
0000
0000
0000
2003
0000
0000
0000
,
3100
0000
0000
0000
1000
0000
0000
1000
0010
0000
0000
0010
0100
0000
0001
0000
,
1001
0000
0000
0001
0100
0000
0010
0000
1000
0000
0001
0000
1000
0000
0100
0000
,
1100
0000
0000
0000
1010
0000
0000
1000
0001
0000
0000
0001
0100
0000
0010
0000
,
0110
0000
0000
0100
0001
0000
0010
0000
0001
0000
1000
0000
0010
0000
0100
0000
,
0101
0000
0000
0000
1010
0000
0000
0001
0100
0000
0000
0100
0010
0000
1000
0000
,
1001
0000
0000
0001
1000
0000
0010
0000
1000
0000
0100
0000
0010
0000
0001
0000
,
0011
0000
1000
0100
1000
0000
0001
0000
,
0000
0000
0100
0010
0100
0000
0001
1000
,
1000
0000
0001
0010
0001
0000
0100
0000
,
0000
0000
0001
0100
0001
0000
1000
0000
,
0020
0000
0000
0000
,
0000
0000
0000
0030
;

//---------------dance-single - ----------------
#NOTEDATA:;
#CHARTNAME:;
#STEPSTYPE:dance-single;
#DESCRIPTION:;
#CHARTSTYLE:;
#DIFFICULTY:Medium;
#METER:9;
#RADARVALUES:0.375004,0.491243,0.118168,0.312302,0.000000,311.000000,297.000000,14.000000,37.000000,0.000000,0.000000,0.000000,0.000000,0.000000,0.375004,0.491243,0.118168,0.312302,0.000000,311.000000,297.000000,14.000000,37.000000,0.000000,0.000000,0.000000,0.000000,0.000000;
#CREDIT:;
#DISPLAYBPM:150.000000;
#NOTES:
0000
0000
0000
0000
,
0000
0000
0000
0000
,
0000
0000
0000
0000
,
0000
0000
0000
0000
,
0000
0000
0000
0000
,
0000
0000
0000
0000
,
0000
0000
0000
0000
,
0020
0000
0000
0000
,
0000
0000
0000
0030
,
0002
0000
0000
0003
,
2000
0000
0000
3000
,
0000
0000
0001
0100
0001
0000
1000
0000
,
0000
0000
0010
0100
0010
0000
1000
0000
,
0000
0000
0100
1000
0100
0000
0010
0000
,
0000
0000
0001
1000
0001
0000
0010
0000
,
0000
0000
0001
0100
0001
0000
0010
0000
,
0000
0000
0100
0010
0100
0000
0001
0000
,
0000
0000
0010
0001
0010
0000
0100
0000
,
0000
0000
1000
0010
1000
0000
0001
0000
,
0100
0010
1000
0010
0100
0000
0000
0000
,
0001
1000
0010
1000
0001
0000
0000
0000
,
0010
0001
0100
0001
0010
0000
0000
0000
,
0001
1000
0100
1000
0001
0000
0000
0000
,
1000
0010
0100
0010
1000
0000
0000
0000
,
0100
0010
0001
0010
0100
0000
0000
0000
,
1000
0001
0010
0001
1000
0000
0000
0000
,
0001
1000
0100
1000
0001
0000
0000
0000
,
1001
0010
0100
0001
,
1000
0010
1000
0100
,
0010
0001
0100
0010
,
1000
0100
1000
0001
,
0110
0010
1000
0100
,
0010
0100
0010
0001
,
0100
0001
0010
0100
,
1000
0010
0100
0001
,
1001
0001
1000
0100
,
0010
0100
1000
0010
,
0110
0100
0001
0010
,
0001
0100
0010
1000
,
1100
1000
0010
0100
,
0010
1000
0100
0001
,
0101
0100
0010
0100
,
0001
0010
0100
1000
,
0010
1000
0001
1000
0100
0000
1100
0000
,
1000
0010
0100
0001
0010
0000
0011
0000
,
0001
0100
0010
1000
0001
0000
0101
0000
,
0100
0001
0010
0001
1000
0000
1010
0000
,
0001
0100
0010
0100
0001
0000
1001
0000
,
1000
0010
0100
0010
1000
0000
0110
0000
,
0001
0010
0100
1000
0010
0000
0100
0010
,
1000
0100
0010
0001
0100
0000
0101
0000
,
1001
0000
0002
0000
2003
0000
3010
0100
,
0001
0000
0010
0001
2000
0000
3020
0000
,
0230
0000
0320
0000
2030
0000
3001
0010
,
0002
0000
0103
0010
1000
0010
0100
0001
,
1000
0000
0002
0000
0023
0000
0031
0100
,
0020
0000
0130
0001
0010
0001
0100
0010
,
2000
0000
3200
0000
0320
0000
0031
0100
,
0002
0000
0013
0001
0100
0010
1000
0100
,
0020
0000
0032
0000
2003
0000
3001
0100
,
0020
0000
0130
0010
2000
0000
3200
0000
,
0320
0000
0230
0000
0320
0000
0031
1000
,
0002
0000
0013
0001
1000
0001
0100
0010
,
0200
0000
0320
0000
2030
0000
3001
0010
,
0200
0000
0310
0001
1000
0010
1000
0100
,
2000
0000
3020
0000
0230
0000
0301
1000
,
0200
0000
1300
0010
0100
0001
0010
0100
,
0000
0000
1000
0001
1000
0000
0010
0000
,
0000
0000
0100
0001
0100
0000
0010
0000
,
0000
0000
1000
0100
1000
0000
0001
0000
,
0000
0000
0100
0010
0100
0000
0001
0000
,
0020
0000
0000
0000
,
0000
0000
0000
0030
;

//---------------dance-single - ----------------
#NOTEDATA:;
#CHARTNAME:;
#STEPSTYPE:dance-single;
#DESCRIPTION:;
#CHARTSTYLE:;
#DIFFICULTY:Easy;
#METER:6;
#RADARVALUES:0.245983,0.307027,0.016881,0.033762,0.000000,204.000000,202.000000,2.000000,4.000000,0.000000,0.000000,0.000000,0.000000,0.000000,0.245983,0.307027,0.016881,0.033762,0.000000,204.000000,202.000000,2.000000,4.000000,0.000000,0.000000,0.000000,0.000000,0.000000;
#CREDIT:;
#DISPLAYBPM:150.000000;
#NOTES:
0000
0000
0000
0000
,
0000
0000
0000
0000
,
0000
0000
0000
0000
,
0000
0000
0000
0000
,
0000
0000
0000
0000
,
0000
0000
0000
0000
,
0000
0000
0000
0000
,
0020
0000
0000
0030
,
0000
0000
0000
0000
,
0002
0003
0000
0000
,
2000
3000
0000
0000
,
0000
0010
0100
0010
,
0000
1000
0100
1000
,
0000
0001
0100
0001
,
0000
0010
0001
0010
,
0000
0001
1000
0001
,
0000
1000
0010
1000
,
0000
0001
0100
0010
,
0000
1000
0100
0010
,
0001
1000
0001
0000
,
0100
0010
1000
0000
,
0100
0010
0001
0000
,
1000
0100
1000
0000
,
0010
0100
0010
0000
,
1000
0100
1000
0000
,
0001
0010
0001
1000
,
0010
0100
0001
0000
,
1001
0000
0100
0000
,
0010
0000
1000
0100
,
0001
0000
1000
0000
,
0001
0000
0010
0100
,
1000
0000
0010
0000
,
0100
0000
0001
0010
,
0001
0000
1000
0000
,
0010
0000
1000
0100
,
0001
0100
0010
0000
,
1000
0100
1000
0001
,
0010
0100
0010
0000
,
0001
0100
0010
1000
,
0100
1000
0010
0000
,
0100
0001
0010
0100
,
0010
0001
1000
0000
,
0001
0100
0010
1000
,
0100
0100
0100
0000
,
1000
1000
1000
0000
,
0010
0010
0010
0000
,
0001
0001
0001
0000
,
1000
0100
1000
0000
,
0010
0001
0010
0000
,
0001
0100
0010
1000
,
0100
0010
0001
0000
,
1001
0100
0010
1000
,
0100
1000
0010
0100
,
0001
0010
0001
1000
,
0100
0010
0100
0010
,
0001
0100
0010
1000
,
0001
1000
0010
1000
,
0100
0010
0001
0100
,
0001
0010
0001
0100
,
0010
1000
0100
0010
,
0100
0010
0100
0010
,
0001
0100
0010
0100
,
0001
1000
0001
0010
,
0001
0100
0010
1000
,
0100
0010
0001
0100
,
0001
1000
0010
1000
,
0100
0010
0001
1000
,
0000
0010
0010
0010
,
0000
0100
0100
0100
,
0000
0001
0001
0001
,
0000
1000
1000
1000
,
0020
0000
0000
0000
,
0000
0000
0000
0030
;

//---------------dance-single - ----------------
#NOTEDATA:;
#CHARTNAME:;
#STEPSTYPE:dance-single;
#DESCRIPTION:;
#CHARTSTYLE:;
#DIFFICULTY:Beginner;
#METER:2;
#RADARVALUES:0.118168,0.184216,0.016881,0.008441,0.000000,98.000000,96.000000,2.000000,1.000000,0.000000,0.000000,0.000000,0.000000,0.000000,0.118168,0.184216,0.016881,0.008441,0.000000,98.000000,96.000000,2.000000,1.000000,0.000000,0.000000,0.000000,0.000000,0.000000;
#CREDIT:;
#DISPLAYBPM:150.000000;
#NOTES:
// measure 0
0000
0000
0000
0000
,  // measure 1
0000
0000
0000
0000
,  // measure 2
0000
0000
0000
0000
,  // measure 3
0000
0000
0000
0000
,  // measure 4
0000
0000
0000
0000
,  // measure 5
0000
0000
0000
0000
,  // measure 6
0000
0000
0000
0000
,  // measure 7
0010
0000
0000
0000
,  // measure 8
0000
0000
0000
0000
,  // measure 9
0001
0000
0000
0000
,  // measure 10
1000
0000
0000
0000
,  // measure 11
0000
0000
0010
0000
,  // measure 12
0000
0000
0010
0000
,  // measure 13
0000
0000
0100
0000
,  // measure 14
0000
0000
0001
0000
,  // measure 15
0000
0000
1000
0000
,  // measure 16
0000
0000
1000
0000
,  // measure 17
0000
0000
0001
0000
,  // measure 18
0000
0000
0100
0000
,  // measure 19
0001
0000
0000
0000
,  // measure 20
1000
0000
0000
0000
,  // measure 21
0010
0000
0000
0000
,  // measure 22
0100
0000
0000
0000
,  // measure 23
0001
0000
0000
0000
,  // measure 24
0010
0000
0000
0000
,  // measure 25
0100
0000
0000
0000
,  // measure 26
1000
0000
0000
0000
,  // measure 27
1001
0000
0000
0000
,  // measure 28
0001
0000
1000
0000
,  // measure 29
0100
0000
0000
0000
,  // measure 30
1000
0000
0010
0000
,  // measure 31
0100
0000
0000
0000
,  // measure 32
0010
0000
1000
0000
,  // measure 33
0001
0000
0000
0000
,  // measure 34
0100
0000
0001
0000
,  // measure 35
0010
0000
0000
0000
,  // measure 36
0001
0000
0001
0000
,  // measure 37
0001
0000
0000
0000
,  // measure 38
0100
0000
0100
0000
,  // measure 39
0100
0000
0000
0000
,  // measure 40
0010
0000
0010
0000
,  // measure 41
0010
0000
0000
0000
,  // measure 42
1000
0000
1000
0000
,  // measure 43
1000
0000
1000
0000
,  // measure 44
0010
0000
0010
0000
,  // measure 45
0100
0000
0100
0000
,  // measure 46
0001
0000
0001
0000
,  // measure 47
1000
0000
1000
0000
,  // measure 48
0001
0000
0001
0000
,  // measure 49
0100
0000
0100
0000
,  // measure 50
0010
0000
0010
0000
,  // measure 51
1001
0000
1000
0000
,  // measure 52
0010
0000
0100
0000
,  // measure 53
0001
0000
0010
0000
,  // measure 54
0001
0000
1000
0000
,  // measure 55
0010
0000
0100
0000
,  // measure 56
0010
0000
1000
0000
,  // measure 57
0100
0000
0010
0000
,  // measure 58
0001
0000
1000
0000
,  // measure 59
0001
0000
0100
0000
,  // measure 60
0010
0000
0100
0000
,  // measure 61
0010
0000
1000
0000
,  // measure 62
0100
0000
0010
0000
,  // measure 63
0001
0000
1000
0000
,  // measure 64
0001
0000
1000
0000
,  // measure 65
0010
0000
1000
0000
,  // measure 66
0100
0000
0010
0000
,  // measure 67
0000
0000
0001
0000
,  // measure 68
0000
0000
1000
0000
,  // measure 69
0000
0000
0010
0000
,  // measure 70
0000
0000
0100
0000
,  // measure 71
0020
0000
0000
0000
,  // measure 72
0000
0000
0000
0030
;
