#VERSION:0.83;
#TITLE:Dancing on the Ceiling;
#SUBTITLE:;
#ARTIST:Lionel Richie;
#TITLETRANSLIT:;
#SUBTITLETRANSLIT:;
#ARTISTTRANSLIT:;
#GENRE:;
#ORIGIN:;
#CREDIT:;
#BANNER:Dancing on the Ceiling.png;
#BACKGROUND:Dancing on the Ceiling-bg.png;
#PREVIEWVID:;
#JACKET:Dancing on the Ceiling-jacket.png;
#CDIMAGE:;
#DISCIMAGE:;
#LYRICSPATH:;
#CDTITLE:;
#MUSIC:Dancing on the Ceiling.ogg;
#OFFSET:0.000000;
#SAMPLESTART:36.042000;
#SAMPLELENGTH:20.000000;
#SELECTABLE:YES;
#DISPLAYBPM:133.000000;
#BPMS:0.000=133.200;
#STOPS:;
#DELAYS:;
#WARPS:;
#TIMESIGNATURES:0.000=4=4;
#TICKCOUNTS:0.000=4;
#COMBOS:0.000=1;
#SPEEDS:0.000=1.000=0.000=0;
#SCROLLS:0.000=1.000;
#FAKES:;
#LABELS:0.000=Song Start;
#BGCHANGES:;
#KEYSOUNDS:;
#ATTACKS:
;

//---------------dance-single - ----------------
#NOTEDATA:;
#CHARTNAME:;
#STEPSTYPE:dance-single;
#DESCRIPTION:;
#CHARTSTYLE:;
#DIFFICULTY:Hard;
#METER:11;
#RADARVALUES:0.488018,0.470219,0.482276,0.482276,0.020095,425.000000,365.000000,60.000000,60.000000,0.000000,0.000000,0.000000,0.000000,0.000000,0.488018,0.470219,0.482276,0.482276,0.020095,425.000000,365.000000,60.000000,60.000000,0.000000,0.000000,0.000000,0.000000,0.000000;
#CREDIT:;
#DISPLAYBPM:133.000000;
#NOTES:
0000
0000
0000
0000
,
0000
0000
0000
0000
,
1000
1000
0001
0001
,
1000
0000
0001
0000
0100
0010
0100
0010
,
2000
0000
3001
0200
0010
0000
1000
0000
,
0001
0000
0001
0000
0310
1000
0100
0000
,
0002
0000
1003
0020
0100
0000
0001
0000
,
0100
0000
0100
0000
1030
0001
0010
0000
,
0200
0000
0301
0020
1000
0000
0100
0000
,
0001
0000
0001
0000
0130
0010
0001
0000
,
2000
0000
3100
0002
1000
0000
0010
0000
,
1000
0000
1000
0000
0103
0001
1000
0000
,
1001
0000
0010
1000
0100
0010
0001
0000
,
1000
1100
0000
0001
0102
0000
0203
0000
,
0301
1000
0100
1000
0010
0100
0001
0020
,
0000
0032
0000
2003
0000
0100
3100
0000
,
0010
1000
1000
0100
1000
0001
0010
0010
,
0000
0011
0000
1000
2010
0000
3010
0120
,
0000
1000
1030
0001
0200
0010
0310
0000
,
1000
0100
0010
0001
1000
0010
0100
0001
,
1001
0000
0001
1000
0010
0000
1010
0000
,
0101
0000
0001
0100
1000
0100
0001
0000
,
2100
0000
3001
0012
0000
0103
0010
0120
,
0000
1000
1030
0010
0200
0010
0310
0000
,
0110
0000
0010
1000
0100
0000
1100
0000
,
0101
0000
1000
0010
0001
0010
1000
0000
,
1002
0000
1003
2010
0000
3001
0010
0021
,
0000
0001
0031
1000
0200
1000
1300
0000
,
1010
0000
0100
0010
0001
0000
0101
0000
,
0010
1000
0100
0010
0001
0100
1000
0000
,
2100
0000
3001
0201
0000
0310
0100
0120
,
0000
1000
1030
0010
0002
0100
0103
0000
,
1001
0000
0010
1000
0100
0000
0110
0000
,
0011
0000
0001
1000
0100
1000
0001
0000
,
2100
0000
3010
1020
0000
0130
0001
0102
,
0000
0010
0013
0001
0200
0001
0301
0000
,
1001
1000
0100
0002
0000
0013
0001
0200
,
0000
0010
0320
1000
0000
0130
0010
2000
,
0000
0000
3010
0100
0010
0000
1000
0000
0001
0000
1000
0000
0001
0000
0200
0000
,
0000
0010
0320
1000
0000
0130
0001
2000
,
0000
0000
0001
0000
3002
0000
0100
0000
0003
0000
0001
1000
0001
0000
0010
0000
,
0001
0000
1000
0010
1000
0000
0020
0000
0000
0000
0130
0000
0001
0000
2000
0000
,
0000
0000
3001
0100
0001
0000
0200
0000
0000
0000
0000
0000
0010
0000
0320
0000
,
0000
1000
1000
0000
0001
0000
0100
0000
,
1030
0010
0010
0010
0010
0000
1001
0000
,
0120
1000
0001
0001
,
1000
1000
0001
0001
,
1030
1100
0001
0101
,
1010
0000
0011
0000
1000
0100
0010
0001
,
0011
0000
1000
0001
0100
0000
0101
0000
,
1100
0000
0001
0010
1000
0010
0001
0000
,
1010
0000
0100
0210
0000
0310
1000
2001
,
0000
0100
3100
1000
0002
0010
0013
0000
,
0101
0000
1000
0100
0001
0000
1100
0000
,
0110
0000
0010
0001
0100
0001
0010
0000
,
1002
0000
0013
0021
0000
0031
1000
2010
,
0000
0001
3001
1000
0200
0010
0310
0000
,
0110
0000
0010
1000
0100
0010
0002
0000
,
0000
0000
1003
0100
1000
0000
0001
0000
0200
0000
0010
0000
0310
0000
0000
0000
,
1001
0000
1000
2100
0000
3001
1000
1020
,
0000
0100
0130
0010
1000
0001
0101
0000
,
0011
0000
0010
0001
0100
0010
1000
0000
,
1100
0000
0010
1000
0001
1000
0100
0000
,
0210
0000
0301
0021
0000
0031
1000
1002
,
0000
0100
0103
0001
2000
3010
1010
0000
,
0101
0000
0000
0000
;

//---------------dance-single - ----------------
#NOTEDATA:;
#CHARTNAME:;
#STEPSTYPE:dance-single;
#DESCRIPTION:;
#CHARTSTYLE:;
#DIFFICULTY:Medium;
#METER:9;
#RADARVALUES:0.351373,0.391849,0.136645,0.369745,0.000000,306.000000,289.000000,17.000000,46.000000,0.000000,0.000000,0.000000,0.000000,0.000000,0.351373,0.391849,0.136645,0.369745,0.000000,306.000000,289.000000,17.000000,46.000000,0.000000,0.000000,0.000000,0.000000,0.000000;
#CREDIT:;
#DISPLAYBPM:133.000000;
#NOTES:
0000
0000
0000
0000
,
0000
0000
0000
0000
,
1000
1000
0001
0001
,
1000
0000
0001
0000
0100
0010
0100
0010
,
2000
0000
0000
3002
0000
0000
0100
0000
,
0010
0100
1000
0103
,
0020
0000
0000
0230
0000
0000
0001
0000
,
0010
0001
1000
0310
,
2000
0000
0000
3020
0000
0000
0001
0000
,
1000
0001
0100
1030
,
0002
0000
0000
0203
0000
0000
0010
0000
,
1000
0001
1000
0310
,
1001
0000
0000
1000
0100
1000
0100
0000
,
0020
0000
0100
0031
,
1000
0100
1000
0000
0001
0100
0001
0000
,
2000
0001
0200
3300
,
0000
1000
0001
1000
0001
0000
0100
0000
,
0020
0000
0100
1030
,
0001
0000
1000
0100
1000
0000
0001
0000
,
0010
0100
0010
0200
0000
0000
1300
0001
,
2000
0000
0000
3020
0000
0000
0230
0000
,
0301
0000
1000
0100
2000
0000
3002
0000
,
0023
0000
0000
0230
0000
0000
1300
0001
,
1000
0100
1000
0000
0001
0100
0001
0000
,
0002
0000
0000
2003
0000
0000
3200
0000
,
0310
0000
0001
1000
0001
0000
0100
0000
,
0020
0000
0000
0230
0000
0000
0301
1000
,
0001
0010
0001
0000
1000
0010
1000
0000
,
0002
0000
0000
0203
0000
0000
0320
0000
,
1030
0000
0001
0010
0200
0000
2300
0000
,
3020
0000
0000
2030
0000
0000
3001
1000
,
0010
0100
0010
0000
1000
0001
1000
0000
,
0020
0000
0000
2030
0000
0000
3200
0000
,
1300
0000
0010
0100
0001
0000
0010
0000
,
0200
0000
0000
0320
0000
0000
0031
0100
,
0010
1000
0100
0000
0010
0001
0100
0000
,
1001
0000
0100
0000
0010
1000
0001
0000
,
0010
0100
2000
0000
0100
0000
3001
0000
,
0010
0001
0100
0000
0010
1000
0001
0000
,
1000
0100
0020
0000
1000
0000
0031
0000
,
0100
0001
2000
0000
0000
0000
3010
0100
,
0010
1000
0002
0000
0100
0000
0013
0000
,
1000
0001
1000
0200
0000
0000
0310
0002
,
0000
2000
0000
0000
0000
0000
3003
0000
,
0000
0010
0100
0010
0100
0000
0110
0000
,
1001
0100
0010
1000
,
0001
0010
0100
1000
,
0010
1000
0001
0100
,
0001
0010
0100
1000
,
1001
0000
0100
0010
1000
0000
0001
0000
,
0010
0000
0001
1000
0002
0000
0013
0000
,
0110
0000
0000
1001
0000
0000
0010
0100
,
0001
0010
0100
0000
1000
0010
0100
0000
,
0110
0000
0010
1000
0001
0000
0100
0000
,
0001
0000
0010
0100
2000
0000
3010
0000
,
1001
0000
0000
0110
0000
0000
1000
0001
,
0010
0100
0010
0000
0001
1000
0001
0000
,
0011
0000
0001
1000
0010
0000
0100
0000
,
0001
0010
0001
0010
0100
1000
0001
0000
,
1100
0000
0000
0101
0000
0000
0010
0000
,
1000
0001
1000
0010
0100
0010
1000
0000
,
1100
0000
1000
0010
0100
0000
0001
0000
,
0010
0000
0001
1000
0010
0000
0100
0000
,
0101
0000
0000
1100
0000
0000
1000
0001
,
1000
0010
0100
0010
1000
0001
0100
0000
,
0101
0000
0000
0000
;

//---------------dance-single - ----------------
#NOTEDATA:;
#CHARTNAME:;
#STEPSTYPE:dance-single;
#DESCRIPTION:;
#CHARTSTYLE:;
#DIFFICULTY:Easy;
#METER:6;
#RADARVALUES:0.257214,0.287356,0.208986,0.152721,0.000000,224.000000,198.000000,26.000000,19.000000,0.000000,0.000000,0.000000,0.000000,0.000000,0.257214,0.287356,0.208986,0.152721,0.000000,224.000000,198.000000,26.000000,19.000000,0.000000,0.000000,0.000000,0.000000,0.000000;
#CREDIT:;
#DISPLAYBPM:133.000000;
#NOTES:
0000
0000
0000
0000
,
0000
0000
0000
0000
,
1000
0000
0001
0000
,
1000
0001
1000
0001
,
0010
0000
0000
0200
0000
0000
0010
0000
,
0000
0001
0000
1300
,
0001
0000
0000
2000
0000
0000
0010
0000
,
0000
0100
0000
3001
,
0100
0000
0000
0002
0000
0000
0010
0000
,
0000
1000
0000
0103
,
1000
0000
0000
0020
0000
0000
0001
0000
,
0000
0100
0000
1030
,
1001
0000
0001
1000
,
0001
0000
0010
0100
,
1000
1000
0001
0001
,
0010
0100
1000
0000
,
0001
0100
0010
0100
,
0001
0000
1000
0000
,
0010
1000
0010
0000
,
1000
0100
0010
0001
,
1001
0000
0000
0020
0000
0000
0100
0000
,
0000
1030
0001
0010
,
0110
0000
0000
0200
0000
0000
0000
0000
,
1300
0001
0100
0100
,
0110
0000
0000
0002
0000
0000
0010
0000
,
0000
0103
0001
1000
,
1001
0000
0000
2000
0000
0000
0000
0000
,
3010
1000
0001
0001
,
0101
0000
0000
0002
0000
0000
1000
0000
,
0000
0103
0001
0010
,
0110
0000
0000
0200
0000
0000
0000
0000
,
0310
0001
0100
0100
,
1001
0000
0000
0020
0000
0000
0100
0000
,
0000
1030
0001
0010
,
1100
0000
0000
2000
0000
0000
0000
0000
,
3001
1000
0010
0110
,
0000
1001
0010
1000
,
0100
0020
0000
0031
,
0010
0001
1000
0100
,
1000
0002
0000
0003
,
0101
1000
0100
0010
,
0001
2000
0000
3010
,
1000
0100
0010
0001
,
0100
0010
0100
0010
,
1000
0001
1000
0001
,
1001
0000
0100
0000
,
0001
0000
1000
0000
,
0001
0000
0010
0000
,
0100
0000
1000
0000
,
1100
0000
0000
0102
0000
0000
0100
0000
,
0000
0013
0001
1000
,
1001
0000
0000
0210
0000
0000
0001
0000
,
0310
0100
0001
1000
,
1001
0000
0000
2100
0000
0000
0010
0000
,
0000
3100
1000
0001
,
0101
0000
0000
0120
0000
0000
1000
0000
,
0130
0010
1000
0001
,
0011
0001
0100
1000
,
0010
0010
0100
0100
,
1010
1000
0100
0010
,
0001
0001
1000
1000
,
1001
0010
1000
0100
,
1000
1000
0001
0001
,
0101
0010
1000
0100
,
1000
0001
1000
0001
,
1001
0000
0000
0000
;

//---------------dance-single - ----------------
#NOTEDATA:;
#CHARTNAME:;
#STEPSTYPE:dance-single;
#DESCRIPTION:;
#CHARTSTYLE:;
#DIFFICULTY:Beginner;
#METER:3;
#RADARVALUES:0.148128,0.235110,0.128607,0.000000,0.000000,129.000000,113.000000,16.000000,0.000000,0.000000,0.000000,0.000000,0.000000,0.000000,0.148128,0.235110,0.128607,0.000000,0.000000,129.000000,113.000000,16.000000,0.000000,0.000000,0.000000,0.000000,0.000000,0.000000;
#CREDIT:;
#DISPLAYBPM:133.000000;
#NOTES:
// measure 0
0000
0000
0000
0000
,  // measure 1
0000
0000
0000
0000
,  // measure 2
1000
0000
0001
0000
,  // measure 3
1000
0000
0001
0000
,  // measure 4
0100
0000
0100
0000
,  // measure 5
0000
0000
0000
0000
,  // measure 6
0010
0000
0010
0000
,  // measure 7
0000
0000
0000
0000
,  // measure 8
1000
0000
1000
0000
,  // measure 9
0000
0000
0000
0000
,  // measure 10
0001
0000
0001
0000
,  // measure 11
0000
0000
0000
0000
,  // measure 12
1001
0000
1000
0000
,  // measure 13
0001
0000
0000
0000
,  // measure 14
0010
0000
0100
0000
,  // measure 15
0010
0000
0000
0000
,  // measure 16
0001
0000
1000
0000
,  // measure 17
0100
0000
0000
0000
,  // measure 18
1000
0000
0001
0000
,  // measure 19
0100
0000
0010
0000
,  // measure 20
1001
0000
0000
0000
,  // measure 21
1000
0000
1000
0000
,  // measure 22
0001
0000
0001
0000
,  // measure 23
0100
0000
0010
0000
,  // measure 24
0110
0000
0000
0000
,  // measure 25
0010
0000
0010
0000
,  // measure 26
0100
0000
0100
0000
,  // measure 27
0001
0000
1000
0000
,  // measure 28
1001
0000
0000
0000
,  // measure 29
0010
0010
0010
0000
,  // measure 30
1000
0000
0001
0000
,  // measure 31
0100
0000
0100
0000
,  // measure 32
0110
0000
0000
0000
,  // measure 33
1000
1000
1000
0000
,  // measure 34
0001
0000
0100
0000
,  // measure 35
0010
0000
0010
0000
,  // measure 36
1000
0000
0001
0000
,  // measure 37
1000
0000
0001
0000
,  // measure 38
0010
0000
0100
0000
,  // measure 39
1000
0000
0001
0000
,  // measure 40
0100
0000
0010
0000
,  // measure 41
0100
0000
0001
0000
,  // measure 42
0010
0000
0100
0000
,  // measure 43
1000
0000
0000
0000
,  // measure 44
0001
0001
0001
0001
,  // measure 45
0001
0000
0000
0000
,  // measure 46
0010
0000
0000
0000
,  // measure 47
0100
0000
0000
0000
,  // measure 48
1000
0000
0000
0000
,  // measure 49
0110
0000
0000
0000
,  // measure 50
0001
0000
1000
0000
,  // measure 51
0010
0000
1000
0000
,  // measure 52
0001
0000
0100
0000
,  // measure 53
1001
0000
0000
0000
,  // measure 54
1000
0000
0100
0000
,  // measure 55
0010
0000
0100
0000
,  // measure 56
0010
0000
0001
0000
,  // measure 57
0110
0000
0110
0000
,  // measure 58
0001
0001
0001
0000
,  // measure 59
1001
0000
1001
0000
,  // measure 60
1000
1000
1000
0000
,  // measure 61
1001
0000
1001
0000
,  // measure 62
0100
0100
0100
0000
,  // measure 63
0110
0000
0110
0000
,  // measure 64
0010
0010
0010
0000
,  // measure 65
1001
0000
0000
0000
;
