#VERSION:0.83;
#TITLE:Dance Celebration (System 7 Remix);
#SUBTITLE:;
#ARTIST:Bill Hamel feat. Kevens;
#TITLETRANSLIT:;
#SUBTITLETRANSLIT:;
#ARTISTTRANSLIT:;
#GENRE:;
#ORIGIN:;
#CREDIT:;
#BANNER:Dance Celebration (System 7 Remix).png;
#BACKGROUND:Dance Celebration (System 7 Remix)-bg.png;
#PREVIEWVID:;
#JACKET:Dance Celebration (System 7 Remix)-jacket.png;
#CDIMAGE:;
#DISCIMAGE:;
#LYRICSPATH:;
#CDTITLE:;
#MUSIC:Dance Celebration (System 7 Remix).ogg;
#OFFSET:0.000000;
#SAMPLESTART:20.000000;
#SAMPLELENGTH:20.000000;
#SELECTABLE:YES;
#DISPLAYBPM:132.000000;
#BPMS:0.000=132.353,
4.000=131.998;
#STOPS:;
#DELAYS:;
#WARPS:;
#TIMESIGNATURES:0.000=4=4;
#TICKCOUNTS:0.000=4;
#COMBOS:0.000=1;
#SPEEDS:0.000=1.000=0.000=0;
#SCROLLS:0.000=1.000;
#FAKES:;
#LABELS:0.000=Song Start;
#BGCHANGES:;
#KEYSOUNDS:;
#ATTACKS:
;

//---------------dance-single - ----------------
#NOTEDATA:;
#CHARTNAME:;
#STEPSTYPE:dance-single;
#DESCRIPTION:;
#CHARTSTYLE:;
#DIFFICULTY:Beginner;
#METER:3;
#RADARVALUES:0.132934,0.160994,0.021149,0.031723,0.000000,88.000000,86.000000,2.000000,3.000000,0.000000,0.000000,0.000000,0.000000,0.000000,0.132934,0.160994,0.021149,0.031723,0.000000,88.000000,86.000000,2.000000,3.000000,0.000000,0.000000,0.000000,0.000000,0.000000;
#CREDIT:;
#DISPLAYBPM:132.000000;
#NOTES:
0000
0000
0000
0000
,
0000
0000
0000
0000
,
0000
0000
0000
0000
,
0010
0000
0000
0000
,
1000
0000
0000
0000
,
0100
0000
0000
0000
,
0001
0000
0000
0000
,
1000
0000
1000
0000
,
0001
0000
0001
0000
,
2000
0000
3000
0000
,
0002
0000
0003
0000
,
0001
0000
0001
0000
,
0010
0000
0001
0000
,
1000
0000
1000
0000
,
0010
0000
1000
0000
,
0001
0000
0001
0000
,
0010
0000
0001
0000
,
1000
0000
0000
0000
,
1001
0000
0000
0000
,
1000
1000
1000
0000
,
0001
0000
0010
0000
,
0100
0100
0100
0000
,
0010
0000
0001
0000
,
0010
0010
0010
0000
,
0100
0000
1000
0000
,
0001
0000
0000
0000
,
2000
0000
3000
0000
,
0010
0000
0010
0000
,
0001
0000
1000
0000
,
0010
0000
0010
0000
,
1000
0000
0001
0000
,
0010
0000
0010
0000
,
0001
0000
1000
0000
,
0001
0000
1000
0000
,
0010
0010
0000
0000
,
0010
0000
0000
0000
,
0001
0000
0000
0000
,
0100
0000
0000
0000
,
1000
0000
0000
0000
,
0100
0100
0000
0100
,
0000
0100
0000
0100
,
0000
0100
0000
0100
,
0100
0000
0000
0000
,
0010
0000
0001
0000
,
0010
0000
1000
0000
,
0001
0000
1000
0000
,
0001
0001
0001
0000
,
0010
0000
1000
0000
,
0010
0000
0001
0000
,
1000
0000
0001
0000
,
1000
0000
0000
1001
,
0000
0000
0000
0000
;

//---------------dance-single - ----------------
#NOTEDATA:;
#CHARTNAME:;
#STEPSTYPE:dance-single;
#DESCRIPTION:;
#CHARTSTYLE:;
#DIFFICULTY:Easy;
#METER:6;
#RADARVALUES:0.265868,0.429316,0.327803,0.179763,0.000000,176.000000,145.000000,31.000000,17.000000,0.000000,0.000000,0.000000,0.000000,0.000000,0.265868,0.429316,0.327803,0.179763,0.000000,176.000000,145.000000,31.000000,17.000000,0.000000,0.000000,0.000000,0.000000,0.000000;
#CREDIT:;
#DISPLAYBPM:132.000000;
#NOTES:
0000
0000
0000
0000
,
0000
0000
0000
0000
,
0000
0000
0000
0000
,
0010
0000
0010
0000
,
1000
0000
1000
0000
,
0100
0000
0100
0000
,
0001
0000
0001
0000
,
1000
0100
0001
0000
,
0001
0100
1000
0000
,
0200
0000
0000
0300
,
0020
0000
0000
0030
,
0001
0101
1000
1100
,
0010
0010
0100
0100
,
1000
1100
0001
0101
,
0010
0010
0100
0100
,
0001
0101
1000
1100
,
0010
0010
0100
0100
,
0001
0001
1000
1000
,
2002
0000
0000
3003
,
1000
0100
1000
0000
,
0001
0001
0010
0010
,
0100
1000
0100
0000
,
0010
0010
0001
1001
,
0010
0001
0010
0000
,
0100
0100
0010
0010
,
0001
0100
0001
0010
,
2000
0000
0000
3000
,
0010
1100
0010
1100
,
0001
0100
0010
0100
,
0010
0101
0010
0101
,
1000
0100
0010
0100
,
0010
1001
0010
1001
,
0010
0100
0010
0100
,
0001
0011
0100
1100
,
0010
0200
0000
0300
,
0020
0000
0000
0030
,
0002
0000
0000
0003
,
0200
0000
0000
0300
,
2000
0000
0000
3000
,
0002
0100
0000
0103
,
2000
0100
0000
3100
,
0002
0100
0000
0103
,
0220
0000
0000
0330
,
0010
0101
0010
0101
,
0010
1100
0010
1100
,
0010
1001
0010
1001
,
1000
0010
0100
0000
,
0010
0101
0010
0101
,
0010
1100
0010
1100
,
1001
1001
0110
1001
,
0020
0000
0230
0310
,
0000
0000
0000
0000
;

//---------------dance-single - ----------------
#NOTEDATA:;
#CHARTNAME:;
#STEPSTYPE:dance-single;
#DESCRIPTION:;
#CHARTSTYLE:;
#DIFFICULTY:Medium;
#METER:9;
#RADARVALUES:0.367079,0.429316,0.211486,0.359526,0.116317,243.000000,223.000000,20.000000,34.000000,0.000000,0.000000,0.000000,0.000000,0.000000,0.367079,0.429316,0.211486,0.359526,0.116317,243.000000,223.000000,20.000000,34.000000,0.000000,0.000000,0.000000,0.000000,0.000000;
#CREDIT:;
#DISPLAYBPM:132.000000;
#NOTES:
0000
0000
0000
0000
,
0000
0000
0000
0000
,
0000
0000
0000
0000
,
0002
0000
0200
0003
,
2000
0300
0200
3000
,
0002
0300
0200
0003
,
2000
0300
0200
3300
,
0001
0010
0100
0000
1000
0000
0010
0000
,
1000
0100
0001
0000
0100
0000
0110
0000
,
1000
0000
0000
1000
0000
0000
0001
0000
0000
0001
0000
0000
0020
0000
0000
0000
,
0200
0000
0000
0330
,
1000
0000
0000
1000
0001
0000
0000
0000
0100
0000
0000
0100
0010
0000
0000
0000
,
1000
0100
0001
0000
1000
0100
0001
0000
,
0100
0000
0000
0100
0010
0000
0000
0000
0001
0000
0000
0001
0100
0000
0000
0000
,
0010
0100
0001
0100
0010
0000
1001
0000
,
1000
0000
0000
1000
0100
0000
0000
0000
0010
0000
0000
0010
0001
0000
0000
0000
,
1000
0010
0001
0000
1000
0010
0001
0000
,
1010
0101
0020
0130
,
2002
0000
0000
3003
,
0010
0000
1100
0000
0010
0100
1000
0000
,
0001
0100
1000
0100
0001
0010
1000
0000
,
0010
0000
1001
0000
0010
1000
0100
0000
,
0010
0010
0100
0100
0010
0100
0110
0000
,
0001
0000
0011
0000
1000
0010
0100
0000
,
0010
0100
0001
1000
0100
0010
0100
0000
,
2000
0000
0002
3003
,
0010
0000
0000
0001
0000
0000
0100
0000
0000
1000
0000
0000
0100
0000
0000
0000
,
0001
0000
1100
0000
0010
0002
1003
0000
,
0010
1000
0100
0000
0010
0001
0100
0000
,
0010
0000
1001
0000
0100
0002
0013
0000
,
2000
0100
3200
1000
1300
0200
1300
0000
,
0001
0000
0110
0000
0010
0200
0301
0000
,
1000
0100
0001
0000
1000
0100
0001
0000
,
0010
0101
0010
1100
,
0002
0000
1000
1000
1000
1000
1003
0000
,
2000
0000
0200
3000
,
0002
0300
0200
0003
,
2000
0300
0200
3000
,
0002
0300
0200
0303
,
1000
1000
0010
0000
0000
0100
0101
0000
,
0001
0001
0010
0000
0000
0100
1100
0000
,
0001
0001
1000
0000
1000
0001
1000
0000
,
0220
0000
0000
0330
,
0001
0000
0000
0001
1000
0000
0000
0000
0010
0000
0000
0010
0100
0000
0000
0000
,
0001
0000
0000
0001
0010
0000
0000
0000
0100
0000
0000
0100
1000
0000
0000
0000
,
0010
0000
0000
0010
0100
0000
0000
0000
0001
0000
0000
0001
0010
0000
0000
0000
,
0001
0100
1000
0000
0001
0100
1000
0000
,
0100
0000
0000
0100
0010
0000
0000
0000
1000
0000
0000
1000
0001
0000
0000
0000
,
0010
0000
0000
0010
0001
0000
0000
0000
1000
0000
0000
1000
0010
0000
0000
0000
,
0101
0000
1010
0000
0100
2000
3010
0000
,
0200
0000
0000
1000
0000
0000
0010
0000
0000
0001
0300
0000
1001
0000
0000
0000
,
0000
0000
0000
0000
;

//---------------dance-single - ----------------
#NOTEDATA:;
#CHARTNAME:;
#STEPSTYPE:dance-single;
#DESCRIPTION:;
#CHARTSTYLE:;
#DIFFICULTY:Hard;
#METER:13;
#RADARVALUES:0.516630,0.644767,0.296080,0.338377,0.296080,342.000000,314.000000,28.000000,32.000000,0.000000,0.000000,0.000000,0.000000,0.000000,0.516630,0.644767,0.296080,0.338377,0.296080,342.000000,314.000000,28.000000,32.000000,0.000000,0.000000,0.000000,0.000000,0.000000;
#CREDIT:;
#DISPLAYBPM:132.000000;
#NOTES:
0000
0000
0000
0000
,
0000
0000
0000
0000
,
0000
0000
0000
0000
,
0020
0000
0002
0030
,
0200
0003
2000
0300
,
0020
3000
0002
0030
,
0200
0003
2000
3300
,
0010
0000
0100
0001
0010
0000
0000
0100
1000
0000
0001
1000
0100
0000
0000
0000
,
0010
0000
0001
0100
0010
0000
0000
0100
0001
0000
0010
0001
1000
0000
0000
0000
,
0110
0000
0000
1001
0000
0000
1010
0000
0000
0101
0000
0000
1001
0000
0000
0000
,
0200
0000
0000
0300
,
1100
0000
0001
0100
0010
0000
1000
0000
0001
0010
0100
0000
1000
0000
0100
0000
,
0010
0001
0100
0001
0010
0001
0100
0001
,
0101
0000
0010
1000
0010
0000
0100
0000
0001
0010
0100
0000
1000
0000
0010
0000
,
0100
0001
0100
1000
0100
0001
0100
0010
,
1001
0000
0010
1000
0100
0000
0010
0000
0001
0100
0010
0000
0100
0000
0001
0000
,
0010
0100
1000
0100
0010
0100
1000
0100
,
0011
0000
0000
0100
1000
0000
0000
0010
0100
0000
0000
0001
0010
0000
0001
0000
,
2002
0000
0000
3003
,
0100
0000
0000
0100
0001
0000
0000
0001
0010
0000
0000
0010
0001
0000
0000
0001
,
1000
0000
0000
1000
0010
0000
0000
0010
0100
0000
0001
0000
0010
0000
1000
0000
,
0010
0000
0000
0010
0001
0000
0000
0001
1000
0000
0000
1000
0100
0000
0000
0100
,
0010
0100
1000
0010
0100
0001
0010
0000
,
0001
0000
0000
0001
1000
0000
0000
1000
0010
0000
0000
0010
0100
0000
0000
0100
,
0001
0000
0000
0001
1000
0000
0000
1000
0100
0000
1000
0000
0010
0000
1000
0000
,
0002
0000
2000
3003
,
0110
0000
0000
1100
0000
0000
0101
0000
0000
0011
0000
0000
1100
0000
0000
0000
,
2000
0001
3001
0020
1000
1030
0010
0001
,
1000
0010
0001
0010
2000
0010
3010
0000
,
0200
0001
0301
0020
0100
0130
1000
0001
,
0100
1000
0100
0001
0020
0100
0130
0000
,
2000
0010
3010
2000
0100
3100
0010
0100
,
1000
0010
0100
0010
0200
0001
0301
0000
,
0010
0001
0100
0000
0010
1000
0100
0010
,
0100
0100
2000
0100
0100
0100
3100
0100
,
0020
0000
0002
0030
,
0200
0003
2000
0300
,
0020
3000
0002
0030
,
0200
0003
2000
3300
,
0001
0000
0010
0000
0011
0000
0000
1000
0100
0000
1000
0000
1010
0000
0000
0000
,
0001
0000
1000
0000
0110
0000
0000
0001
0100
0000
0010
0000
1010
0000
0000
0000
,
0100
0000
0010
0000
0110
0000
0000
0010
0001
0000
0100
0000
1100
0000
0000
0000
,
0020
0000
0000
0030
,
0011
0000
1000
0010
0100
0000
0001
0000
1000
0100
0010
0000
0001
0000
0010
0000
,
0110
0000
1000
0010
0100
0000
0010
0000
1000
0100
0010
0000
0100
0000
1000
0000
,
1010
0000
0100
0001
0100
0000
0010
0000
1000
0100
0010
0000
0001
0000
0100
0000
,
0010
1000
0010
0001
0010
1000
0010
0000
,
1001
0000
0100
0001
0010
0000
0100
0000
1000
0010
0100
0000
0010
0000
1000
0000
,
1100
0000
0010
0001
0100
0000
0010
0000
0100
0001
0010
0000
0100
0000
0010
0000
,
1100
0000
0000
0010
0001
0000
0000
0100
0010
0000
0000
1000
0100
0000
1000
0000
,
1010
0000
0100
0001
0000
1000
0010
0000
0100
0001
0000
0010
0100
0010
0000
0000
,
0000
0000
0000
0000
;

//---------------dance-double - ----------------
#NOTEDATA:;
#CHARTNAME:;
#STEPSTYPE:dance-double;
#DESCRIPTION:;
#CHARTSTYLE:;
#DIFFICULTY:Easy;
#METER:7;
#RADARVALUES:0.222060,0.268323,0.042297,0.306654,0.000000,147.000000,143.000000,4.000000,29.000000,0.000000,0.000000,0.000000,0.000000,0.000000,0.222060,0.268323,0.042297,0.306654,0.000000,147.000000,143.000000,4.000000,29.000000,0.000000,0.000000,0.000000,0.000000,0.000000;
#CREDIT:;
#DISPLAYBPM:132.000000;
#NOTES:
00000000
00000000
00000000
00000000
,
00000000
00000000
00000000
00000000
,
00000000
00000000
00000000
00000000
,
10000000
00000000
00000000
00000000
,
00010000
00000000
00000000
00000000
,
00001000
00000000
00000000
00000000
,
00000001
00000000
00000000
00000000
,
00000001
00000000
00001000
00000000
,
00000100
00000000
00010000
00000000
,
02000000
00000000
00000000
03000000
,
00200000
00000000
00000000
00300000
,
20000000
00010000
01000000
30010000
,
01000000
00010000
00001000
00000010
,
00000002
00000100
00000010
00000103
,
00000010
00001000
00000100
00010000
,
00002000
00000010
00010000
00003010
,
00010000
00100000
10000000
01000000
,
00010000
00001000
00010000
01000000
,
20000000
00000000
00000000
30000000
,
00100000
00100000
01000000
01000000
,
00010000
00001000
00000100
00000001
,
00000010
00000010
00000100
00000100
,
00010000
00001000
00010000
00011000
,
00100000
00100000
10000000
10000000
,
01000000
00010000
00001000
00000100
,
00000002
00000000
00000000
00000003
,
00002000
00000000
00000000
00003000
,
00000020
00000100
00001000
00000130
,
00001000
00010000
01000000
10000000
,
00020000
00100000
10000000
00130000
,
00001000
00010000
00000010
00000100
,
00000002
00000010
00001000
00000013
,
00000100
00001000
00010000
00100000
,
10000000
01000000
00010000
01000000
,
00001000
00020000
00000000
00030000
,
00002000
00000000
00000200
00003000
,
00000002
00000300
00000020
00000003
,
00002000
00000030
00020000
00003000
,
02000000
00030000
20000000
33000000
,
00010000
01000000
00000000
10000000
,
00100000
00010000
00000000
00001000
,
00000010
00000001
00000000
00001000
,
00000220
00000000
00000000
00000330
,
00002000
00010000
00000100
00013000
,
02000000
00010000
10000000
03010000
,
00200000
00001000
01000000
00301000
,
00010000
00001000
00000100
00000001
,
00000020
00001000
00000001
00001030
,
00020000
00001000
01000000
00031000
,
00010000
00100000
10000000
01000000
,
20020000
00000000
30030000
10010000
,
00000000
00000000
00000000
00000000
;

//---------------dance-double - ----------------
#NOTEDATA:;
#CHARTNAME:;
#STEPSTYPE:dance-double;
#DESCRIPTION:;
#CHARTSTYLE:;
#DIFFICULTY:Medium;
#METER:8;
#RADARVALUES:0.397291,0.482981,0.941112,0.095169,0.021149,263.000000,174.000000,89.000000,9.000000,0.000000,0.000000,0.000000,0.000000,0.000000,0.397291,0.482981,0.941112,0.095169,0.021149,263.000000,174.000000,89.000000,9.000000,0.000000,0.000000,0.000000,0.000000,0.000000;
#CREDIT:;
#DISPLAYBPM:132.000000;
#NOTES:
00000000
00000000
00000000
00000000
,
00000000
00000000
00000000
00000000
,
00000000
00000000
00000000
00000000
,
00000010
00000000
00000001
00000000
,
00000100
00000000
00001000
00000000
,
00100000
00000000
10000000
00000000
,
01000000
00000000
00010000
00000000
,
00000010
00001000
00000010
00000000
00000001
00000000
00000100
00000000
,
00001000
00010000
00001000
00000000
00100000
00000000
00010000
00000000
,
01000000
00000000
00000000
00001000
00000000
00000000
00010000
00000000
00000000
00000010
00000000
00000000
00001000
00000000
00000000
00000000
,
00000200
00000000
00000000
00000300
,
00001010
00001010
00000011
00001010
,
00011000
00010010
00011000
00101000
,
10100000
10100000
01010000
10100000
,
01010000
00011000
00001100
00000101
,
00000011
00001100
00001010
00000101
,
00010010
00001100
00101000
01010000
,
10010000
10010000
01100000
10010000
,
02000000
00000000
00000000
03000000
,
00100000
10000000
00100000
00000000
01000000
00010000
01000000
00000000
,
00001000
00010000
00001000
00000000
00000010
00000001
00000010
00000000
,
00000100
00010000
00000100
00000000
00001000
00100000
00001000
00000000
,
00010000
00100000
10000000
01100000
,
00001000
00100000
00001000
00000000
01000000
00010000
01000000
00000000
,
00001000
00010000
00001000
00000000
00000100
00000010
00000100
00000000
,
00000002
00000000
00000020
00000033
,
00002200
00000000
00000000
00003300
,
00000101
00000101
00001100
00000101
,
00000011
00001010
00011000
00110000
,
11000000
11000000
01010000
11000000
,
10100000
00110000
00011000
00001010
,
00010100
00010010
01001000
00101000
,
00110000
10100000
11000000
01010000
,
00011000
00011000
00010010
00001100
,
00000110
00002002
00000000
00003003
,
00000010
00000000
00000001
00000000
,
00000100
00000000
00001000
00000000
,
00100000
00000000
10000000
00000000
,
01000000
00000000
00010000
00000000
,
00001000
00000000
00000010
00000000
00000000
00000100
00000010
00000000
,
00000001
00000000
00000100
00000000
00000000
00001000
00010000
00000000
,
00100000
00000000
00010000
00000000
00000000
10000000
00100000
00000000
,
02000000
00000000
00000000
03000000
,
11000000
11000000
00110000
11000000
,
01010000
01010000
00011000
00001010
,
00000110
00001001
00000110
00001001
,
00010010
00010100
00101000
01001000
,
11000000
11000000
01010000
11000000
,
10010000
10010000
00011000
00001001
,
00001010
00000101
00000011
00001100
,
00000001
00000000
00000000
00000100
00000000
00000000
00001000
00000000
00000000
00010000
00000000
00000000
00011000
00000000
00000000
00000000
,
00000000
00000000
00000000
00000000
;

//---------------dance-double - ----------------
#NOTEDATA:;
#CHARTNAME:;
#STEPSTYPE:dance-double;
#DESCRIPTION:;
#CHARTSTYLE:;
#DIFFICULTY:Hard;
#METER:13;
#RADARVALUES:0.481885,0.591037,0.126891,0.158614,0.359526,319.000000,307.000000,12.000000,15.000000,0.000000,0.000000,0.000000,0.000000,0.000000,0.481885,0.591037,0.126891,0.158614,0.359526,319.000000,307.000000,12.000000,15.000000,0.000000,0.000000,0.000000,0.000000,0.000000;
#CREDIT:;
#DISPLAYBPM:132.000000;
#NOTES:
00000000
00000000
00000000
00000000
,
00000000
00000000
00000000
00000000
,
00000000
00000000
00000000
00000000
,
20000000
00000000
00020000
30000000
,
00002000
00030000
00003001
00001000
,
00000002
00000000
00002000
00000003
,
00020000
00003000
10030000
00010000
,
00100000
00000000
01000000
10000000
00100000
00000000
00000000
10000000
01000000
00000000
00010000
00000000
00001000
00000000
00000000
00000000
,
00000010
00000000
00000001
00000100
00000010
00000000
00000000
00000100
00000001
00000000
00001000
00000000
00000100
00000000
00000000
00000000
,
00010000
00000000
00000000
00011000
00000000
00000000
00100000
00000000
00000000
10010000
00000000
00000000
00100000
00000000
00000000
00000000
,
02000000
00000000
00000000
03000000
,
00100000
00000000
00010000
01000000
00100000
00000000
10000000
00000000
00100000
00010000
00001000
00000000
00000010
00000000
00000001
00000000
,
00000010
00000000
00000000
00000010
00000100
00000000
00000000
00000100
00001000
00000000
00000000
00001000
00000010
00000000
00000000
00000010
,
00000100
00000000
00000001
00000010
00000100
00000000
00010000
00000000
00001000
00100000
00010000
00000000
10000000
00000000
01000000
00000000
,
00100000
00000000
00000000
00100000
00001000
00000000
00000000
00001000
01000000
00000000
00100000
00000000
10010000
00000000
00000000
00000000
,
01000000
00000000
00100000
00001000
00010000
00000000
00001000
00000000
00000010
00000001
00001000
00000000
00000010
00000000
00000100
00000000
,
00001000
00000000
00000000
00001000
00010000
00000000
00000000
00010000
00000100
00000000
00000000
00000100
00000010
00000000
00000000
00000010
,
00001000
00010000
00100000
00000000
01000000
00001000
00100000
00000000
,
20020000
00000000
00000000
30030000
,
00100000
00000000
00000000
00100000
10000000
00000000
00000000
10000000
01000000
00000000
00000000
01000000
00010000
00000000
00000000
00010000
,
00001000
00000000
00000000
00001000
00000100
00000000
00000000
00000100
00000001
00000000
00000000
00000001
00000010
00000000
00000000
00000010
,
00001000
00000000
00000000
00001000
00010000
00000000
00000000
00010000
00100000
00000000
00000000
00100000
10000000
00000000
00000000
10000000
,
00010000
00000000
00000000
00010000
00001000
00000000
00000000
00001000
00000001
00000000
00000000
00000000
00001001
00000000
00000000
00000000
,
00000010
00000000
00000000
00010000
00001000
00000000
00000000
01000000
00100000
00000000
00000000
10000000
01000000
00000000
00000000
00010000
,
00000010
00000000
00000000
00001000
00000100
00000000
00000000
00010000
00001000
00000000
00000000
00000010
00000001
00000000
00001000
00000000
,
00000020
00000000
00000200
00000330
,
00011000
00000000
00000000
00001010
00000000
00000000
00010100
00000000
00000000
00101000
00000000
00000000
10010000
00000000
00000000
00000000
,
00100000
10000000
01000000
10000000
00100000
10000000
01000000
10000000
,
00100000
00010000
00001000
00000010
00000001
00001000
00000010
00000100
,
00000001
00000100
00001000
00000100
00000001
00000100
00001000
00000100
,
00000001
00000010
00000100
00010000
00001000
01000000
00100000
00000000
,
10000000
00010000
00100000
00010000
10000000
00010000
00100000
00010000
,
01000000
00100000
00010000
00001000
00000010
00000001
00001000
00000010
,
00000100
00000001
00000100
00000000
00001000
00010000
00001000
00000000
,
01000000
00200000
00000000
00300000
,
00020000
00000000
00100000
00000000
,
10000000
00000000
01000000
00030000
,
00002000
00000000
00000010
00000000
,
00000001
00000000
00000100
00003000
,
00010000
00000000
00001000
00000000
00000100
00000000
00000000
00000001
00000010
00000000
00000001
00000000
00000100
00000000
00000000
00000000
,
00000001
00000000
00001000
00000000
00000100
00000000
00000000
00010000
00001000
00000000
00100000
00000000
01000000
00000000
00000000
00000000
,
10000000
00000000
00010000
00000000
01000000
00000000
00000000
00001000
00010000
00000000
00100000
00000000
10000000
00000000
00000000
00000000
,
00020000
00000000
00000000
00030000
,
01000000
00000000
00010000
00100000
01000000
00000000
10000000
00000000
00100000
00010000
00001000
00000000
00000100
00000000
00000001
00000000
,
00000010
00000000
00000100
00001000
00010000
00000000
00100000
00000000
01000000
10000000
00100000
00000000
01000000
00000000
00010000
00000000
,
00100000
00000000
00001000
00010000
00000010
00000000
00001000
00000000
00000100
00010000
00000010
00000000
00000100
00000000
00000001
00000000
,
00000010
00000000
00000000
00000010
00001000
00000000
00000000
00001000
00010000
00000000
00001000
00000000
00011000
00000000
00000000
00000000
,
00100000
00000000
01000000
10000000
00010000
00000000
00100000
00000000
00001000
00010000
00100000
00000000
01000000
00000000
00010000
00000000
,
00001000
00000000
00000100
00000010
00000001
00000000
00001000
00000000
00000010
00000100
00000001
00000000
00001000
00000000
00000100
00000000
,
00000010
00001000
00000010
00000000
00001000
00010000
00001000
00000000
01000000
10000000
01000000
00000000
00100000
00000000
00000000
00000000
,
10010000
00000000
10000000
01000000
00000000
10000000
00100000
00000000
10000000
01000000
00000000
10000000
00010000
10000000
00000000
00000000
,
00000000
00000000
00000000
00000000
;

//---------------dance-single - ----------------
#NOTEDATA:;
#CHARTNAME:;
#STEPSTYPE:dance-single;
#DESCRIPTION:;
#CHARTSTYLE:;
#DIFFICULTY:Challenge;
#METER:16;
#RADARVALUES:0.791561,0.833849,0.475843,0.042297,0.750775,524.000000,479.000000,45.000000,4.000000,0.000000,0.000000,0.000000,0.000000,0.000000,0.791561,0.833849,0.475843,0.042297,0.750775,524.000000,479.000000,45.000000,4.000000,0.000000,0.000000,0.000000,0.000000,0.000000;
#CREDIT:;
#DISPLAYBPM:132.000000;
#NOTES:
// measure 0
0000
0000
0000
0000
,  // measure 1
0000
0000
0000
0000
,  // measure 2
0000
0000
0000
0000
,  // measure 3
1001
0001
0100
1000
0000
0010
1000
0100
,  // measure 4
0000
0010
0001
0100
0000
0001
0010
0100
,  // measure 5
0000
0010
0100
1000
0000
0001
0100
0010
,  // measure 6
0000
1000
0001
0010
0000
0001
0100
1000
,  // measure 7
1001
0000
0001
0000
0100
0010
0100
0000
0001
0000
0010
0000
0100
1000
0100
0000
,  // measure 8
1000
0000
0001
0000
0010
0100
0010
0000
0001
0000
0100
0000
0001
1000
0001
0000
,  // measure 9
0011
0000
0000
0101
0000
0000
1001
0000
0000
1010
0000
0000
1100
0000
0110
0000
,  // measure 10
0011
0000
0000
1001
0000
0000
1100
0000
0000
1001
0000
0000
0011
0000
0000
0000
,  // measure 11
1001
0000
0010
1000
0010
0000
0110
0000
0100
0001
0100
0000
0001
0000
0010
0100
,  // measure 12
1000
0000
0100
0000
0001
0000
0010
0000
0100
0000
1000
0000
1000
0010
0100
0000
,  // measure 13
0110
0000
0010
0100
0001
0000
0011
0000
0010
0100
1000
0000
0001
0000
1000
0010
,  // measure 14
0100
0000
0010
0000
1000
0000
0100
0000
0010
0000
0001
0000
0001
0100
1000
0000
,  // measure 15
1100
0000
0010
1000
0001
0000
0101
0000
0010
0100
1000
0000
0001
0000
1000
0010
,  // measure 16
0100
0000
0001
0000
0010
0000
0100
0000
1000
0000
0010
0000
0010
1000
0100
0000
,  // measure 17
0010
0001
0100
0001
1000
0100
0010
0001
,  // measure 18
1000
0100
1000
0001
0100
0001
1000
0100
1000
0001
0100
0001
1000
0100
0010
0001
,  // measure 19
0100
0010
0000
0010
1000
0010
0000
0010
1000
0100
0010
0001
0100
0000
0000
0000
,  // measure 20
0011
0000
0011
0000
0001
1000
0000
0010
0000
1000
0100
0010
0000
0001
0000
1000
,  // measure 21
0010
0100
0000
0100
0001
0100
0000
0100
0010
1000
0001
1000
0100
0000
0000
0000
,  // measure 22
1100
0000
1100
0000
1000
0010
0000
0100
0000
0001
0010
0001
0100
0010
1000
0000
,  // measure 23
0001
0000
0100
0000
0010
0000
1000
0000
0001
0010
0100
1000
0100
0000
0000
0000
,  // measure 24
1001
0000
1001
0000
1000
0001
0000
0010
0000
0001
0100
0010
1000
0100
1000
0000
,  // measure 25
0001
0100
1000
0100
0001
0000
1000
0010
0001
0010
1000
0000
0010
0100
0010
0100
,  // measure 26
0002
0000
0000
0023
0000
0000
0230
0000
0000
2300
0000
0000
3010
0000
0000
0000
,  // measure 27
1001
0000
1000
0100
0010
0000
0101
0000
0010
1000
0001
0000
0100
0000
0010
1000
,  // measure 28
0100
0010
0001
0100
1000
0010
0100
0010
,  // measure 29
0110
0000
0010
1000
0001
0000
1010
0000
1000
0010
0100
0000
0001
0000
0010
0001
,  // measure 30
0100
0010
1000
0100
0001
1000
0010
0100
,  // measure 31
0110
0000
0010
1000
0100
0000
1001
0000
0010
0100
0001
0000
1000
0000
0100
1000
,  // measure 32
0010
0100
0001
0010
0100
1000
0010
0100
,  // measure 33
0001
1000
0100
0010
0001
0100
1000
0010
,  // measure 34
0100
0000
0010
0000
1000
0100
1000
0100
0010
0001
0010
0001
1000
0010
0100
0001
,  // measure 35
0010
0100
0001
1000
0000
0010
0100
0001
,  // measure 36
0000
0010
0011
0001
0000
1000
1100
0100
,  // measure 37
1000
0001
0011
0001
0100
0010
1010
1000
,  // measure 38
0100
0010
0011
1000
0010
0100
1001
0001
,  // measure 39
0011
0000
0010
0100
1000
0000
0010
0100
0001
1000
0100
0010
0001
0000
0000
0000
,  // measure 40
1010
0000
1000
0001
0100
0000
0010
1000
0100
0010
0001
0100
0001
0000
0000
0000
,  // measure 41
0110
0000
0010
1000
0001
0000
0100
0001
1000
0100
1000
0010
0100
0000
0000
0000
,  // measure 42
0001
0100
0001
1000
0100
1000
0001
0100
0001
1000
0100
1000
0001
0010
0100
1000
,  // measure 43
0010
1000
0100
0010
0001
0000
0100
0001
0010
0100
1000
0000
0101
0000
0000
0000
,  // measure 44
0001
0010
1000
0010
0001
0000
1000
0100
0001
0100
1000
0000
0110
0000
0000
0000
,  // measure 45
0010
1000
0001
0010
0100
0000
1000
0010
0100
0001
1000
0000
0001
1000
0100
0010
,  // measure 46
1000
0001
0100
0010
0100
0000
0001
1000
0001
0010
0100
0000
1010
0000
0000
0000
,  // measure 47
0010
1000
0001
1000
0100
0000
0010
0001
0100
0010
1000
0000
0110
0000
0000
0000
,  // measure 48
1000
0001
0100
0010
1000
0000
0010
0001
0010
1000
0100
0000
1001
0000
0000
0000
,  // measure 49
1000
0100
0010
0001
1000
0100
0001
1000
0010
0001
0100
0010
0001
0100
0010
1000
,  // measure 50
0001
0010
0100
1000
0100
0010
0001
0010
0100
1000
0100
0010
0001
1000
0001
0000
;
