#TITLE:Dakota;
#SUBTITLE:;
#ARTIST:Stereophonics;
#TITLETRANSLIT:;
#SUBTITLETRANSLIT:;
#ARTISTTRANSLIT:;
#GENRE:;
#CREDIT:;
#BANNER:Dakota-bn.png;
#BACKGROUND:Dakota-bg.png;
#LYRICSPATH:;
#CDTITLE:;
#MUSIC:Dakota.ogg;
#OFFSET:1.250000;
#SAMPLESTART:38.954082;
#SAMPLELENGTH:20.000000;
#LASTBEATHINT:0.612500;
#SELECTABLE:YES;
#DISPLAYBPM:147.000000;
#BPMS:0.000000=147.000000
;
#STOPS:
;
#BGCHANGES:;
#KEYSOUNDS:;
#ATTACKS:;

//---------------dance-single - ----------------
#NOTES:
     dance-single:
     :
     Hard:
     12:
     0.541987,0.554235,0.229694,0.095046,0.000000,479.000000,450.000000,29.000000,12.000000,0.000000,0.000000,0.541987,0.554235,0.229694,0.095046,0.000000,479.000000,450.000000,29.000000,12.000000,0.000000,0.000000:
0000
0000
0000
0000
,
0000
0000
0000
0000
,
0000
0000
0000
0000
,
0000
0000
0000
0000
,
0000
0000
0000
0000
,
0000
0000
0000
0000
,
0000
0000
0000
0000
,
0000
0000
0000
0000
,
0000
0000
0000
0000
,
0001
0000
0100
0000
0001
1000
0010
0000
,
1000
0100
0010
0100
0001
0100
1000
0001
,
0010
0000
0100
0000
0010
0001
1000
0000
,
0001
0010
0100
0010
1000
0010
0001
0100
,
0000
0010
1000
0001
0000
0010
0100
1000
,
0000
0001
0100
0010
0001
0010
1000
0100
,
0010
0000
0001
0000
0100
0010
1000
0000
,
0001
0100
1000
0000
0010
1000
0001
0000
,
0100
0000
0001
0000
1000
0010
0100
0000
,
0010
0001
0010
1000
0100
0010
0100
1000
,
0010
0000
1000
0000
0100
0010
0001
0000
,
0100
1000
0100
0010
1000
0001
0010
0100
,
0000
1000
0010
0001
0000
0100
0001
1000
,
0010
0001
0010
0100
0001
0010
1000
0010
,
0001
0100
0010
0100
0001
0010
1000
0010
,
0100
0010
0001
0100
0010
1000
0001
0100
,
1001
0000
0001
0100
0010
1000
0100
0010
,
0001
0000
0001
0100
0010
0000
1000
0100
,
0010
0000
0010
0001
0100
1000
0100
0010
,
1000
0000
1000
0001
0010
0000
0100
0010
,
0001
0100
1000
0100
0001
0100
0010
0100
,
1000
0100
0010
0100
0001
0000
1000
0100
,
0010
1000
0010
0100
0010
1000
0010
0001
,
0100
0010
1000
0100
0001
0100
1000
0010
,
1001
0000
1000
0100
0001
0100
0010
0001
,
0100
0000
0100
0001
1000
0000
0010
1000
,
0001
0000
0001
0010
0100
0001
0100
1000
,
0010
0000
0010
0100
0001
0000
1000
0100
,
1000
0010
0001
0010
0100
0010
0001
0010
,
1000
0100
0001
0100
1000
0000
0010
0100
,
0001
0010
1000
0010
0100
0010
0001
0000
,
1000
0010
0100
0001
0010
0100
0110
0000
,
1002
0000
0103
0010
2010
0000
3100
1000
,
1200
0000
1300
0001
0012
0000
0103
0010
,
0120
0000
1030
0001
0201
0000
0310
0100
,
0210
0000
1300
0010
1000
0100
0010
0001
,
0100
0010
1000
0000
1100
0000
0101
0000
,
0001
0010
1000
0000
1001
0000
0110
0000
,
0010
0100
0001
0000
0011
0000
1010
0000
,
0010
1000
0100
0010
0001
0100
1000
0000
,
1001
0100
0010
1000
0001
0100
1000
0000
,
0010
0100
0010
1000
0100
0010
0001
0000
,
0011
0001
0100
0010
1000
0100
0001
0000
,
0010
0001
1000
0010
1000
0100
0001
0000
,
1100
0001
0100
1000
0100
0010
1000
0000
,
0100
0010
0001
0100
0010
1000
0001
0000
,
0101
1000
0001
0010
1000
0010
0001
0000
,
0100
1000
0100
0001
1000
0010
0100
0000
,
0110
0010
0100
0001
0010
0100
1000
0010
,
0001
0010
0100
0010
1000
0100
0001
0000
,
1010
0100
0010
0001
0010
1000
0100
0010
,
0001
0100
0010
0001
0010
1000
0001
0000
,
1100
0010
0100
1000
0001
0100
0010
0001
,
0010
1000
0001
0010
0100
1000
0001
0000
,
0011
0001
1000
0010
0100
0010
1000
0100
,
0001
0100
1000
0010
0100
0001
1000
0000
,
2001
0010
0001
3100
,
1000
0001
1000
0010
0100
0001
1000
0000
,
0201
1000
0010
0301
,
1000
0001
0010
0100
0010
0001
1000
0000
,
2100
0010
0100
3001
,
0100
0001
0010
0001
1000
0100
0001
0000
,
0120
0001
0100
1030
,
0010
0100
0001
0010
0001
0100
1000
0000
,
1001
0010
0100
0001
,
0010
0100
1000
0001
,
1000
0010
0100
0010
0001
0010
1000
0001
,
0010
1000
0010
0100
0010
0001
1000
0010
,
0200
0000
0000
0300
;

//---------------dance-single - ----------------
#NOTES:
     dance-single:
     :
     Medium:
     10:
     0.401681,0.461863,0.174251,0.332660,0.000000,355.000000,333.000000,22.000000,42.000000,0.000000,0.000000,0.401681,0.461863,0.174251,0.332660,0.000000,355.000000,333.000000,22.000000,42.000000,0.000000,0.000000:
0000
0000
0000
0000
,
0000
0000
0000
0000
,
0000
0000
0000
0000
,
0000
0000
0000
0000
,
0000
0000
0000
0000
,
0000
0000
0000
0000
,
0000
0000
0000
0000
,
0000
0000
0000
0000
,
0000
0000
0000
0000
,
0001
0100
1000
0100
,
0001
1000
0100
0000
1000
0010
0100
0001
,
0010
0100
1000
0001
,
0100
0010
0100
0000
0001
0010
0100
1000
,
0000
0001
0000
1000
0000
0010
0000
0100
,
0000
1000
0001
0010
0001
0100
0010
1000
,
0100
0010
0001
0100
,
1000
0100
0001
0010
,
0001
1000
0010
0100
,
0010
1000
0100
0000
1000
0010
0100
0001
,
0010
0100
0010
0001
,
0100
0001
1000
0000
0001
0010
0100
1000
,
0000
0010
0000
0100
0000
0001
0000
1000
,
0000
0001
1000
0010
1000
0100
0010
0001
,
0100
0010
1000
0000
0001
0010
1000
0000
,
0001
0100
0010
1000
0100
0010
0001
0000
,
1001
0000
0010
0000
1000
0100
0001
0000
,
0010
0000
0100
0000
0010
0001
1000
0000
,
0010
0000
1000
0000
0100
0010
0001
0000
,
0100
0000
0010
0000
1000
0001
0100
0000
,
0010
0000
0100
0000
0001
0010
1000
0000
,
0001
0100
0010
1000
0100
0000
1010
0000
,
0001
0000
0010
0000
0001
0100
1000
0000
,
0010
1000
0100
0010
0001
0100
1000
0000
,
1001
0000
0010
0000
0100
0001
1000
0000
,
0100
0000
0010
0000
0100
1000
0001
0000
,
0100
0000
0001
0000
0010
0100
0010
0000
,
0001
0000
1000
0000
0010
1000
0100
0000
,
1000
0000
0001
0000
0010
0100
1000
0000
,
0001
0100
0010
1000
0001
0000
0011
0000
,
0001
0100
0010
1000
0100
0000
2100
0000
,
0001
0000
0001
0000
3001
1000
0110
0000
,
1002
0013
0021
0130
,
2100
3001
0201
0310
,
0210
0301
1002
0103
,
0120
0000
1030
0000
0001
0010
0100
1000
,
0020
0230
0302
2003
,
3002
0023
0230
0320
,
0032
0203
0320
2030
,
3200
0000
0320
0000
0031
1000
0100
0000
,
1000
0100
0002
0000
1000
0000
0103
0000
,
0001
0000
1000
0000
0010
0100
0001
0000
,
0010
0100
2000
0000
0001
0000
3010
0000
,
1000
0000
0100
0000
1000
0001
0100
0000
,
0010
1000
0200
0000
0001
0000
0310
0000
,
0100
0000
1000
0000
0001
0100
1000
0000
,
0010
0100
0002
0000
0010
0000
1003
0000
,
0001
0000
0100
0010
1000
0010
0100
0000
,
1001
0010
2000
0000
0001
0000
3100
0000
,
0010
0000
0100
0001
0010
0100
1000
0000
,
0101
0100
0020
0000
0001
0000
1030
0000
,
0010
0000
1000
0001
0010
0100
1000
0000
,
1100
0001
0200
0000
1000
0000
0310
0000
,
0100
0000
0001
0010
0001
0100
1000
0000
,
0110
0010
2000
0000
0001
0000
3100
0000
,
0001
0000
1000
0100
0010
0001
0100
0000
,
2002
0000
0000
3003
,
0000
0000
0010
1000
0001
1000
0100
0000
,
0022
0000
0000
0033
,
0000
0000
0001
0100
0010
1000
0010
0000
,
2200
0000
0000
3300
,
0000
0000
1000
0001
1000
0010
0100
0000
,
0220
0000
0000
0330
,
0000
0000
0100
0001
0010
0001
1000
0000
,
2001
3010
2000
3001
,
0020
1000
0001
0130
,
0001
0001
0100
0100
,
1000
1000
0010
0010
,
0200
0000
0000
0300
;

//---------------dance-single - ----------------
#NOTES:
     dance-single:
     :
     Easy:
     6:
     0.237614,0.307909,0.142569,0.126728,0.000000,210.000000,192.000000,18.000000,16.000000,0.000000,0.000000,0.237614,0.307909,0.142569,0.126728,0.000000,210.000000,192.000000,18.000000,16.000000,0.000000,0.000000:
0000
0000
0000
0000
,
0000
0000
0000
0000
,
0000
0000
0000
0000
,
0000
0000
0000
0000
,
0000
0000
0000
0000
,
0000
0000
0000
0000
,
0000
0000
0000
0000
,
0000
0000
0000
0000
,
0000
0000
0000
0000
,
0001
0000
0000
0000
,
1000
0010
1000
0100
,
0010
0000
0000
0000
,
0001
0100
0001
0010
,
0100
0000
0100
0000
,
1000
0010
0100
0001
,
0010
0000
0001
0000
,
1000
0000
0010
0000
,
0100
0000
0000
0000
,
0001
1000
0100
0010
,
0100
0000
0000
0000
,
1000
0001
1000
0010
,
0100
0000
0001
0000
,
0010
0001
0100
0010
,
1000
1000
1000
1000
,
0001
0001
1000
0010
,
1001
0000
0001
0100
,
2000
3000
0010
0100
,
0010
0000
1000
0100
,
0002
0003
0010
0001
,
0100
0010
0100
0001
,
0010
0100
1000
0110
,
0001
0010
0001
1000
,
0010
1000
0100
0010
,
1001
0000
0010
0001
,
0200
0300
0001
1000
,
0001
0000
1000
0100
,
0020
0030
0001
0100
,
0001
0010
0001
0100
,
0010
1000
0100
0110
,
0001
1000
0010
0200
,
0000
0000
0300
0110
,
0002
0003
2000
3000
,
0020
0030
0200
0300
,
0002
0003
0020
0030
,
0200
0300
2000
3000
,
0001
0100
0001
0000
,
0010
0100
1000
0000
,
0001
0100
1000
0000
,
0001
0100
0010
1000
,
1001
0010
0000
0000
,
1000
0001
0010
0100
,
0110
0001
0000
0000
,
1000
0001
1000
0010
,
1001
1000
0000
0000
,
0001
0100
1000
0010
,
0110
0100
0000
0000
,
0010
0100
0001
1000
,
1100
0001
0000
0000
,
1000
0010
1000
0001
,
0011
0100
0000
0000
,
0001
1000
0010
1000
,
1100
1000
0000
0000
,
0010
0100
0001
1000
,
0011
0010
0000
0000
,
0001
0100
1000
0010
,
1001
0000
0000
0000
,
0000
0010
0100
0010
,
0110
0000
0000
0000
,
0000
1000
0001
1000
,
1100
0000
0000
0000
,
0000
0010
0001
0010
,
0011
0000
0000
0000
,
0000
1000
0001
1000
,
2002
0000
0000
0000
,
0000
0000
0000
0003
,
0010
0010
0010
0010
,
0010
0010
0010
3010
,
0200
0000
0000
0300
;

//---------------dance-single - ----------------
#NOTES:
     dance-single:
     :
     Beginner:
     1:
     0.100703,0.182963,0.095046,0.000000,0.000000,89.000000,77.000000,12.000000,0.000000,0.000000,0.000000,0.100703,0.182963,0.095046,0.000000,0.000000,89.000000,77.000000,12.000000,0.000000,0.000000,0.000000:
// measure 0
0000
0000
0000
0000
,  // measure 1
0000
0000
0000
0000
,  // measure 2
0000
0000
0000
0000
,  // measure 3
0000
0000
0000
0000
,  // measure 4
0000
0000
0000
0000
,  // measure 5
0000
0000
0000
0000
,  // measure 6
0000
0000
0000
0000
,  // measure 7
0000
0000
0000
0000
,  // measure 8
0000
0000
0000
0000
,  // measure 9
0000
0000
0000
0000
,  // measure 10
0001
0000
0001
0000
,  // measure 11
0001
0000
0000
0000
,  // measure 12
1000
0000
1000
0000
,  // measure 13
1000
0000
0000
0000
,  // measure 14
0000
0000
0010
0000
,  // measure 15
0100
0000
0000
0000
,  // measure 16
0000
0000
0000
0000
,  // measure 17
0000
0000
0000
0000
,  // measure 18
0010
0000
0010
0000
,  // measure 19
0010
0000
0000
0000
,  // measure 20
0100
0000
0100
0000
,  // measure 21
0100
0000
0000
0000
,  // measure 22
0000
0000
0001
0000
,  // measure 23
1000
0000
0000
0000
,  // measure 24
0000
0000
0000
0000
,  // measure 25
1001
0000
1000
0000
,  // measure 26
0001
0000
1000
0000
,  // measure 27
0001
0000
0100
0000
,  // measure 28
0010
0000
0100
0000
,  // measure 29
0010
0000
0000
0000
,  // measure 30
0000
0000
0000
0000
,  // measure 31
1000
0000
0000
0000
,  // measure 32
0000
0000
0000
0000
,  // measure 33
1001
0000
0001
0000
,  // measure 34
1000
0000
0001
0000
,  // measure 35
1000
0000
0010
0000
,  // measure 36
0100
0000
0010
0000
,  // measure 37
0100
0000
0000
0000
,  // measure 38
0000
0000
0000
0000
,  // measure 39
0001
0000
0000
0000
,  // measure 40
0000
0000
0000
0000
,  // measure 41
0010
0000
0010
0000
,  // measure 42
0001
0000
0001
0000
,  // measure 43
0100
0000
0100
0000
,  // measure 44
1000
0000
1000
0000
,  // measure 45
1001
0000
0000
0000
,  // measure 46
0010
0000
0000
0000
,  // measure 47
1000
0000
0000
0000
,  // measure 48
0100
0000
0001
0000
,  // measure 49
1001
0000
0000
0000
,  // measure 50
0000
0000
0010
0000
,  // measure 51
0110
0000
0000
0000
,  // measure 52
0000
0000
0010
0000
,  // measure 53
1001
0000
0000
0000
,  // measure 54
0000
0000
1000
0000
,  // measure 55
0110
0000
0000
0000
,  // measure 56
0000
0000
0010
0000
,  // measure 57
0110
0000
0000
0000
,  // measure 58
0000
0000
0001
0000
,  // measure 59
1001
0000
0000
0000
,  // measure 60
0000
0000
0100
0000
,  // measure 61
0110
0000
0000
0000
,  // measure 62
0000
0000
0010
0000
,  // measure 63
1001
0000
0000
0000
,  // measure 64
0000
0000
0001
0000
,  // measure 65
0100
0000
0000
0000
,  // measure 66
0000
0000
0010
0000
,  // measure 67
0010
0000
0000
0000
,  // measure 68
0000
0000
1000
0000
,  // measure 69
1000
0000
0000
0000
,  // measure 70
0000
0000
0001
0000
,  // measure 71
0001
0000
0000
0000
,  // measure 72
0000
0000
0010
0000
,  // measure 73
1001
0000
0000
0000
,  // measure 74
0000
0000
0000
0000
,  // measure 75
1000
0000
0000
0000
,  // measure 76
0001
0000
0000
0000
,  // measure 77
0100
0000
0000
0000
;
