#TITLE:DYNAMITE RAVE (SPIN Special);
#SUBTITLE:;
#ARTIST:NAOKI;
#TITLETRANSLIT:;
#SUBTITLETRANSLIT:;
#ARTISTTRANSLIT:;
#GENRE:;
#CREDIT:;
#BANNER:DYNAMITE RAVE (SPIN Special)-bn.png;
#BACKGROUND:DYNAMITE RAVE (SPIN Special)-bg.png;
#LYRICSPATH:;
#CDTITLE:;
#MUSIC:DYNAMITE RAVE (SPIN Special).ogg;
#OFFSET:0.000000;
#SAMPLESTART:40.790001;
#SAMPLELENGTH:15.000000;
#SELECTABLE:YES;
#DISPLAYBPM:150.000000;
#BPMS:0.000000=150.000000
;
#STOPS:
;
#BGCHANGES:;
#KEYSOUNDS:;
#ATTACKS:;

//---------------dance-single - ----------------
#NOTES:
     dance-single:
     :
     Challenge:
     13:
     0.595683,0.642756,0.256129,0.491768,0.220271,407.000000,382.000000,25.000000,48.000000,0.000000,0.000000,0.595683,0.642756,0.256129,0.491768,0.220271,407.000000,382.000000,25.000000,48.000000,0.000000,0.000000:
// measure 0
0000
0000
0000
0000
,  // measure 1
0000
0000
0000
0000
,  // measure 2
0000
0000
0000
0000
,  // measure 3
0000
0000
0000
0000
,  // measure 4
1000
0000
0010
0000
0001
0000
0000
0000
0100
1000
0100
0000
1001
0000
0000
0000
,  // measure 5
1000
0010
0001
0100
0001
0010
1000
0000
,  // measure 6
0001
0010
1000
0100
1000
0010
0001
0000
,  // measure 7
0010
0001
0100
1000
0010
0100
1000
0000
,  // measure 8
0001
0100
0010
0001
0100
0010
1000
0000
,  // measure 9
0002
0023
2030
3200
,  // measure 10
0301
0010
1000
0100
0001
0010
1000
0000
,  // measure 11
0100
1000
0010
0001
0100
1000
0010
0000
,  // measure 12
1000
0010
0001
1000
0010
0001
0100
0000
,  // measure 13
0010
1000
0001
0010
1000
0001
0010
0000
,  // measure 14
0001
0100
1000
0000
0010
0000
0000
0000
0001
0000
1000
0000
1100
0000
0000
0000
,  // measure 15
1000
0100
0001
0000
0010
0000
0000
0000
1000
0000
0010
0000
0101
0000
0000
0000
,  // measure 16
1000
0100
0001
0000
0001
0010
1000
0000
,  // measure 17
0010
1000
0100
0010
1000
0100
0010
1000
,  // measure 18
0100
0000
0010
0000
0001
0000
0000
0000
2000
0000
0000
3020
0000
0000
0032
0000
,  // measure 19
1003
0000
0010
0000
0001
0000
0000
0000
0020
0000
0000
0032
0000
0000
0203
0000
,  // measure 20
0310
0000
0001
0000
0100
0000
0000
0000
0002
0000
0000
0203
0000
0000
0320
0000
,  // measure 21
0031
0000
0100
0000
0010
0000
0001
0000
1000
0100
0000
0001
0010
0000
1000
0000
,  // measure 22
0100
0000
0001
0000
0010
0000
0000
0000
2000
0000
0000
3200
0000
0000
0320
0000
,  // measure 23
1030
0000
0100
0000
0010
0000
0000
0000
2000
0000
0000
3200
0000
0000
0302
0000
,  // measure 24
1003
0000
0100
0000
0001
0000
0000
0000
2000
0000
0000
3002
0000
0000
0203
0000
,  // measure 25
0301
0000
0100
0000
1000
0000
0010
0000
0001
0100
0001
0100
0001
0000
1000
0000
,  // measure 26
0100
0000
0000
0000
1001
0000
0000
0010
1000
0000
0100
0000
0001
0000
0000
0000
,  // measure 27
0100
0001
0010
1000
0100
1000
0010
0001
,  // measure 28
0100
0001
0010
1000
0100
0001
0010
1000
,  // measure 29
0010
0000
0001
0000
0100
0000
1000
0000
0010
0100
0010
0000
1000
0000
0001
0000
,  // measure 30
0100
0000
0000
0000
0110
0000
0000
0001
0100
0000
1000
0000
0010
0000
0000
0000
,  // measure 31
0001
0010
1000
0100
1000
0010
0001
0100
,  // measure 32
1000
0010
0001
0100
0010
1000
0100
0001
,  // measure 33
0010
0001
0100
0010
0001
0100
1000
0000
,  // measure 34
1100
1100
1001
0000
0000
0002
0203
2300
,  // measure 35
0000
0000
3010
0000
0001
0000
0000
0000
1000
0010
0000
0000
0001
0100
0000
0000
,  // measure 36
1010
1010
0110
0000
0000
2000
3200
0320
,  // measure 37
0000
0000
1030
0000
0100
0000
0010
0000
1000
0001
0100
0000
0110
0000
0000
0000
,  // measure 38
1000
0000
0000
1000
0010
0000
0000
0010
0001
0000
0000
0001
0100
0000
0000
0000
,  // measure 39
0001
0000
0000
0001
0100
0000
0000
0100
1000
0000
0000
1000
0010
0000
0000
0000
,  // measure 40
1000
0000
0000
0010
0001
0000
0000
1000
0010
0000
0000
0001
1000
0000
0000
0000
,  // measure 41
0110
1001
0110
1001
,  // measure 42
0010
0000
1000
0000
0100
0000
0000
0000
0020
0000
0000
2030
0000
0000
3200
0000
,  // measure 43
0301
0000
0010
0000
0100
0000
0000
0000
0002
0000
0000
0023
0000
0000
0230
0000
,  // measure 44
0301
0000
0100
0000
1000
0000
0000
0000
0002
0000
0000
0203
0000
0000
2300
0000
,  // measure 45
3001
0000
0010
0000
1000
0000
0100
0000
0001
0100
0000
1000
0010
0000
0100
0000
,  // measure 46
0001
0000
0010
0000
1000
0000
0000
0000
0002
0000
0000
0023
0000
0000
2030
0000
,  // measure 47
3010
0000
0100
0000
0001
0000
0000
0000
0020
0000
0000
0230
0000
0000
0302
0000
,  // measure 48
1003
0000
0100
0000
0001
0000
0000
0000
2000
0000
0000
3200
0000
0000
0302
0000
,  // measure 49
0013
0000
0001
0000
0100
0000
1000
0000
0010
0100
0010
0100
0010
0000
1000
0000
,  // measure 50
0001
0000
0000
0000
0011
0000
0000
0100
0001
0000
0010
0000
1000
0000
0000
0000
,  // measure 51
0001
0100
1000
0010
0001
0010
1000
0100
,  // measure 52
0001
0010
1000
0001
0010
1000
0001
0010
,  // measure 53
0100
0000
0001
0000
0010
0000
0100
0000
0001
1000
0001
0000
0100
0000
0010
0000
,  // measure 54
1000
0000
0000
0000
1010
0000
0000
0001
0010
0000
1000
0000
0100
0000
0000
0000
,  // measure 55
1000
0010
0001
0100
0001
0100
1000
0010
,  // measure 56
0001
1000
0100
0001
1000
0100
0010
0001
,  // measure 57
1000
0010
0001
0100
0001
0010
1000
0000
,  // measure 58
1100
0000
0000
0101
0000
0000
0011
0000
0000
1010
0000
0000
0110
0000
1001
0000
,  // measure 59
0220
0000
0000
0330
;
