#VERSION:0.83;
#TITLE:DXY!;
#SUBTITLE:;
#ARTIST:TaQ;
#TITLETRANSLIT:;
#SUBTITLETRANSLIT:;
#ARTISTTRANSLIT:;
#GENRE:;
#ORIGIN:;
#CREDIT:;
#BANNER:DXY!-bn.png;
#BACKGROUND:DXY!-bg.png;
#PREVIEWVID:;
#JACKET:DXY!-jacket.png;
#CDIMAGE:;
#DISCIMAGE:;
#LYRICSPATH:;
#CDTITLE:;
#MUSIC:DXY!.ogg;
#OFFSET:0.000000;
#SAMPLESTART:79.457001;
#SAMPLELENGTH:20.000000;
#SELECTABLE:YES;
#DISPLAYBPM:148.000000;
#BPMS:0.000=148.148,
4.000=148.005;
#STOPS:;
#DELAYS:;
#WARPS:;
#TIMESIGNATURES:0.000=4=4;
#TICKCOUNTS:0.000=4;
#COMBOS:0.000=1;
#SPEEDS:0.000=1.000=0.000=0;
#SCROLLS:0.000=1.000;
#FAKES:;
#LABELS:0.000=Song Start;
#BGCHANGES:;
#KEYSOUNDS:;
#ATTACKS:
;

//---------------dance-single - ----------------
#NOTEDATA:;
#CHARTNAME:;
#STEPSTYPE:dance-single;
#DESCRIPTION:;
#CHARTSTYLE:;
#DIFFICULTY:Beginner;
#METER:5;
#RADARVALUES:0.220220,0.478344,0.532531,0.000000,0.000000,165.000000,108.000000,57.000000,0.000000,0.000000,0.000000,0.000000,0.000000,0.000000,0.220220,0.478344,0.532531,0.000000,0.000000,165.000000,108.000000,57.000000,0.000000,0.000000,0.000000,0.000000,0.000000,0.000000;
#CREDIT:;
#DISPLAYBPM:148.000000;
#NOTES:
0000
0000
0000
0000
,
0000
0000
0000
0000
,
0000
0000
0000
0000
,
1000
0000
0000
0000
,
0001
0000
0000
0000
,
1001
0000
0000
0000
,
1001
0000
0000
0000
,
1001
0000
0000
0000
,
0100
0000
0000
0000
,
1001
0000
0000
0000
,
1001
0000
0000
0000
,
1001
0000
0000
0000
,
1001
0000
0000
0000
,
0110
0000
0000
0000
,
1001
0000
0000
0000
,
0110
0000
0000
0000
,
0000
0100
0000
0000
,
1001
0000
0100
0000
,
1001
0000
0100
0000
,
1001
0000
0100
0000
,
1001
0000
0100
0000
,
1001
0000
0010
0000
,
1001
0000
0010
0000
,
1001
0000
0010
0000
,
1001
0000
0010
0000
,
0000
0000
0000
0000
,
1000
0000
0000
0000
,
0100
0000
0000
0000
,
1000
0000
0000
0000
,
0110
0000
0000
0000
,
0010
0000
0000
0000
,
0010
0000
0000
0000
,
0010
0000
0010
0000
,
0010
0010
0010
0000
,
1000
1000
1000
0000
,
0001
0001
0001
0000
,
0100
0100
0100
0000
,
0001
0001
0001
0000
,
0010
0010
0010
0010
,
0010
0010
0010
0010
,
0010
0010
0010
0000
,
1001
0000
0100
0000
,
1001
0000
0010
0000
,
1001
0000
0100
0000
,
1001
0000
0010
0000
,
1001
0000
0100
0000
,
1001
0000
0010
0000
,
1001
0000
0110
0000
,
1001
0000
0000
0000
,
1001
0000
1001
0000
,
0110
0000
0110
0000
,
1001
0000
1001
0000
,
0110
0000
0110
0000
,
1001
1001
1001
0000
,
0110
0110
0110
0000
,
1001
1001
1001
0000
,
0110
0110
0110
0110
,
0110
0000
0000
0000
,
1001
0000
0000
0000
,
0110
0000
0000
0000
,
1001
0000
0000
0000
,
0110
0000
0000
0000
,
1001
0000
0000
0000
,
0110
0000
0000
0000
,
1001
0000
0000
0000
,
0000
0000
0000
0000
;

//---------------dance-single - ----------------
#NOTEDATA:;
#CHARTNAME:;
#STEPSTYPE:dance-single;
#DESCRIPTION:;
#CHARTSTYLE:;
#DIFFICULTY:Easy;
#METER:6;
#RADARVALUES:0.254921,0.358758,0.317650,0.000000,0.000000,191.000000,157.000000,34.000000,0.000000,0.000000,0.000000,0.000000,0.000000,0.000000,0.254921,0.358758,0.317650,0.000000,0.000000,191.000000,157.000000,34.000000,0.000000,0.000000,0.000000,0.000000,0.000000,0.000000;
#CREDIT:;
#DISPLAYBPM:148.000000;
#NOTES:
0000
0000
0000
0000
,
0000
0000
0000
0000
,
0000
0000
0000
0000
,
1000
0000
0000
0000
,
0001
0000
0000
0000
,
1001
0000
0000
0000
,
1001
0000
0000
0000
,
1001
0000
0000
0000
,
0100
0000
0000
0000
,
1001
0000
0000
0000
,
1001
0000
0000
0000
,
1001
0000
0000
0000
,
1001
0000
0000
0000
,
0110
0000
0000
0000
,
1001
0000
0000
0000
,
0110
0000
0000
0000
,
0000
0100
0000
0100
,
1001
0100
0000
0100
,
1001
0100
0000
0100
,
1001
0010
0000
0010
,
1001
0010
0000
0010
,
1001
0100
0000
0010
,
1001
0010
0000
0100
,
1001
0100
0000
0010
,
1001
0010
0000
0100
,
0010
0000
0000
0000
0000
0001
0000
0000
,
1000
0000
0000
0000
0000
0001
0000
0000
,
0100
0000
0000
0000
0000
0001
0000
0000
,
1000
0000
0000
0000
0000
0100
0000
0000
,
0010
0000
0000
0000
0000
0100
0000
0000
,
0010
0000
0000
0000
0000
0001
0000
0000
,
0010
0000
0000
0000
0000
1000
0000
0000
,
0010
0000
0000
0000
0000
0100
0000
0000
,
1000
0000
0001
0000
0000
0010
0000
0000
,
0001
0000
1000
0000
0000
0100
0000
0000
,
0010
0000
0001
0000
0000
0100
0000
0000
,
0010
0000
1000
0000
0000
0100
0000
0000
,
0010
0000
0001
0000
0000
1000
0000
0000
,
0100
0000
0010
0000
0000
0001
0000
0000
,
1000
1000
1000
1000
,
0010
0010
0100
0100
,
0001
1000
0100
0010
,
0001
0100
1000
0100
,
0010
0001
1000
0010
,
0100
0001
1000
1000
,
0100
0010
0001
1000
,
0100
0001
0010
0100
,
1000
1000
0001
0100
,
0010
0000
0000
0000
,
1001
1000
0001
0100
,
0110
1000
0001
0100
,
1001
0100
0010
0001
,
1001
0100
0010
0001
,
0110
1000
0010
0100
,
1001
0001
0010
1000
,
0110
0001
0100
0010
,
1001
0100
1000
0001
,
0110
0000
0000
0000
0000
1000
0000
0000
,
1001
0000
0000
0000
0000
0100
0000
0000
,
0110
0000
0000
0000
0000
0001
0000
0000
,
1001
0000
0000
0000
0000
0010
0000
0000
,
0110
0000
0000
0000
0000
1000
0000
0000
,
1001
0000
0000
0000
0000
0100
0000
0000
,
0110
0000
0000
0000
0000
0001
0000
0000
,
1001
0000
0000
0000
,
0000
0000
0000
0000
;

//---------------dance-single - ----------------
#NOTEDATA:;
#CHARTNAME:;
#STEPSTYPE:dance-single;
#DESCRIPTION:;
#CHARTSTYLE:;
#DIFFICULTY:Medium;
#METER:9;
#RADARVALUES:0.437770,0.478344,0.551216,0.000000,0.000000,328.000000,269.000000,59.000000,0.000000,0.000000,0.000000,0.000000,0.000000,0.000000,0.437770,0.478344,0.551216,0.000000,0.000000,328.000000,269.000000,59.000000,0.000000,0.000000,0.000000,0.000000,0.000000,0.000000;
#CREDIT:;
#DISPLAYBPM:148.000000;
#NOTES:
0000
0000
0000
0000
,
0000
0000
0000
0000
,
0000
0000
0000
0000
,
1000
0100
0100
0100
,
0001
0100
0100
0100
,
1001
0100
0010
0100
,
1001
0010
0100
0010
,
1001
0100
0010
1000
,
0101
0000
0000
0000
,
1001
0000
0100
0010
0100
0000
0001
0000
,
1001
0000
0100
0010
0001
0000
1000
0000
,
1100
0000
0010
0001
1000
0000
0100
0000
,
1010
0000
0100
0001
1000
0000
0100
0000
,
0101
0000
1000
0010
0100
0000
0001
0000
,
1001
0000
0100
0010
0001
0000
1000
0000
,
0110
0000
1000
0001
0010
0000
0100
0000
,
0000
1001
0000
1001
,
0000
1100
0000
1100
,
0000
0011
0000
0011
,
0000
0101
0000
0101
,
0000
1010
0000
1010
,
0000
1100
0000
0101
,
0000
1010
0000
0101
,
0000
0011
0000
1100
,
0000
1001
0000
0110
,
1000
1000
0000
0000
0000
1001
0000
0000
,
0010
0000
0000
0000
0000
1001
0000
0000
,
0100
0000
0000
0000
0000
1001
0000
0000
,
0010
0000
0000
0000
0000
1001
0000
0000
,
1001
1001
0000
0000
0000
0110
0000
0000
,
0101
0000
0000
0000
0000
0011
0000
0000
,
0110
0000
0000
0000
0000
1100
0000
0000
,
1001
0000
0000
0000
0000
0110
0000
0000
,
1000
0100
0010
0000
0001
0010
0100
0000
,
1000
0001
0100
0000
0010
0100
0001
0000
,
1000
0100
0010
0000
0001
0100
1000
0000
,
0100
0001
1000
0000
0100
0010
0001
0000
,
1000
0100
0010
0000
0001
0100
0010
0000
,
1000
0001
0100
0000
0010
1000
0001
0000
,
0010
0100
1000
0000
0001
0100
0010
0100
,
0001
0100
0010
0100
0001
0100
1000
0000
,
1001
0000
0010
0100
0010
0100
1000
0000
,
1010
0000
0100
0001
0100
0001
1000
0000
,
1100
0000
0010
0001
0010
0001
0100
0000
,
1010
0000
0001
0010
0001
0010
0100
0000
,
1001
0000
0100
0010
0100
0010
1000
0000
,
1100
0000
0010
0001
0010
0001
1000
0000
,
1010
0000
0100
0001
0100
0001
1000
0000
,
0110
0000
0000
0000
,
1001
0000
0010
0100
1000
0001
0100
0000
,
1010
0000
0100
0010
0001
1000
0010
0000
,
0101
0000
0010
0100
1000
0001
0100
0000
,
1001
0000
0100
0010
0001
1000
0100
0000
,
0011
0000
0100
0010
1000
0001
0010
0000
,
1100
0000
0001
0100
0010
1000
0001
0000
,
0110
0000
1000
0001
0100
0010
1000
0000
,
0101
0000
1000
0010
0100
0001
0010
0000
,
0100
0000
0100
0000
1000
0010
1000
0000
,
0100
0000
0100
0000
0010
0001
0010
0000
,
0100
0000
0100
0000
1000
0001
1000
0000
,
0100
0000
0100
0000
0010
0100
0010
0000
,
0001
0000
0001
0000
1000
0100
0010
0000
,
0001
0000
0001
0000
1000
0010
0100
0000
,
0001
0000
0001
0000
1000
0100
0001
0000
,
1001
0000
0000
0000
,
0000
0000
0000
0000
;

//---------------dance-single - ----------------
#NOTEDATA:;
#CHARTNAME:;
#STEPSTYPE:dance-single;
#DESCRIPTION:;
#CHARTSTYLE:;
#DIFFICULTY:Hard;
#METER:12;
#RADARVALUES:0.549882,0.657723,0.532531,0.000000,0.056056,412.000000,355.000000,57.000000,0.000000,0.000000,0.000000,0.000000,0.000000,0.000000,0.549882,0.657723,0.532531,0.000000,0.056056,412.000000,355.000000,57.000000,0.000000,0.000000,0.000000,0.000000,0.000000,0.000000;
#CREDIT:;
#DISPLAYBPM:148.000000;
#NOTES:
0000
0000
0000
0000
,
0000
0000
0000
0000
,
0000
0000
0000
0000
,
1000
0100
0001
0010
,
1000
0100
0001
0010
,
0000
0000
1000
0100
0000
0000
1000
0100
0000
0000
0001
0010
0000
0000
0001
0010
,
0000
0000
1000
0100
0000
0000
1000
0100
0000
0000
0001
0010
0000
0000
0001
0010
,
0000
0000
1000
0100
0000
0000
0010
0001
0000
0000
1000
0010
0000
0000
0100
0001
,
0000
0000
0000
0000
,
1000
0010
1000
0001
0010
0100
1000
0000
,
0001
0100
0001
1000
0010
0100
0001
0000
,
1000
0100
0001
0100
1000
0010
0100
0000
,
0001
0100
1000
0100
0001
0010
0100
0000
,
1000
0001
0100
0010
1000
0100
0010
0000
,
0001
1000
0100
0010
0001
0100
0010
0000
,
1000
0100
0001
0010
1000
0100
0010
0000
,
0000
1001
0000
1001
,
0010
0010
1001
0000
0010
0010
1001
0000
,
0100
0100
1001
0000
0100
0100
1001
0000
,
0010
0010
1100
0000
0010
0010
0101
0000
,
0010
0010
1100
0000
0001
0001
1100
0000
,
0010
0001
1100
0000
0010
0100
1001
0000
,
0100
0010
1100
0000
0010
0001
1100
0000
,
0010
0001
0110
0000
1000
0100
0011
0000
,
1000
0010
0101
0000
1000
0001
0110
0000
,
0001
0001
0000
0000
0000
1100
0000
0000
,
0010
0000
0000
0000
0000
0101
0000
0000
,
1000
0000
0000
0000
0000
0110
0000
0000
,
1000
0000
0000
0000
0000
0011
0000
0000
,
0100
0100
0000
0000
0000
1001
0000
0000
,
0010
0000
0000
0000
0000
0110
0000
0000
,
1000
0000
0000
0000
0000
0101
0000
0000
,
0010
0000
0000
0000
0000
1100
0000
0000
,
0010
0001
1000
0010
0100
0001
1001
0000
,
0100
0010
0001
0100
0001
1000
0110
0000
,
0001
1000
0100
0010
0001
0100
1001
0000
,
0100
0010
0001
0100
0010
1000
1100
0000
,
0010
0001
1000
0010
0100
0001
1001
0000
,
0100
0010
0001
1000
0100
0010
1001
0000
,
0100
0010
1000
0100
0010
0001
1000
0010
,
0100
0001
1000
0100
0010
0001
0101
0000
,
1000
0010
0100
0001
0010
0100
1000
0001
,
0010
0001
0100
0001
1000
0010
0100
0001
,
1000
0100
0010
0001
1000
0010
0100
0001
,
1000
0100
0010
0001
0100
0010
1000
0100
,
0010
0001
0010
1000
0010
0001
0100
0010
,
1000
0100
0010
0001
1000
0010
0100
0001
,
1000
0100
1000
0001
0100
0010
1000
0100
,
0010
0000
0000
0000
,
0100
0010
1001
0100
0010
0100
1001
0010
,
0100
0010
1001
0100
0010
0100
1001
0010
,
0100
0001
1001
0100
0010
0001
1001
0100
,
0010
0001
0101
0010
1000
0100
0110
0001
,
0100
0010
1010
0001
0010
0100
1100
0001
,
0100
0010
1010
0001
0100
0010
1010
0001
,
0010
0100
1100
0010
0100
0001
1001
0100
,
0010
0001
1001
0100
0010
0001
1001
0000
,
0010
0000
0010
0000
0010
1001
0000
0000
,
0010
0000
0010
0000
0010
1001
0000
0000
,
0100
0000
0100
0000
0100
1001
0000
0000
,
0100
0000
0100
0000
0100
1001
0000
0000
,
0010
0000
1000
0000
0100
0110
0000
0000
,
0001
0000
0100
0000
0010
1001
0000
0000
,
0100
0000
0010
0000
0001
1001
0000
0000
,
0110
0000
0000
0000
,
0000
0000
0000
0000
;

//---------------dance-double - ----------------
#NOTEDATA:;
#CHARTNAME:;
#STEPSTYPE:dance-double;
#DESCRIPTION:;
#CHARTSTYLE:;
#DIFFICULTY:Easy;
#METER:6;
#RADARVALUES:0.343009,0.418551,0.485818,0.000000,0.000000,257.000000,205.000000,52.000000,0.000000,0.000000,0.000000,0.000000,0.000000,0.000000,0.343009,0.418551,0.485818,0.000000,0.000000,257.000000,205.000000,52.000000,0.000000,0.000000,0.000000,0.000000,0.000000,0.000000;
#CREDIT:;
#DISPLAYBPM:148.000000;
#NOTES:
00000000
00000000
00000000
00000000
,
00000000
00000000
00000000
00000000
,
00000000
00000000
00000000
00000000
,
10000000
00100000
10000000
00100000
,
01000000
00010000
01000000
00010000
,
00100000
00001000
00010000
01000000
,
00100000
00001000
00010000
01000000
,
00100000
00001000
00010000
01000000
,
00100000
00000000
00000000
00000000
,
00001000
00010000
00000010
00001000
,
00000100
00010000
00001000
00000100
,
00000010
00010000
00000100
00000010
,
00001000
00010000
00000010
00001000
,
00000100
00010000
00001000
00000010
,
00000001
00000100
00000010
00001000
,
00000100
00000010
00000001
00001000
,
00000000
00000100
00000000
00000100
,
00000000
00010000
00000000
01000000
,
00000000
00001000
00000000
00000100
,
00000000
00010000
00000000
01000000
,
00000000
00001000
00000000
00000100
,
00000000
00010000
00000000
00100000
,
00000000
00001000
00000000
00000010
,
00000000
00010000
00000000
00100000
,
00000000
00001000
00000000
00000010
,
00001001
00000000
00000000
00000000
00000000
00000100
00000000
00000000
,
00011000
00000000
00000000
00000000
00000000
00100000
00000000
00000000
,
10010000
00000000
00000000
00000000
00000000
01000000
00000000
00000000
,
10010000
00000000
00000000
00000000
00000000
00100000
00000000
00000000
,
00011000
00000000
00000000
00000000
00000000
00000100
00000000
00000000
,
00001001
00000000
00000000
00000000
00000000
00000010
00000000
00000000
,
00001001
00000000
00000000
00000000
00000000
00000100
00000000
00000000
,
00011000
00000000
00000000
00000000
00000000
00100000
00000000
00000000
,
10010000
01000000
00100000
00010000
,
01100000
00010000
01000000
00001000
,
10010000
01000000
00100000
00010000
,
01100000
00010000
00100000
00001000
,
10010000
01000000
00100000
00010000
,
01100000
00010000
01000000
00001000
,
10010000
01000000
00100000
00010000
,
01000000
00001000
00010000
00000010
,
00001000
00001001
00000010
00001001
,
00000100
00001001
00000010
00001001
,
00010000
00011000
00100000
00011000
,
01000000
00011000
00100000
00011000
,
10000000
10010000
01000000
10010000
,
00100000
10010000
01000000
10010000
,
00001000
00011000
00000010
00011000
,
00000100
00000000
00000000
00000000
,
00000010
00001001
00000100
00000110
,
00010000
00011000
01000000
01100000
,
10000000
10010000
00100000
01100000
,
00001000
00011000
00000010
00000110
,
00000001
00001001
00000100
00000110
,
00010000
00011000
00100000
01100000
,
00010000
10010000
01000000
01100000
,
00001000
00011000
00000010
00000110
,
00000001
00001000
00000100
00000110
,
00001000
00000010
00000100
00001001
,
00000100
00010000
00001000
00011000
,
00100000
01000000
10000000
10010000
,
01000000
00100000
10000000
10010000
,
00100000
00001000
00010000
00011000
,
00000100
00000010
00000001
00001001
,
00000100
00000000
00000000
00000000
,
00000000
00000000
00000000
00000000
;

//---------------dance-double - ----------------
#NOTEDATA:;
#CHARTNAME:;
#STEPSTYPE:dance-double;
#DESCRIPTION:;
#CHARTSTYLE:;
#DIFFICULTY:Medium;
#METER:9;
#RADARVALUES:0.443109,0.478344,0.513846,0.000000,0.000000,332.000000,277.000000,55.000000,0.000000,0.000000,0.000000,0.000000,0.000000,0.000000,0.443109,0.478344,0.513846,0.000000,0.000000,332.000000,277.000000,55.000000,0.000000,0.000000,0.000000,0.000000,0.000000,0.000000;
#CREDIT:;
#DISPLAYBPM:148.000000;
#NOTES:
00000000
00000000
00000000
00000000
,
00000000
00000000
00000000
00000000
,
00000000
00000000
00000000
00000000
,
00001000
00001000
00001000
00001000
,
00010000
00010000
00010000
00010000
,
00100000
00010000
00001000
00000010
,
00001000
00010000
00100000
00010000
,
00001000
00000010
00000001
00000100
,
00001000
00000000
00000000
00000000
,
00001001
00000000
00000100
00010000
00001000
00000000
00000010
00000000
,
00001001
00000000
00000100
00010000
00001000
00000000
00000010
00000000
,
00001001
00000000
00000100
00010000
00001000
00000000
00000010
00000000
,
00001001
00000000
00000100
00010000
00001000
00000000
00000010
00000000
,
00001001
00000000
00000010
00000100
00001000
00000000
00010000
00000000
,
00110000
00000000
01000000
10000000
00100000
00000000
01000000
00000000
,
00110000
00000000
01000000
10000000
00100000
00000000
01000000
00000000
,
00000000
10010000
00000000
00011000
,
00000010
00001001
00000010
00001100
,
00010000
00011000
00100000
10010000
,
01000000
00110000
00001000
00011000
,
00000010
00001001
00000100
00001100
,
00010000
00011000
00100000
00011000
,
00000100
00001001
00000010
00001100
,
00010000
00011000
00100000
01010000
,
10000000
01100000
10000000
01010000
,
10000000
10000000
00000000
00000000
00000000
01010000
00000000
00000000
,
00001000
00000000
00000000
00000000
00000000
00010010
00000000
00000000
,
00001000
00000000
00000000
00000000
00000000
00000101
00000000
00000000
,
00001000
00000000
00000000
00000000
00000000
00010100
00000000
00000000
,
00011000
00011000
00000000
00000000
00000000
00110000
00000000
00000000
,
11000000
00000000
00000000
00000000
00000000
01010000
00000000
00000000
,
00010010
00000000
00000000
00000000
00000000
00001001
00000000
00000000
,
00000110
00000000
00000000
00000000
00000000
00001001
00000000
00000000
,
00000010
00000100
00001000
00000000
00000010
00010000
00001000
00000000
,
00000010
00000100
00001000
00000000
00000010
00010000
00001000
00000000
,
00000010
00000100
00001000
00000000
00000010
00010000
00001000
00000000
,
00000010
00000100
00001000
00000000
00000010
00010000
00001000
00000000
,
00100000
01000000
10000000
00000000
00010000
01000000
00001000
00000000
,
00100000
01000000
10000000
00000000
00010000
01000000
00001000
00000000
,
00100000
01000000
10000000
00000000
00010000
01000000
00001000
00000000
,
00100000
01000000
10000000
00010000
01000000
00001000
00010000
00000000
,
00001010
00000000
00000001
00000010
00000001
00000010
00000100
00000000
,
00001001
00000000
00000010
00010000
00000010
00010000
00001000
00000000
,
00110000
00000000
10000000
00100000
10000000
00100000
01000000
00000000
,
10010000
00000000
00100000
00001000
00100000
00001000
00010000
00000000
,
00001010
00000000
00000001
00000010
00000001
00000010
00000100
00000000
,
00001001
00000000
00000010
00010000
00000010
00010000
00001000
00000000
,
00110000
00000000
10000000
00100000
10000000
00100000
01000000
00000000
,
10010000
00000000
00000000
00000000
,
00011000
00000000
00000010
00000100
00001000
00010000
00001000
00000000
,
00011000
00000000
00100000
01000000
00010000
00001000
00100000
00000000
,
10010000
00000000
00100000
01000000
00001000
00010000
00001000
00000000
,
00011000
00000000
00000010
00000001
00000100
00001000
00010000
00000000
,
00011000
00000000
00100000
01000000
00010000
00001000
00010000
00000000
,
00011000
00000000
00000010
00000100
00001000
00010000
00000010
00000000
,
00001001
00000000
00000010
00000100
00010000
00001000
00010000
00000000
,
00011000
00000000
00100000
10000000
01000000
00010000
00001000
00000000
,
00000010
00000001
00000010
00000000
00000000
00000100
00000000
00000000
,
00010000
00000010
00010000
00000000
00000000
00001000
00000000
00000000
,
00100000
00010000
00100000
00000000
00000000
01000000
00000000
00000000
,
10000000
00100000
10000000
00000000
00000000
00010000
00000000
00000000
,
01000000
00001000
00010000
00000000
00000000
00000010
00000000
00000000
,
00001000
00000001
00000010
00000000
00000000
00000100
00000000
00000000
,
00010000
00001000
01000000
00000000
00000000
00100000
00000000
00000000
,
10010000
00000000
00000000
00000000
,
00000000
00000000
00000000
00000000
;

//---------------dance-double - ----------------
#NOTEDATA:;
#CHARTNAME:;
#STEPSTYPE:dance-double;
#DESCRIPTION:;
#CHARTSTYLE:;
#DIFFICULTY:Hard;
#METER:12;
#RADARVALUES:0.531196,0.597930,0.597930,0.000000,0.000000,398.000000,334.000000,64.000000,0.000000,0.000000,0.000000,0.000000,0.000000,0.000000,0.531196,0.597930,0.597930,0.000000,0.000000,398.000000,334.000000,64.000000,0.000000,0.000000,0.000000,0.000000,0.000000,0.000000;
#CREDIT:;
#DISPLAYBPM:148.000000;
#NOTES:
00000000
00000000
00000000
00000000
,
00000000
00000000
00000000
00000000
,
00000000
00000000
00000000
00000000
,
10000000
01000000
00100000
00010000
,
00100000
01000000
00010000
00001000
,
00001010
00000000
00000100
00000001
00000010
00000100
00001000
00000000
,
00011000
00000000
00100000
00010000
10000000
00100000
01000000
00000000
,
10010000
00000000
00100000
00001000
00010000
00000100
00010000
00001000
,
00100000
00000000
00000000
00000000
,
10010000
00000000
00100000
00001000
01000000
00010000
00100000
00000000
,
00011000
00000000
00000100
00000010
00000001
00000100
00000010
00000000
,
00001001
00000000
00000010
00010000
00000100
00001000
00000010
00000000
,
00011000
00000000
01000000
00100000
10000000
01000000
00100000
00000000
,
10010000
00000000
01000000
00001000
00010000
00000100
00000010
00000000
,
00001001
00000000
00000100
00010000
00001000
00100000
01000000
00000000
,
10010000
00000000
01000000
00100000
00010000
01000000
00001000
00000000
,
00000000
00010010
00000000
00001001
,
00000010
00000100
00001001
00000000
00000000
00000000
00010100
00000000
,
00010000
00001000
00011000
00000000
00000000
00000000
00110000
00000000
,
10000000
00100000
01100000
00000000
00000000
00000000
00101000
00000000
,
00010000
00000100
00001010
00000000
00000000
00000000
00000101
00000000
,
00001000
00000100
00001001
00000000
00000000
00000000
00011000
00000000
,
00100000
00010000
10010000
00000000
00000000
00000000
01100000
00000000
,
00010000
01000000
01001000
00000000
00000000
00000000
00010010
00000000
,
00000100
00000010
00001001
00000000
00000000
00000000
00000110
00000000
,
00001001
00000110
00000000
00000000
00000000
00011000
00000000
00000000
,
00110000
00000000
00000000
00000000
00000000
11000000
00000000
00000000
,
01010000
00000000
00000000
00000000
00000000
00011000
00000000
00000000
,
00001010
00000000
00000000
00000000
00000000
00000101
00000000
00000000
,
00001100
00000101
00000000
00000000
00000000
00001010
00000000
00000000
,
00011000
00000000
00000000
00000000
00000000
10010000
00000000
00000000
,
00011000
00000000
00000000
00000000
00000000
00001001
00000000
00000000
,
00000110
00000000
00000000
00000000
00000000
00001001
00000000
00000000
,
00000010
00010000
00011000
00000000
00100000
00010000
10000000
01000000
,
00100000
00001000
00011000
00000000
00000100
00000001
00000100
00001000
,
00000010
00010000
00011000
00000000
00000100
00000010
00000001
00001000
,
00000010
00010000
00011000
00000000
00100000
10000000
00100000
00010000
,
01000000
00001000
00011000
00000000
00000010
00000001
00000010
00001000
,
00000100
00000010
00001001
00000000
00000100
00010000
00001000
00100000
,
00010000
01000000
01100000
00000000
10000000
01000000
01100000
00000000
,
00010000
01000000
00100000
00010000
00001000
00000010
00001001
00000000
,
00000010
00000100
00000001
00000100
00001000
00000010
00000100
00001000
,
00010000
01000000
00010000
00001000
00000100
00000001
00000010
00000100
,
00001000
00000010
00000100
00001000
00010000
00001000
00000010
00000001
,
00000100
00001000
00010000
01000000
10000000
00010000
01000000
00100000
,
10000000
01000000
00100000
00010000
01000000
00100000
00010000
00001000
,
00000010
00001000
00010000
00100000
00010000
00001000
00000010
00000001
,
00001000
00000010
00000100
00000001
00001000
00000100
00010000
00001000
,
00010000
00000000
00000000
00000000
,
00100000
00010000
10000000
01000000
00100000
00010000
01000000
01100000
,
10000000
01000000
00010000
00001000
00000100
00000001
00000010
00000110
,
00001000
00000001
00000100
00001000
00000100
00000001
00000010
00000110
,
00000001
00001000
00000100
00000010
00001000
00010000
00100000
01100000
,
10000000
01000000
00100000
00010000
01000000
00001000
00010000
00011000
,
00000100
00000001
00000100
00001000
00000010
00010000
00001000
00011000
,
00100000
01000000
10000000
00010000
01000000
00001000
00010000
00011000
,
00000010
00000001
00000010
00001000
00000100
00000010
00000001
00001001
,
00000100
00000000
00000100
00000000
00000100
00010000
00001000
00000000
,
00100000
00000000
00100000
00000000
00100000
00010000
10000000
00000000
,
01000000
00000000
01000000
00000000
01000000
00100000
00001000
00000000
,
00010000
00000000
00010000
00000000
00010000
00000010
00000001
00000000
,
00001000
00000000
00001000
00000000
00001000
00000100
00010000
00000000
,
00001000
00000000
00001000
00000000
00001000
00100000
10000000
00000000
,
00100000
00000000
00001000
00000000
00010000
00000010
00000001
00000000
,
00001001
00000000
00000000
00000000
,
00000000
00000000
00000000
00000000
;

//---------------dance-single - ----------------
#NOTEDATA:;
#CHARTNAME:;
#STEPSTYPE:dance-single;
#DESCRIPTION:;
#CHARTSTYLE:;
#DIFFICULTY:Challenge;
#METER:14;
#RADARVALUES:0.695360,0.757631,0.569902,0.289622,0.495160,521.000000,460.000000,61.000000,31.000000,0.000000,0.000000,0.000000,0.000000,0.000000,0.695360,0.757631,0.569902,0.289622,0.495160,521.000000,460.000000,61.000000,31.000000,0.000000,0.000000,0.000000,0.000000,0.000000;
#CREDIT:;
#DISPLAYBPM:148.000000;
#NOTES:
0000
0000
0000
0000
,
0000
0000
0000
0000
,
0000
0000
0000
0000
,
0000
0000
0000
0000
,
0000
0000
0000
0000
,
1001
0010
0100
0001
1000
0010
0100
0001
,
0100
0010
0100
0001
1000
0010
1000
0001
,
0010
0001
1000
0001
0100
0010
1000
0100
,
0120
0000
0000
1000
0000
0100
0000
1030
0000
0001
0010
0000
0001
0000
0100
0000
,
1001
0000
1000
0100
0010
0001
0100
0010
,
1010
0000
1000
0001
0010
0100
1000
0001
,
0101
0000
0001
1000
0100
1000
0010
0100
,
0110
0000
0010
0100
0001
0010
0001
1000
,
1100
0000
1000
0001
1000
0010
0100
0001
,
0011
0000
0100
0010
0001
1000
0100
1000
,
1100
0000
0010
0100
0001
0010
0100
1000
,
0000
0000
1000
0010
2000
0000
0000
3100
0000
0000
0001
0010
0002
0000
0000
0000
,
0103
0000
0000
0000
0101
0000
0000
1000
0000
0100
0000
0010
0002
0000
0000
0000
,
0013
0000
0000
0000
1001
0000
0000
1000
0000
0001
0000
0100
0020
0000
0000
0000
,
0130
0000
0000
0000
1010
0000
0000
0010
0000
0100
0000
0001
2000
0000
0000
0000
,
3010
0000
0000
0000
1100
0000
0000
0001
0000
0100
0000
0010
1000
0000
0000
0000
,
1100
0000
0000
0000
0101
0000
0000
0010
0000
0100
0000
0001
1000
0000
0000
0000
,
0110
0000
0000
0000
1001
0000
0000
1000
0000
0100
0000
0010
0001
0000
0000
0000
,
0011
0000
0000
0000
1010
0000
0000
0100
0000
1000
0000
0001
0010
0000
0000
0000
,
1100
0000
0000
0000
0011
0000
0000
0001
0000
1000
0000
0010
0100
0000
0000
0000
,
1001
1001
0000
0000
0000
2010
3001
0000
,
0101
0101
0000
0000
0000
0012
1003
0000
,
1100
1100
0000
0000
0000
0120
1030
0000
,
0110
0110
0000
0000
0000
1002
0013
0000
,
0011
0011
0000
0000
0000
2100
3010
0000
,
1010
1010
0000
0000
0000
0201
0310
0000
,
1100
0101
0000
0000
0000
1002
0103
0000
,
0011
1010
0000
0000
0000
0120
0130
0000
,
0010
0000
0010
0000
0010
0000
1000
0100
1000
0100
1000
0000
0001
0000
0000
0000
,
0100
0000
0100
0000
0100
0000
0001
1000
0001
1000
0001
0000
0010
0000
0000
0000
,
0001
0000
0001
0000
0001
0000
1000
0010
1000
0010
1000
0000
0100
0000
0000
0000
,
1000
0000
1000
0000
1000
0000
0010
0100
0010
0100
0010
0000
0001
0000
0000
0000
,
1000
0000
1000
0000
1000
0000
0001
0100
0001
0100
0001
0000
0010
0000
0000
0000
,
0100
0000
0100
0000
0100
0000
0010
0001
0010
0001
0010
0000
1000
0000
0000
0000
,
0010
0000
0010
0000
0010
0000
0100
1000
0100
1000
0100
0000
0001
0000
0000
0000
,
0001
0000
0001
0000
0001
0000
0100
1000
0100
1000
0100
0000
0010
0000
0000
0000
,
1000
0000
0010
0000
0100
0001
0100
0001
1000
0100
1000
0000
0010
0000
0010
0000
,
1000
0000
0001
0000
0010
0001
0010
0001
0100
0010
0100
0000
1000
0000
1000
0000
,
0001
0000
0100
0000
0001
1000
0001
1000
0100
1000
0100
0000
0010
0000
0010
0000
,
0001
0000
1000
0000
0010
0100
0010
0100
0010
0100
0001
0000
1000
0000
1000
0000
,
1000
0000
0001
0000
0010
0001
0100
0001
0100
0010
1000
0000
0010
0000
0100
0000
,
0001
0000
0010
0000
0100
1000
0010
1000
0100
0010
0001
0000
1000
0000
0010
0000
,
1000
0000
0100
0000
1000
0001
0100
0010
0100
0010
1000
0000
0001
0000
0000
0000
,
1002
0000
0000
0000
0100
0000
0000
0000
1000
0000
0000
2000
0000
0000
3003
0000
,
0010
0000
0100
0000
0001
0000
1000
0100
1000
0100
1000
0000
0001
0010
0001
0010
,
0001
0000
1000
0000
0100
0000
0010
0100
0010
0100
0010
0000
0001
1000
0001
1000
,
0001
0000
0100
0000
0001
0000
1000
0010
1000
0010
1000
0000
0100
0001
0100
0001
,
0100
0000
0001
0000
1000
0000
0010
0001
0010
0001
0010
0000
1000
0100
1000
0100
,
1000
0000
0010
0000
0100
0000
0001
0010
0100
0010
0001
0000
1000
0001
1000
0100
,
0010
0000
0001
0000
1000
0000
0010
0100
0001
0100
0010
0000
1000
0001
1000
0100
,
0010
0000
0100
0000
1000
0000
0010
0100
0001
0100
0001
0000
1000
0010
1000
0001
,
0010
0000
0100
0000
1000
0000
0001
0100
0010
1000
0100
0000
1000
0001
0010
0000
,
1002
0000
0103
0000
1000
2001
3001
0000
,
0012
0000
1003
0000
0010
2010
3001
0000
,
0120
0000
1030
0000
0010
0210
0310
0000
,
1002
0000
0013
0000
0001
0102
1003
0000
,
1020
0000
0031
0000
1000
0201
0310
0000
,
2001
0000
3100
0000
1000
1200
1300
0000
,
0120
0000
0130
0000
0001
0210
0310
0000
,
1002
0000
0000
1000
0000
0100
0000
1003
0000
0001
0010
0001
0100
0010
0100
0000
;

//---------------dance-solo - ----------------
#NOTEDATA:;
#CHARTNAME:;
#STEPSTYPE:dance-solo;
#DESCRIPTION:;
#CHARTSTYLE:;
#DIFFICULTY:Easy;
#METER:6;
#RADARVALUES:0.345678,0.453703,0.541874,0.336335,0.000000,259.000000,201.000000,58.000000,36.000000,0.000000,0.000000,0.000000,0.000000,0.000000,0.345678,0.453703,0.541874,0.336335,0.000000,259.000000,201.000000,58.000000,36.000000,0.000000,0.000000,0.000000,0.000000,0.000000;
#CREDIT:;
#DISPLAYBPM:148.000000;
#NOTES:
000000
000000
000000
000000
,
000000
000000
000000
000000
,
000000
000000
000000
000000
,
000000
000000
000000
000000
,
000000
000000
000000
000000
,
100200
100000
000001
100300
,
002001
000001
100000
003001
,
000102
000100
001000
000103
,
020020
000000
000000
030030
,
100001
000100
000001
001000
,
001100
000100
010000
001000
,
101000
100000
000100
001000
,
001010
000001
010000
001000
,
011000
010000
000100
001000
,
010100
100000
000010
000100
,
000110
000100
000001
100000
,
000000
100010
000000
010001
,
100000
000011
001000
000100
,
000010
110000
000100
001000
,
000001
000101
100000
000001
,
001000
100010
000100
100000
,
011000
000011
000001
100000
,
100001
010010
000100
001000
,
100100
001100
000010
010000
,
000001
000100
001000
100000
,
220000
000000
000000
330000
,
020020
000000
000000
030030
,
002002
000000
000000
003003
,
000220
000000
000000
000330
,
022000
000000
000000
033000
,
000022
000000
000000
000033
,
200200
000000
000000
300300
,
020200
000000
000000
030300
,
010020
000100
100000
001030
,
020100
000010
001000
030001
,
000201
100000
001000
000310
,
002100
100000
000010
003100
,
201000
010000
000100
300001
,
020001
001000
000100
030001
,
100020
000100
001000
100030
,
011000
000110
100100
001001
,
100001
000100
100000
001000
,
000101
000010
001000
000100
,
010010
001000
000001
100000
,
101000
010000
000010
000100
,
001010
000001
000100
001000
,
011000
100000
000010
001000
,
010010
000001
000100
001000
,
002200
000000
000000
003300
,
000001
100000
000100
001000
,
000010
000100
001000
010000
,
000010
001000
000001
000100
,
001000
100000
000010
000100
,
001000
000010
000100
000001
,
010000
001000
100000
000001
,
000100
001000
010000
000010
,
000100
000001
100000
001000
,
201000
000001
300001
000000
,
000102
100000
100003
000000
,
100200
001000
001300
000000
,
002001
000100
003100
000000
,
010100
000100
100000
000001
,
000110
000001
000100
010000
,
001100
000001
010000
001000
,
200002
000000
000000
300003
;

//---------------dance-solo - ----------------
#NOTEDATA:;
#CHARTNAME:;
#STEPSTYPE:dance-solo;
#DESCRIPTION:;
#CHARTSTYLE:;
#DIFFICULTY:Medium;
#METER:9;
#RADARVALUES:0.472471,0.483949,0.485818,0.168168,0.000000,354.000000,302.000000,52.000000,18.000000,0.000000,0.000000,0.000000,0.000000,0.000000,0.472471,0.483949,0.485818,0.168168,0.000000,354.000000,302.000000,52.000000,18.000000,0.000000,0.000000,0.000000,0.000000,0.000000;
#CREDIT:;
#DISPLAYBPM:148.000000;
#NOTES:
000000
000000
000000
000000
,
000000
000000
000000
000000
,
000000
000000
000000
000000
,
000000
000000
000000
000000
,
000000
000000
000000
000000
,
100010
000000
000001
000000
001000
000100
100000
000000
,
000101
000000
001000
000000
000100
100000
000001
000000
,
010100
000000
100000
000000
001000
000100
000001
000000
,
020020
000000
000000
030030
,
100100
000000
000100
100000
001000
000100
000001
000000
,
001010
000000
000100
100000
000001
000100
000010
000000
,
011000
000000
010000
000001
000100
000010
001000
000000
,
100001
000000
010000
000100
001000
000001
010000
000000
,
001100
000000
000100
001000
000010
010000
001000
000000
,
101000
000000
010000
000100
100000
000010
000100
000000
,
001001
000000
000010
000100
000001
100000
001000
000000
,
000000
110000
000000
000011
,
100100
000000
001001
000000
000010
010000
001000
000000
,
101000
000000
000101
000000
001000
000010
010000
000000
,
001100
000000
100001
000000
010000
000001
000010
000000
,
000011
000000
110000
000000
010000
000010
100000
000000
,
011000
000000
000110
000000
000100
010000
001000
000000
,
010100
000000
001010
000000
000010
001000
000100
000000
,
001100
000000
010010
000000
000100
100000
001000
000000
,
010010
000000
100001
000000
000001
000100
001000
000000
,
100001
200001
000000
000000
000000
300010
000000
000000
,
000210
000000
000000
000000
000000
001300
000000
000000
,
021000
000000
000000
000000
000000
030100
000000
000000
,
002100
000000
000000
000000
000000
003001
000000
000000
,
010001
010002
000000
000000
000000
100003
000000
000000
,
201000
000000
000000
000000
000000
300010
000000
000000
,
002010
000000
000000
000000
000000
003100
000000
000000
,
010200
000000
000000
000000
000000
001300
000000
000000
,
000001
100000
000010
000000
001000
000100
010000
000000
,
100000
000100
010000
000000
001000
000001
000010
000000
,
000001
010000
000010
000000
100000
000100
001000
000000
,
000010
001000
000100
000000
010000
000001
100000
000000
,
001000
000010
000100
000000
000001
100000
010000
000000
,
100000
000010
000100
000000
000001
001000
010000
000000
,
000100
001000
000001
000000
000010
010000
100000
000000
,
101000
000101
001010
010100
,
000100
100000
001000
010000
000100
001000
000010
000000
,
000100
000001
001000
000010
000100
000001
100000
000000
,
001000
010000
000100
001000
000010
100000
000001
000000
,
010000
100000
000100
001000
000100
010000
000001
000000
,
000100
000010
001000
000001
000100
010000
000010
000000
,
100000
000010
000100
001000
010000
000001
000100
000000
,
000001
001000
000100
100000
001000
010000
000010
000000
,
002200
000000
000000
003300
,
000100
100000
001000
010000
000010
000100
000001
000000
,
000010
000001
010000
001000
100000
000100
001000
000000
,
000010
000100
000001
010000
001000
100000
010000
000000
,
100000
000100
001000
000100
010000
000010
000100
000000
,
000001
000100
000010
001000
000100
100000
010000
000000
,
001000
100000
000100
010000
001000
100000
000001
000000
,
000100
000010
000100
000001
010000
001000
100000
000000
,
000100
001000
000100
100000
001000
010000
000010
000000
,
010200
000000
100000
000000
001000
001300
000000
000000
,
020001
000000
000100
000000
000010
030010
000000
000000
,
002001
000000
100000
000000
000001
003001
000000
000000
,
010020
000000
000100
000000
010000
010030
000000
000000
,
101000
000000
010000
000000
000001
000100
000010
000000
,
001100
000000
000010
000000
010000
000001
001000
000000
,
001010
000000
100000
000000
000001
010000
000100
000000
,
200002
000000
000000
300003
;

//---------------dance-solo - ----------------
#NOTEDATA:;
#CHARTNAME:;
#STEPSTYPE:dance-solo;
#DESCRIPTION:;
#CHARTSTYLE:;
#DIFFICULTY:Hard;
#METER:12;
#RADARVALUES:0.596595,0.606104,0.597930,0.364363,0.116783,447.000000,383.000000,64.000000,39.000000,0.000000,0.000000,0.000000,0.000000,0.000000,0.596595,0.606104,0.597930,0.364363,0.116783,447.000000,383.000000,64.000000,39.000000,0.000000,0.000000,0.000000,0.000000,0.000000;
#CREDIT:;
#DISPLAYBPM:148.000000;
#NOTES:
000000
000000
000000
000000
,
000000
000000
000000
000000
,
000000
000000
000000
000000
,
000000
000000
000000
000000
,
000000
000000
000000
000000
,
010100
000000
000010
100000
001000
010000
000001
000100
,
000101
000000
100000
000010
010000
001000
000100
000001
,
010001
000000
001000
100000
000100
010000
000010
000001
,
010020
000000
001000
001000
001000
000000
100030
000001
,
100001
000000
000100
000010
010000
001000
100000
000001
,
101000
000000
010000
000100
100000
000010
001000
000001
,
001001
000000
000001
010000
000100
001000
000010
100000
,
011000
000000
001000
100000
000100
000010
010000
000001
,
000011
000000
000100
000010
010000
000001
100000
001000
,
100010
000000
000100
000010
100000
000001
001000
010000
,
001100
000000
000010
100000
001000
010000
000001
000100
,
000000
000000
000001
100000
000001
000000
000000
000000
000000
000000
100000
000001
100000
000000
000000
000000
,
110000
000000
000000
000000
000110
000000
000000
000100
000001
000000
100000
000000
000010
000000
000000
000000
,
010100
000000
000000
000000
100010
000000
000000
001000
000100
000000
010000
000000
000001
000000
000000
000000
,
000101
000000
000000
000000
011000
000000
000000
000100
100000
000000
001000
000000
010000
000000
000000
000000
,
100001
000000
000000
000000
001010
000000
000000
000001
010000
000000
001000
000000
100000
000000
000000
000000
,
000110
000000
000000
000000
011000
000000
000000
100000
000001
000000
000100
000000
000010
000000
000000
000000
,
110000
000000
000000
000000
001100
000000
000000
010000
000010
000000
001000
000000
000001
000000
000000
000000
,
000011
000000
000000
000000
100100
000000
000000
010000
000001
000000
000100
000000
000010
000000
000000
000000
,
101000
000000
000000
000000
010010
000000
000000
000100
000010
000000
100000
000000
000001
000000
000000
000000
,
110000
220000
000000
330000
000000
002020
003030
000000
,
020002
000000
000000
030003
000000
002200
003300
000000
,
020020
000000
000000
030030
000000
202000
303000
000000
,
020200
000000
000000
030300
000000
200002
300003
000000
,
000011
000022
000000
000033
000000
200200
300300
000000
,
002200
000000
000000
003300
000000
200020
300030
000000
,
002002
000000
000000
003003
000000
000220
000330
000000
,
202000
000000
000000
303000
000000
020020
030030
000000
,
100001
000100
010000
000010
100000
001000
000001
000000
,
000101
000010
010000
001000
100000
000001
000100
000000
,
010010
000100
100000
010000
000001
000010
001000
000000
,
001001
000010
000100
000001
010000
001000
100000
000000
,
100100
001000
000010
000100
000001
010000
100000
000000
,
011000
000010
100000
001000
010000
000100
000001
000000
,
100010
010000
000001
000100
000010
001000
000100
100000
,
010000
100000
000010
010000
000100
001000
000001
100000
,
000100
000000
010000
000000
000010
000000
000100
000000
000001
100000
000001
000000
001000
000000
000000
000000
,
000010
000000
010000
000000
001000
000000
100000
000000
000100
010000
000100
000000
000001
000000
000000
000000
,
010000
000000
001000
000000
100000
000000
000010
000000
000100
000001
000100
000000
001000
000000
000000
000000
,
000010
000000
000100
000000
000001
000000
010000
000000
001000
100000
001000
000000
000100
000000
000000
000000
,
110000
000000
000100
000000
001000
000000
000010
000000
100000
000001
100000
000000
010000
000000
000000
000000
,
000011
000000
001000
000000
000001
000000
010000
000000
000010
100000
000010
000000
000100
000000
000000
000000
,
010010
000000
000100
000000
100000
000000
001000
000000
010000
000010
010000
000000
000001
000000
000000
000000
,
002200
000000
000000
003300
,
000100
000000
100000
000000
001000
000000
010000
000000
000010
000100
000010
000000
100000
000000
000001
000000
,
010000
000000
001000
000000
100000
000000
000010
000000
000100
000001
000100
000000
000001
000000
001000
000000
,
000100
000000
100000
000000
000100
000000
001000
000000
000010
010000
000010
000000
001000
000000
000001
000000
,
000010
000000
000001
000000
001000
000000
000100
000000
100000
010000
100000
000000
000010
000000
010000
000000
,
000100
000000
001000
000000
000001
000000
010000
000000
000010
001000
000010
000000
100000
000000
000001
000000
,
000100
000000
001000
000000
010000
000000
000001
000000
100000
000010
100000
000000
001000
000000
010000
000000
,
000100
000000
001000
000000
000100
000000
100000
000000
000010
010000
000010
000000
100000
000000
000001
000000
,
000100
000000
000010
000000
010000
000000
001000
000000
100000
000001
100000
000000
000001
000000
000100
000000
,
000120
000000
100000
000000
001000
001000
001030
000000
,
020001
000000
001000
000000
000100
000100
030100
000000
,
001002
000000
000100
000000
100000
100000
100003
000000
,
200100
000000
010000
000000
000010
000010
300010
000000
,
001100
000000
000100
100000
000010
001000
000001
010000
,
101000
000000
010000
000100
100000
000010
001000
000001
,
010010
000000
000100
010000
000001
000010
100000
001000
,
100001
000000
001000
000100
100000
000010
010000
000001
;

//---------------dance-solo - ----------------
#NOTEDATA:;
#CHARTNAME:;
#STEPSTYPE:dance-solo;
#DESCRIPTION:;
#CHARTSTYLE:;
#DIFFICULTY:Challenge;
#METER:15;
#RADARVALUES:0.811476,0.818241,0.411077,0.056056,0.747412,608.000000,564.000000,44.000000,6.000000,0.000000,0.000000,0.000000,0.000000,0.000000,0.811476,0.818241,0.411077,0.056056,0.747412,608.000000,564.000000,44.000000,6.000000,0.000000,0.000000,0.000000,0.000000,0.000000;
#CREDIT:;
#DISPLAYBPM:148.000000;
#NOTES:
000000
000000
000000
000000
,
000000
000000
000000
000000
,
000000
000000
000000
000000
,
000000
000000
000000
000000
,
000000
000000
000000
000000
,
001100
001000
000100
100000
001000
010000
000010
100000
,
000001
000100
000010
010000
001000
100000
000100
010000
,
000100
100000
000001
010000
000010
000100
000001
001000
,
010010
000000
000000
200000
000000
300002
000000
200003
000000
300001
001000
000001
100000
000100
001000
000000
,
100001
100000
000010
000100
000001
010000
001000
000100
,
000110
000010
010000
001000
100000
000001
000100
001000
,
101000
100000
000001
001000
000010
000100
010000
000001
,
001001
001000
000100
100000
001000
010000
000010
000100
,
000101
000001
010000
000100
100000
000010
010000
001000
,
011000
010000
000010
000100
000001
100000
001000
000100
,
000110
000000
000010
000000
001000
000000
000100
000000
100000
000000
000001
000000
100000
000010
100000
000000
,
000000
000000
000001
100000
000001
100000
000000
000100
000000
000000
000010
010000
000010
010000
000000
000000
,
100100
000000
000000
000000
001010
000000
000000
000100
010000
001000
000000
010000
000001
000000
000000
000000
,
000110
000000
000000
000000
101000
000000
000000
010000
000100
001000
000000
001000
000010
000000
000000
000000
,
100100
000000
000000
000000
011000
000000
000000
000001
100000
001000
000000
001000
010000
000000
000000
000000
,
101000
000000
000000
000000
000011
000000
000000
010000
001000
100000
000000
100000
000010
000000
000000
000000
,
010010
000000
000000
000000
010000
000100
000000
000100
100000
000001
000000
000001
001000
000000
000000
000000
,
100010
000000
000000
000000
001000
010000
000000
010000
000001
000100
000000
000100
000010
000000
000000
000000
,
110000
000000
000000
000000
001000
100000
000000
100000
000010
010000
000000
010000
000100
000000
000000
000000
,
010001
000000
000000
000000
000010
000001
000000
000001
100000
001000
000000
001000
010000
000000
000000
000000
,
001100
001100
000001
100000
001000
010000
000010
000000
,
100100
000001
001000
000100
100000
000010
010000
000000
,
011000
001000
100000
000010
000100
000001
010000
000000
,
010010
000010
000100
001000
100000
000001
010000
000000
,
100001
100001
000010
010000
000100
100000
000001
000000
,
011000
100000
000010
000100
001000
000001
010000
000000
,
000110
010000
000001
000100
001000
100000
000010
000000
,
000101
100000
000010
001000
010000
000001
000100
000000
,
000010
000000
000010
000000
000010
000000
100000
001000
100000
001000
100000
000000
000100
010000
000100
010000
,
000100
000000
001000
000000
001000
000000
000001
000010
000001
000010
000001
000000
100000
000010
100000
000010
,
100000
000000
001000
000000
001000
000000
010000
000100
010000
000100
010000
000000
000010
100000
000010
100000
,
000010
000000
010000
000000
010000
000000
000001
000100
000001
000100
000001
000000
100000
001000
100000
001000
,
100000
000000
000010
000000
000010
000000
000100
000001
000100
000001
000100
000000
000010
010000
000010
010000
,
000010
000000
001000
000000
001000
000000
000001
100000
000001
100000
000001
000000
010000
000010
010000
000010
,
010000
000000
000001
000000
000001
000000
100000
000100
100000
000100
100000
000000
001000
000010
001000
000010
,
001000
000000
000100
000000
000100
000000
010000
000001
010000
000001
010000
000000
000010
000100
000010
000100
,
000010
000000
010000
000000
001000
100000
001000
010000
000100
001000
000001
000000
000100
000010
010000
000010
,
001000
000000
000100
000000
010000
001000
010000
000001
000100
000010
100000
000000
000010
001000
000001
000100
,
000010
000000
010000
000000
001000
100000
000100
100000
001000
010000
000001
000000
000100
000010
100000
000100
,
010000
000000
000001
000000
000100
000010
001000
000100
001000
000010
100000
000000
010000
000001
010000
000001
,
100000
000000
000100
000000
001000
000010
000100
000001
100000
001000
100000
000000
000010
010000
000010
000100
,
000010
000000
010000
000000
001000
100000
000001
000100
000010
001000
000001
000000
010000
001000
100000
000010
,
100000
000000
000100
000000
001000
000100
010000
001000
100000
000001
000100
000000
000010
010000
000010
000100
,
000001
000000
001000
000000
000100
000000
100000
000000
101000
000000
000000
001001
000000
000000
000000
000000
,
000100
000000
000100
000000
010000
000010
010000
000010
100000
001000
100000
000000
000001
001000
000001
001000
,
000100
000000
000100
000000
010000
001000
010000
000010
100000
000010
100000
000000
001000
000001
001000
000001
,
000100
000000
000100
000000
000010
100000
010000
100000
001000
010000
000001
000000
001000
000010
001000
000001
,
100000
000000
100000
000000
000100
001000
000100
010000
000001
010000
000010
000000
000001
001000
000001
100000
,
001000
000000
001000
000000
001000
100000
000010
010000
000100
100000
000010
000000
010000
000001
000100
000001
,
010000
000000
010000
000000
010000
001000
100000
000001
100000
000010
000100
000000
000001
000100
000010
001000
,
000100
000000
000100
000000
000100
010000
001000
100000
000001
100000
000001
000000
010000
000010
001000
000010
,
010000
000000
010000
000000
000100
001000
000100
100000
000001
000010
000001
000000
100000
000010
001000
000000
,
010010
000000
000000
000000
000100
000000
000000
100000
000010
000000
001000
000000
000001
000000
000000
000000
,
000101
000000
000000
000000
000010
000000
000000
001000
000100
000000
010000
000000
000001
000000
000000
000000
,
100100
000000
000000
000000
010000
000000
000000
001000
100000
000000
000001
000000
000100
000000
000000
000000
,
000011
000000
000000
000000
100000
000000
000000
000010
000100
000000
000001
000000
001000
000000
000000
000000
,
010010
000000
000000
000000
001001
000000
000000
100000
000010
000000
010000
000000
001000
000000
000000
000000
,
101000
000000
000000
000000
000110
000000
000000
010000
000001
000000
000100
000000
000010
000000
000000
000000
,
100010
000000
000000
000000
010001
000000
000000
001000
000010
000000
100000
000000
010000
000000
000000
000000
,
100001
000000
000000
000002
000000
200003
000000
300002
000000
100003
000100
001000
000001
100000
000001
000000
;

//---------------dance-solo - ----------------
#NOTEDATA:;
#CHARTNAME:;
#STEPSTYPE:dance-solo;
#DESCRIPTION:;
#CHARTSTYLE:;
#DIFFICULTY:Beginner;
#METER:4;
#RADARVALUES:0.172172,0.239172,0.205538,0.000000,0.000000,129.000000,107.000000,22.000000,0.000000,0.000000,0.000000,0.000000,0.000000,0.000000,0.172172,0.239172,0.205538,0.000000,0.000000,129.000000,107.000000,22.000000,0.000000,0.000000,0.000000,0.000000,0.000000,0.000000;
#CREDIT:;
#DISPLAYBPM:148.000000;
#NOTES:
// measure 0
000000
000000
000000
000000
,  // measure 1
000000
000000
000000
000000
,  // measure 2
000000
000000
000000
000000
,  // measure 3
000000
000000
000000
000000
,  // measure 4
000000
000000
000000
000000
,  // measure 5
010010
000000
000000
000000
,  // measure 6
011000
000000
000000
000000
,  // measure 7
001010
000000
000000
000000
,  // measure 8
010010
000000
000000
000000
,  // measure 9
010010
000000
000000
000000
,  // measure 10
001010
000000
000000
000000
,  // measure 11
011000
000000
000000
000000
,  // measure 12
001010
000000
000000
000000
,  // measure 13
010010
000000
000000
000000
,  // measure 14
011000
000000
000000
000000
,  // measure 15
010010
000000
000000
000000
,  // measure 16
000000
001000
000000
001000
,  // measure 17
000000
010000
000000
000010
,  // measure 18
000000
010000
000000
000010
,  // measure 19
000000
001000
000000
000010
,  // measure 20
000000
010000
000000
000010
,  // measure 21
000000
010000
000000
001000
,  // measure 22
000000
010000
000000
000010
,  // measure 23
000000
001000
000000
000010
,  // measure 24
000000
010000
000000
001000
,  // measure 25
010010
000000
000000
000000
,  // measure 26
000010
000000
000000
000000
,  // measure 27
010000
000000
000000
000000
,  // measure 28
001000
000000
000000
000000
,  // measure 29
010010
000000
000000
000000
,  // measure 30
010000
000000
000000
000000
,  // measure 31
000010
000000
000000
000000
,  // measure 32
001000
000000
000000
000000
,  // measure 33
000010
000000
000010
000000
,  // measure 34
010000
000000
010000
000000
,  // measure 35
000010
000000
010000
000000
,  // measure 36
001000
000000
001000
000000
,  // measure 37
001000
000000
010000
000000
,  // measure 38
000010
000000
010000
000000
,  // measure 39
000010
000000
001000
000000
,  // measure 40
001000
000000
000010
000000
,  // measure 41
010000
010000
010000
000000
,  // measure 42
010000
010000
010000
000000
,  // measure 43
000010
000010
000010
000000
,  // measure 44
000010
000010
000010
000000
,  // measure 45
001000
001000
001000
000000
,  // measure 46
001000
001000
001000
000000
,  // measure 47
000010
000010
000010
000000
,  // measure 48
010010
000000
000000
000000
,  // measure 49
010000
010000
010000
000000
,  // measure 50
001000
001000
001000
000000
,  // measure 51
010000
010000
010000
000000
,  // measure 52
000010
000010
000010
000000
,  // measure 53
010000
010000
010000
000000
,  // measure 54
001000
001000
001000
000000
,  // measure 55
001000
001000
001000
000000
,  // measure 56
010000
010000
010000
000000
,  // measure 57
010010
000000
000000
000000
,  // measure 58
001010
000000
000000
000000
,  // measure 59
011000
000000
000000
000000
,  // measure 60
001010
000000
000000
000000
,  // measure 61
010010
000000
000000
000000
,  // measure 62
001010
000000
000000
000000
,  // measure 63
011000
000000
000000
000000
,  // measure 64
010010
000000
000000
000000
;
