#VERSION:0.83;
#TITLE:DJ-BATTLE;
#SUBTITLE:~JODLER MIX~;
#ARTIST:dj nagureo remixed by DJ SIMON;
#TITLETRANSLIT:;
#SUBTITLETRANSLIT:;
#ARTISTTRANSLIT:;
#GENRE:;
#ORIGIN:;
#CREDIT:;
#BANNER:DJ-BATTLE ~JODLER MIX~-bn.png;
#BACKGROUND:DJ-BATTLE ~JODLER MIX~-bg.png;
#PREVIEWVID:;
#JACKET:DJ-BATTLE ~JODLER MIX~-jacket.png;
#CDIMAGE:;
#DISCIMAGE:;
#LYRICSPATH:;
#CDTITLE:;
#MUSIC:DJ-BATTLE ~JODLER MIX~.ogg;
#OFFSET:0.000000;
#SAMPLESTART:59.077000;
#SAMPLELENGTH:20.000000;
#SELECTABLE:YES;
#DISPLAYBPM:130.000000:240.000000;
#BPMS:0.000=130.000,
128.000=165.000,
164.000=190.000,
172.000=200.000,
180.000=210.000,
184.000=220.000,
188.000=230.000,
192.000=240.000,
212.000=130.140;
#STOPS:;
#DELAYS:;
#WARPS:;
#TIMESIGNATURES:0.000=4=4;
#TICKCOUNTS:0.000=4;
#COMBOS:0.000=1;
#SPEEDS:0.000=1.000=0.000=0;
#SCROLLS:0.000=1.000;
#FAKES:;
#LABELS:0.000=Song Start;
#BGCHANGES:;
#KEYSOUNDS:;
#ATTACKS:
;

//---------------dance-single - ----------------
#NOTEDATA:;
#CHARTNAME:;
#STEPSTYPE:dance-single;
#DESCRIPTION:;
#CHARTSTYLE:;
#DIFFICULTY:Hard;
#METER:15;
#RADARVALUES:0.677682,0.821474,0.483442,0.443155,0.720127,471.000000,423.000000,48.000000,44.000000,0.000000,0.000000,0.000000,0.000000,0.000000,0.677682,0.821474,0.483442,0.443155,0.720127,471.000000,423.000000,48.000000,44.000000,0.000000,0.000000,0.000000,0.000000,0.000000;
#CREDIT:;
#DISPLAYBPM:130.000000:240.000000;
#NOTES:
0000
0000
0000
0000
,
0000
0000
0000
0000
,
0000
0000
0000
0000
,
0000
0000
0000
0000
,
0000
0000
0000
0000
,
0001
0000
1000
0000
0010
0000
0100
0000
0001
1000
0000
0100
0000
1000
0001
0000
,
0010
0000
0001
0000
0100
0000
0010
0000
1000
0100
0000
1000
0000
0001
0010
0000
,
0100
0000
1000
0000
0010
0000
1000
0000
0100
0010
0000
0001
0000
1000
0001
0000
,
0200
0000
0000
0000
0020
0000
0000
0000
0330
0000
0010
1000
0001
0010
0100
1000
,
0010
0000
2200
3300
0000
0202
0303
0000
,
0010
0000
0000
0000
1000
0100
1000
0000
0000
0000
0001
0100
0001
0000
0000
0000
,
0010
0000
0000
0000
0000
0000
0000
0000
0000
0000
0000
0000
2002
0000
0000
0000
0000
0000
3003
0000
0000
0000
0000
0000
0000
0000
0000
0000
0000
0000
0022
0000
0000
0000
0033
0000
0000
0000
0000
2200
0000
0000
0000
0000
3300
0000
0000
0000
,
0010
0000
0000
0000
1000
0001
1000
0000
0000
0000
0001
0010
0000
0001
0010
0100
,
1000
0202
0303
0000
2020
3030
0000
0220
,
0330
0000
1000
0001
1000
0000
0000
0000
0010
0100
0010
0000
0000
0000
0100
0001
,
0100
0000
0000
0000
0000
0000
0220
0000
0000
0000
0330
0000
0000
0000
0000
2020
0000
0000
0000
0000
3030
0000
0000
0000
0000
0000
0000
0000
0000
0000
0202
0000
0000
0000
0303
0000
0000
0000
0000
2002
0000
0000
0000
0000
3003
0000
0000
0000
,
0100
0000
0010
1000
0010
1000
0010
1000
0000
0000
0001
1000
0001
1000
0010
0100
,
0001
0010
0001
0010
0002
0000
0003
0000
0000
0000
2020
0000
3030
0000
0000
0000
,
0010
0100
0010
0100
0010
0000
0000
0000
0000
0000
1000
0001
1000
0000
0000
0000
,
0010
0000
0000
0000
0000
0000
1000
0000
0000
0100
0000
0000
1000
0000
0000
0000
0000
0000
0001
0000
0000
0100
0000
0000
0000
0000
0000
0200
0000
0000
0000
0000
0300
0000
0000
0000
0220
0000
0000
0000
0000
0000
0330
0000
0000
0000
0000
0000
,
0010
0000
1000
0100
1000
0000
0001
0100
0000
0100
0000
0000
0001
1000
0001
0100
,
0010
1000
0010
0100
0010
1000
0000
0000
0000
0000
0022
0000
0033
0000
0100
0001
,
0010
0001
0100
0001
0010
0001
0000
0000
0000
0000
1000
0100
0010
0000
0100
0010
,
0001
0001
0000
1000
1000
0000
0010
0010
0000
0100
0100
0000
1010
0000
0010
0100
,
0001
0001
0000
1000
1000
0000
0010
0010
0000
0100
0100
0000
2002
0000
0003
0000
,
0010
0000
3100
0000
1000
0000
0001
0000
0100
0001
0000
0010
0000
0100
1000
0000
,
0001
0000
1000
0000
0001
0000
0100
0000
0010
1000
0000
0001
0000
1000
0100
0000
,
0010
0000
0100
0000
0010
0000
0001
0000
0100
0001
0000
1000
0000
0100
1000
0000
,
0100
0000
1000
0000
0010
0000
0100
0000
0010
1000
0000
0001
0000
0010
0001
0000
,
0100
0000
0001
0000
0010
0000
0100
0000
1000
0100
0000
0010
0000
0001
1000
0000
,
0001
0000
1000
0000
0010
0000
1000
0000
0100
0010
0000
0001
0000
0100
0001
0000
,
1000
0000
0001
0000
0010
0000
0001
0000
0100
0010
0000
0100
0000
0001
1000
0000
,
0020
0000
0000
0000
0200
0000
0000
0000
0330
0000
0010
1000
0001
1000
0100
0010
,
0001
0000
0000
0000
0011
0000
0000
0000
1001
0000
0000
1001
0000
0000
1001
0000
,
0001
0000
0000
0000
1000
0010
0000
0000
1000
0010
1000
0010
1000
0100
0010
0001
,
0000
0110
0000
0000
1010
0000
0000
0000
1100
0000
0000
1100
0000
0000
0000
0000
,
0000
0010
1000
0010
1000
0100
0010
0000
0001
0010
0001
0010
0100
1000
0000
0000
,
0000
0000
1010
0000
0000
0101
0000
0000
0000
0011
0000
0000
0110
0000
0000
1100
,
0000
0001
0100
0001
0100
0001
0000
0000
0000
1000
0100
0010
0001
0100
0010
1000
,
0010
0000
0000
1001
0000
0000
0000
1010
0000
0000
0110
0000
0000
0101
0000
0000
,
1000
0100
0010
0001
0100
0000
0000
0000
0010
1000
0010
0100
0001
0010
0100
1000
,
0010
1000
0000
0010
1000
0000
0001
0100
0000
0001
0100
0000
0000
0000
0000
0000
,
0010
0100
0000
0010
0100
0001
1000
0000
0001
0100
0010
0100
0001
0000
0000
0000
,
2000
0000
3001
1000
0100
0000
0100
0000
2000
0000
3001
1000
0100
0000
0100
0000
,
0010
0000
0001
1000
0100
0000
0100
0000
0010
0000
0001
1000
0100
0000
0100
0000
,
1000
1100
0001
0101
1000
1010
0001
0011
,
0100
0010
0100
0010
0100
0010
0100
0010
0100
0010
0100
0010
0100
0010
0100
0010
,
1000
0000
0001
0100
0001
0000
1000
0010
0000
1000
0100
0000
0010
0001
0100
0000
,
0001
0010
0100
1000
0001
0010
1000
0100
,
0010
0001
1000
0010
1000
0100
0001
0100
,
0010
0001
0010
0100
0001
1000
0100
1000
,
0010
0001
1000
0010
0100
1000
0100
0001
,
0100
0010
0001
1000
0100
0001
0010
1000
,
2200
0000
3300
0000
1001
1001
0011
0011
,
0101
0101
0110
0110
2002
0000
0000
0000
,
0000
0000
0000
0000
,
0000
3003
0000
0000
;

//---------------dance-single - ----------------
#NOTEDATA:;
#CHARTNAME:;
#STEPSTYPE:dance-single;
#DESCRIPTION:;
#CHARTSTYLE:;
#DIFFICULTY:Medium;
#METER:11;
#RADARVALUES:0.463299,0.509880,0.282008,0.181291,0.176255,322.000000,294.000000,28.000000,18.000000,0.000000,0.000000,0.000000,0.000000,0.000000,0.463299,0.509880,0.282008,0.181291,0.176255,322.000000,294.000000,28.000000,18.000000,0.000000,0.000000,0.000000,0.000000,0.000000;
#CREDIT:;
#DISPLAYBPM:130.000000:240.000000;
#NOTES:
0000
0000
0000
0000
,
0000
0000
0000
0000
,
0000
0000
0000
0000
,
0000
0000
0000
0000
,
0000
0000
0000
0000
,
0001
1000
0010
0100
0001
0010
1000
0000
,
0100
0010
0100
1000
0010
1000
0001
0000
,
0010
0001
0100
0001
0010
0100
1000
0000
,
0200
0000
0020
0000
0330
0010
0100
1000
,
0010
0000
1100
0000
0000
0101
0000
0000
,
0010
0000
0001
0001
0000
1000
1000
0000
,
0010
0000
0000
0000
1001
0000
0000
0000
0000
0000
0011
0000
0000
1010
0000
0000
,
0010
0000
0000
0000
0100
0000
0100
0000
0000
0000
1000
0001
0000
1000
0001
0000
,
0000
0101
0000
0000
1001
0000
0000
1010
,
0000
1000
1000
0000
0001
0001
0000
0100
,
0000
0000
0110
0000
0000
0110
0000
0000
0000
0000
1001
0000
0000
1001
0000
0000
,
0000
0000
1000
0010
0000
1000
0010
0000
0000
0000
0100
0001
0000
0100
0001
0000
,
0010
0010
0010
0000
0000
1100
0000
0000
,
0100
0100
0100
0000
0000
0001
1000
0000
,
0001
0010
0100
1000
0010
0100
0110
0000
,
1000
0001
0100
0010
1000
0001
1001
0100
,
1000
1000
1000
0000
0000
0101
0000
0100
,
0001
0000
0001
0000
0001
0000
0000
0000
0000
0000
0010
0000
1000
0000
0010
0100
,
0010
0000
0000
0000
1000
0000
0000
0001
0000
0000
0100
0000
0110
0000
0001
1000
,
0001
0000
0000
0000
0100
0000
0000
0010
0000
0000
1000
0000
2001
0000
0000
0000
,
3010
1000
0100
0010
0001
0100
1000
0000
,
0001
1000
0010
1000
0100
0010
0001
0000
,
0100
0001
1000
0010
0100
0010
1000
0000
,
0100
1000
0010
0100
0010
1000
0001
0000
,
0010
0001
1000
0100
0010
0100
1000
0000
,
0010
0100
0010
1000
0001
0100
1000
0000
,
0001
0010
1000
0001
0100
0010
1000
0000
,
0020
0000
0200
0000
0330
0010
0100
0001
,
1000
0000
0000
0000
1020
0000
0000
0000
0100
0000
0000
0100
0000
0000
0130
0000
,
0000
0000
0000
0000
1001
0000
0000
0000
0010
0000
1000
0001
0000
1000
0001
0000
,
0000
0201
0000
0000
0001
0000
0000
0000
0010
0000
0000
0310
0000
0000
0000
0000
,
0000
1002
0000
0000
1003
0000
0000
0000
0001
0000
0100
0010
0000
0100
0010
0000
,
0000
2010
0000
0000
0001
0000
0000
0000
0000
0100
0000
0000
0100
0000
0000
3100
,
0000
0000
1000
0010
0000
1000
0010
0000
0000
0000
0100
0001
0000
0100
0001
0000
,
1002
0000
0000
0100
0000
0000
0000
1000
0000
0000
1000
0000
0000
1003
0000
0000
,
0001
0010
0000
0001
0010
0000
0000
0000
0001
0000
1000
0100
0000
1000
0100
0000
,
0010
0100
0001
1000
0100
1100
0000
0000
,
0001
1000
0010
0100
0001
0011
0000
0000
,
0002
0000
0103
0001
2000
0000
3100
1000
,
0020
0000
1030
0001
0200
0000
0301
1000
,
0010
0100
0010
0100
0010
0100
0010
0100
,
0001
1000
0001
1000
0001
1000
0001
1000
,
0010
0100
0010
0100
0001
1000
0001
1000
,
0001
0100
0010
1000
,
0001
0010
0100
1000
,
0010
1000
0001
0100
,
0010
0100
0001
1000
,
0001
1000
0010
0100
,
0220
0000
0330
0000
0010
0010
0010
0010
,
0010
0010
0010
0010
2002
0000
0000
0000
,
0000
0000
0000
0000
,
0000
3003
0000
0000
;

//---------------dance-single - ----------------
#NOTEDATA:;
#CHARTNAME:;
#STEPSTYPE:dance-single;
#DESCRIPTION:;
#CHARTSTYLE:;
#DIFFICULTY:Easy;
#METER:7;
#RADARVALUES:0.280569,0.396574,0.282008,0.241721,0.000000,195.000000,167.000000,28.000000,24.000000,0.000000,0.000000,0.000000,0.000000,0.000000,0.280569,0.396574,0.282008,0.241721,0.000000,195.000000,167.000000,28.000000,24.000000,0.000000,0.000000,0.000000,0.000000,0.000000;
#CREDIT:;
#DISPLAYBPM:130.000000:240.000000;
#NOTES:
0000
0000
0000
0000
,
0000
0000
0000
0000
,
0000
0000
0000
0000
,
0000
0000
0000
0000
,
0000
0000
0000
0000
,
0001
0100
1000
0100
,
0001
0010
1000
0010
,
0001
0100
0010
1000
,
0200
0020
0000
0330
,
0000
0000
0002
0000
0000
1003
0000
0000
,
0000
0000
2000
0000
0000
3001
0000
0000
,
0000
0000
0020
0000
0000
0100
0000
0130
,
0000
0000
0200
0000
0000
0010
0000
0310
,
0000
2000
0000
0000
3002
0000
0000
0103
,
0000
0200
0000
0000
0320
0000
0000
1030
,
0000
0001
0000
0001
0000
1000
0000
1000
,
0000
0010
0000
0010
0000
0100
0000
0100
,
0001
0000
1000
0000
0000
1001
0000
0000
,
0010
0000
0100
0000
0000
0110
0000
0000
,
0002
1000
0103
1001
,
2000
0001
3010
0110
,
0010
0000
1000
0000
0000
1001
0000
0000
,
0001
0000
0100
0000
0000
0110
0000
0000
,
0001
0100
1000
0110
,
1000
0010
0001
1001
,
0001
0010
0100
1000
,
0010
1000
0001
0100
,
1000
0001
0010
0100
,
0010
0100
1000
0001
,
0100
0010
1000
0001
,
1000
0100
0010
0001
,
0010
0001
0100
1000
,
0020
0200
0000
0330
,
0000
0001
1001
1001
,
0000
1000
1001
1001
,
0000
0010
0110
0110
,
0000
0100
0110
0110
,
0000
1001
0100
0001
,
0010
1001
0100
1000
,
0010
0100
0110
0110
,
1000
0001
0110
1001
,
0001
0001
0002
0003
,
1000
1000
2000
3000
,
0020
0130
0200
0301
,
0002
1003
2000
3010
,
1000
1000
1000
1000
,
0001
0001
0001
0001
,
0100
0100
0010
0010
,
1000
0000
0001
0000
,
0100
0000
0010
0000
,
1000
0000
0100
0000
,
0010
0000
0001
0000
,
0100
0100
0100
0100
,
0220
0330
1001
1001
,
0110
0110
2002
0000
,
0000
0000
0000
0000
,
0000
3003
0000
0000
;

//---------------dance-single - ----------------
#NOTEDATA:;
#CHARTNAME:;
#STEPSTYPE:dance-single;
#DESCRIPTION:;
#CHARTSTYLE:;
#DIFFICULTY:Beginner;
#METER:3;
#RADARVALUES:0.132371,0.198287,0.020143,0.030215,0.000000,92.000000,90.000000,2.000000,3.000000,0.000000,0.000000,0.000000,0.000000,0.000000,0.132371,0.198287,0.020143,0.030215,0.000000,92.000000,90.000000,2.000000,3.000000,0.000000,0.000000,0.000000,0.000000,0.000000;
#CREDIT:;
#DISPLAYBPM:130.000000:240.000000;
#NOTES:
// measure 0
0000
0000
0000
0000
,  // measure 1
0000
0000
0000
0000
,  // measure 2
0000
0000
0000
0000
,  // measure 3
0000
0000
0000
0000
,  // measure 4
0000
0000
0000
0000
,  // measure 5
0001
0000
0100
0000
,  // measure 6
0001
0000
0001
0000
,  // measure 7
1000
0000
0100
0000
,  // measure 8
0100
0000
0000
0000
,  // measure 9
0000
0010
0000
0010
,  // measure 10
0000
0100
0000
0100
,  // measure 11
0000
0001
0000
0001
,  // measure 12
0000
1000
0000
1000
,  // measure 13
0000
0001
0000
0100
,  // measure 14
0000
1000
0000
0100
,  // measure 15
0000
0010
0000
0001
,  // measure 16
0000
0010
0000
0000
,  // measure 17
1000
1000
0000
0000
,  // measure 18
0001
0001
0000
0000
,  // measure 19
0100
0000
0010
0000
,  // measure 20
0010
0000
0100
0000
,  // measure 21
0010
0010
0000
0000
,  // measure 22
0100
0100
0000
0000
,  // measure 23
0001
0000
1000
0000
,  // measure 24
1000
0000
0001
0000
,  // measure 25
0010
0000
0000
0000
,  // measure 26
0100
0000
0000
0000
,  // measure 27
0001
0000
0000
0000
,  // measure 28
1000
0000
0000
0000
,  // measure 29
0010
0000
0010
0000
,  // measure 30
1000
0000
1000
0000
,  // measure 31
0001
0000
1000
0000
,  // measure 32
0010
0000
0000
0000
,  // measure 33
0000
0100
0100
0100
,  // measure 34
0000
0001
0001
0001
,  // measure 35
0000
1000
1000
1000
,  // measure 36
0000
0010
0010
0010
,  // measure 37
0000
0100
0000
0001
,  // measure 38
0000
0100
0000
1000
,  // measure 39
1000
0000
1000
0000
,  // measure 40
0001
0000
0001
0000
,  // measure 41
0100
0000
0100
0000
,  // measure 42
0010
0000
0010
0000
,  // measure 43
1000
0000
0100
0000
,  // measure 44
0010
0000
0001
0000
,  // measure 45
0100
0100
0100
0000
,  // measure 46
0001
0001
0001
0000
,  // measure 47
1000
0000
0001
0000
,  // measure 48
0020
0000
0000
0000
,  // measure 49
0000
0000
0000
0000
,  // measure 50
0000
0000
0000
0000
,  // measure 51
0000
0000
0000
0030
,  // measure 52
0000
0000
0000
0000
,  // measure 53
0110
0000
0001
0000
,  // measure 54
1000
0000
2002
0000
,  // measure 55
0000
0000
0000
0000
,  // measure 56
0000
3003
0000
0000
;
