#TITLE:DIVERGENT;
#SUBTITLE:;
#ARTIST:Kabanagu;
#TITLETRANSLIT:;
#SUBTITLETRANSLIT:;
#ARTISTTRANSLIT:;
#GENRE:;
#CREDIT:;
#BANNER:DIVERGENT-bn.png;
#BACKGROUND:DIVERGENT-bg.png;
#LYRICSPATH:;
#CDTITLE:;
#MUSIC:DIVERGENT.ogg;
#OFFSET:0.690000;
#SAMPLESTART:22.757999;
#SAMPLELENGTH:20.000000;
#SELECTABLE:YES;
#DISPLAYBPM:174.000000;
#BPMS:0.000000=174.000000
;
#STOPS:
;
#BGCHANGES:;
#KEYSOUNDS:;
#ATTACKS:;

//---------------dance-single - ----------------
#NOTES:
     dance-single:
     :
     Hard:
     15:
     0.777349,1.113626,0.657658,0.270270,0.680180,604.000000,531.000000,73.000000,30.000000,0.000000,0.000000,0.777349,1.113626,0.657658,0.270270,0.680180,604.000000,531.000000,73.000000,30.000000,0.000000,0.000000:
0000
0000
0000
0000
,
0000
0000
0000
0000
,
0000
0000
0000
0000
,
0000
0000
0000
0000
,
0000
0000
0000
0000
,
0000
0000
0000
0000
,
0000
0000
0000
0000
,
0000
0000
0000
0000
,
0000
0000
0000
0000
,
0002
0000
0000
0000
0013
0000
0100
0000
1000
0000
0001
0100
0000
0001
0100
0000
,
0000
0000
0010
0000
1000
0000
0001
0000
0020
0000
0000
0230
0000
0000
1300
0000
,
2010
0000
0000
0000
3100
0000
0010
0000
0001
0000
1000
0100
0000
1000
0100
0000
,
0000
0000
1000
0000
0001
0000
0010
0000
0200
0000
0000
2300
0000
0000
3000
0000
,
0001
0010
0100
1000
0010
0001
0100
1000
,
0001
0100
0010
1000
0100
1000
0001
0010
,
0001
0100
0001
0100
1000
0100
1000
0100
0010
1000
0010
1000
0001
0010
0001
0010
,
0000
0000
0100
0000
1000
0000
0001
0000
0200
0000
0000
0000
0310
0100
0010
0100
,
0001
0000
0000
0000
0100
0000
1000
0000
1010
0000
0000
0101
0000
0000
1100
0000
,
0000
0001
0010
0001
0010
0000
0100
0000
1000
0000
0010
0000
0100
0000
0001
0010
,
0000
0010
0100
0000
0100
1000
0000
1000
0010
0000
0100
0001
1000
0000
1100
0000
,
0000
0001
0011
0000
1000
0010
1001
0001
,
0100
0010
0100
0010
1000
0000
0000
1010
0000
0000
0101
0000
0000
0110
0000
0000
,
1001
0000
0000
0000
0010
0000
0001
0000
0100
0000
0001
1000
0000
1000
0100
0000
,
0100
0010
0000
0010
0001
0000
1000
0000
1000
0000
0010
0100
0001
0000
0010
0000
,
1100
0001
0101
0100
1010
1000
0011
0010
,
0110
0100
1000
1000
0001
0001
0100
0100
,
0010
0010
1000
1000
0001
0001
0020
0000
,
0031
0100
0010
0000
1000
0000
0000
0100
0000
0010
0001
0000
0001
0000
0000
1000
,
0000
0001
0100
0000
0100
0000
0000
0010
0000
1000
0001
0000
1010
0000
1010
0000
,
0000
1000
0100
0000
0001
0000
0000
0010
0000
0100
1000
0000
1000
0000
0000
0001
,
0000
0100
0010
0000
0010
0000
0000
1000
0000
0001
0100
0000
0010
0100
0001
1000
,
0000
0100
0010
0000
0001
0000
0000
1000
0000
0010
0100
0000
0100
0000
0000
0001
,
0000
1000
0010
0000
0010
0000
0000
1000
0000
0100
0001
0000
1001
0000
1001
0000
,
0000
0100
0001
0000
1000
0000
0000
0100
0000
0010
0100
0000
1000
0000
0001
0010
,
0001
1100
0101
1100
,
0010
0000
0000
0000
0110
0000
0000
0001
0000
0100
1000
0000
0010
0000
0000
1000
,
0000
0001
1000
0000
0100
0000
0000
0010
0000
0100
1000
0000
0011
0000
0011
0000
,
0000
1000
0010
0000
0100
0000
0000
0001
0000
0010
0001
0000
0100
0000
0000
1000
,
0000
0010
0100
0000
0010
0000
0000
0100
0000
0001
1000
0000
0001
0010
0100
1000
,
0000
1010
0000
0000
0101
0000
0000
0011
0000
1001
0000
0000
1100
0000
0000
0110
,
0000
0011
0000
0000
1100
0000
0000
1001
0000
0101
0000
0000
0110
0000
1010
0000
,
1000
0010
1000
0100
0001
0100
0010
0001
0010
0001
0010
0100
1000
0100
1000
0001
,
0200
0000
0010
0000
1000
1000
0301
0000
,
2001
0000
0000
0000
0100
0000
0000
0000
0010
0000
0000
0010
0000
0000
3010
0000
,
0000
0001
1000
0100
0010
0000
1100
0000
,
0002
0000
0000
0000
0013
0000
0100
0000
1000
0000
0010
0100
0000
0100
0001
0000
,
0000
0000
0010
0000
0001
0000
0100
0000
0002
0000
0000
2003
0000
0000
3100
0000
,
0200
0000
0000
0000
1300
0000
0010
0000
0100
0000
0001
1000
0000
0001
1000
0000
,
0000
0000
0001
0000
1000
0000
0100
0000
0020
0000
0000
0032
0000
0000
1003
0000
,
0020
0000
0000
0000
1030
0000
0100
0000
1000
0000
0001
0010
0000
0010
0100
0000
,
0000
0000
0010
0000
0001
0000
1000
0000
0020
0000
0000
0230
0000
0000
0301
0000
,
0120
0000
0000
0000
1030
0000
0001
0000
0010
0000
0001
0100
0000
0100
0010
0000
,
0000
0000
1000
0000
0100
0000
0001
0000
2000
0000
0000
3002
0000
0000
0103
0000
,
2001
0000
0000
0000
3010
0000
0001
0000
1000
0000
0100
1000
0000
0001
0100
0000
,
0000
0000
0001
0000
1000
0000
0100
0000
0020
0000
0000
0032
0000
0000
1003
0000
,
0010
0001
0100
1000
1000
0010
0001
0100
,
0001
0100
0010
1000
0010
1000
0100
0001
,
0010
0100
0010
0001
0100
0001
1000
0001
1000
0001
1000
0100
0010
1000
0010
0100
,
0010
0001
0010
0001
0010
0001
0010
0001
1000
0000
1000
0000
1000
0001
1000
0001
,
0010
0000
0000
0000
0001
0000
0100
0000
1010
0000
0000
1100
0000
0000
0011
0000
,
0000
0110
0000
0000
1100
0000
0000
1001
0000
0000
1010
0000
0101
0000
0000
0000
,
0001
0000
1000
0100
0010
0000
0010
0001
0100
0000
0001
0010
0100
0000
1001
0000
,
0000
0010
0101
0000
0100
0001
1100
1000
,
0010
0100
0010
0100
0010
0100
0001
1000
0100
0010
0100
0000
0000
0011
0000
0000
,
2020
0000
0000
0000
0030
0000
0000
0000
3001
0000
0010
0100
0000
0100
1000
0000
,
1000
0010
0000
0010
0100
0000
0001
0000
0010
0000
0100
1000
0001
0000
0100
0000
,
0110
0001
0011
0100
1100
1000
0101
0010
,
2000
0000
0000
0000
3100
0000
0010
0000
0001
0000
0000
0001
0000
0000
0001
0000
,
1010
0011
1010
0011
,
0100
0000
0001
0010
0100
0000
1000
0000
0001
0000
1000
0010
0100
0000
0001
0000
,
0000
0000
0010
0000
1100
0000
0001
0100
0000
0100
0001
0000
1000
0000
0100
0000
,
1000
0010
1000
0010
0100
0000
0000
0101
0000
0000
0011
0000
0000
1100
0000
0000
,
0110
0000
0000
0000
0001
0000
0100
0000
0010
0000
1000
0001
0000
0001
0100
0000
,
0100
0010
0000
0010
0100
0000
0001
0000
1000
0000
0010
1000
0001
0000
0100
0000
,
0101
0010
1010
0100
1100
0001
1001
1000
,
0022
0000
0000
0000
,
0000
0000
0000
0000
,
0000
0000
0000
0000
,
0000
0000
0000
0000
,
0000
0000
0000
0033
;

//---------------dance-single - ----------------
#NOTES:
     dance-single:
     :
     Medium:
     11:
     0.567568,0.754392,0.504505,0.342342,0.373874,441.000000,385.000000,56.000000,38.000000,0.000000,0.000000,0.567568,0.754392,0.504505,0.342342,0.373874,441.000000,385.000000,56.000000,38.000000,0.000000,0.000000:
0000
0000
0000
0000
,
0000
0000
0000
0000
,
0000
0000
0000
0000
,
0000
0000
0000
0000
,
0000
0000
0000
0000
,
0000
0000
0000
0000
,
0000
0000
0000
0000
,
0000
0000
0000
0000
,
0000
0000
0000
0000
,
0002
0000
0000
0000
0013
0000
0100
0000
1000
0000
0000
0001
0000
0000
0100
0000
,
0000
0000
0001
0000
1000
0000
0010
0000
0100
0000
0000
0001
0000
0000
1000
0000
,
0020
0000
0000
0000
0130
0000
0010
0000
1000
0000
0000
0001
0000
0000
0100
0000
,
0000
0000
0001
0000
1000
0000
0010
0000
1000
0000
0000
0100
0000
0000
0010
0000
,
0200
0000
0000
0000
0310
0000
0001
0000
1000
0000
0000
0001
0000
0000
0100
0000
,
0000
0000
0001
0000
1000
0000
0010
0000
0100
0000
0000
0001
0000
0000
0010
0000
,
0100
0001
1000
0010
0001
0100
1000
0010
,
0000
0001
0100
0010
2000
0000
3010
0100
,
0101
0000
0000
0000
0010
0000
0100
0000
1100
0000
0000
1100
0000
0000
1100
0000
,
0000
0000
0001
0000
1000
0000
0010
0000
0100
0000
0001
0000
0020
0000
0000
0230
,
0000
0000
2300
0000
0000
3002
0000
0000
1003
0000
0010
0000
0100
0000
0110
0000
,
0000
0001
0011
0000
1010
0000
1001
0000
,
0001
0000
1000
0000
0001
0000
0000
1010
0000
0000
1010
0000
0000
1010
0000
0000
,
1010
0000
0000
0000
0100
0000
0010
0000
0002
0000
0000
0203
0000
0000
0320
0000
,
0000
2030
0000
0000
3100
0000
0010
0000
0100
0000
1000
0000
0001
0000
0100
0000
,
0110
1001
1100
0011
,
1001
0000
0100
0000
1000
0001
0100
0000
,
0001
1000
0010
1000
0100
0010
0011
0000
,
0000
1000
0000
0000
0001
0000
0000
0010
0000
0100
0000
0000
0010
0000
0000
0001
,
0000
1000
0000
0000
0100
0000
0000
1000
0000
0001
0000
0000
0100
0000
0100
0000
,
0000
0001
0000
0000
0010
0000
0000
0001
0000
1000
0000
0000
0100
0000
0000
0010
,
0000
0100
0000
0000
0010
0000
0000
0001
0000
1000
0000
0000
0001
0000
0100
0000
,
0000
1000
0000
0000
0100
0000
0000
0010
0000
0001
0000
0000
1000
0000
0000
0001
,
0000
1000
0000
0000
0010
0000
0000
0100
0000
0001
0000
0000
1000
0000
1000
0000
,
0000
0010
0000
0000
0100
0000
0000
0001
0000
1000
0000
0000
0010
0000
0000
0100
,
0002
0023
0230
2300
,
3001
0000
0000
0000
1010
0000
0000
0010
0000
1000
0000
0000
0100
0000
0000
1000
,
0000
0001
0000
0000
0010
0000
0000
0001
0000
0100
0000
0000
0010
0000
0010
0000
,
0000
1000
0000
0000
0100
0000
0000
1000
0000
0001
0000
0000
0010
0000
0000
0100
,
0000
0010
0000
0000
0100
0000
0000
1000
0000
0001
0000
0000
1000
0000
0010
0000
,
0000
1000
0000
0000
0001
0000
0000
0010
0000
0100
0000
0000
0010
0000
0000
0001
,
0000
1000
0000
0000
0010
0000
0000
1000
0000
0100
0000
0000
0001
0000
0001
0000
,
1000
0010
0100
0010
0001
1000
0100
0001
,
0220
0000
0000
0330
,
1002
0000
0000
0000
2003
0000
0000
0000
3010
0000
0000
0010
0000
0000
0010
0000
,
0000
1000
0001
1000
0100
0000
1100
0000
,
0001
0000
0000
0000
1000
0000
0000
0000
0010
0000
0000
1000
0000
0000
0100
0000
,
0000
0000
1000
0000
0001
0000
0000
0000
0010
0000
0000
0100
0000
0000
1000
0000
,
0010
0000
0000
0000
1000
0000
0000
0000
0100
0000
0000
0001
0000
0000
1000
0000
,
0000
0000
0001
0000
0010
0000
0000
0000
0001
0000
0000
0100
0000
0000
1000
0000
,
0100
0000
0000
0000
0010
0000
0000
0000
0100
0000
0000
1000
0000
0000
0001
0000
,
0000
0000
0010
0000
0001
0000
0000
0000
0100
0000
0000
0001
0000
0000
1000
0000
,
0102
0000
0000
0000
1003
0000
0001
0000
0010
0000
0000
0100
0000
0000
1000
0000
,
0000
0000
0100
0000
0010
0000
0100
0000
1000
0000
0000
0001
0000
0000
0010
0000
,
2100
0000
0000
0000
3100
0000
0010
0000
0001
0000
0000
0010
0000
0000
1000
0000
,
0000
0000
0001
0000
0100
0000
0010
0000
1000
0000
0000
0100
0000
0000
0001
0000
,
0010
0000
0100
0000
0001
0000
0010
0000
0100
0000
0000
1000
0000
0000
0001
0000
,
1000
0000
0010
0000
0100
0000
0001
0000
0010
0000
0000
0100
0000
0000
1000
0000
,
0010
1000
0100
0001
0100
0010
1000
0001
,
0010
0010
0010
0010
0100
0100
0100
0100
,
0011
0000
0000
0000
1000
0000
0001
0000
1001
0000
0000
1010
0000
0000
0110
0000
,
0000
0101
0000
0000
1100
0000
0000
0011
0000
0000
0100
0000
1010
0000
0000
0000
,
0001
0010
0001
0100
1000
0010
0100
0101
,
0000
1000
0110
0000
1010
0000
1100
0000
,
0001
0000
1000
0000
0010
0000
1000
0000
0100
0000
0020
0000
0000
0031
0000
0000
,
2200
0000
0000
0000
3000
0000
0000
0000
0320
0000
0000
0230
0000
0000
2300
0000
,
0000
3002
0000
0000
0103
0000
0001
0000
0010
0000
0100
0000
1000
0000
0001
0000
,
0011
1100
0101
1010
,
2001
0000
0000
0000
0001
0000
0000
0000
0100
0000
0000
0100
0000
0000
3100
0000
,
1100
0110
0011
1001
,
0010
1000
0100
1000
0001
0100
0010
1000
,
0100
0000
0000
0000
2000
0000
0000
3002
0000
0000
0013
0000
0001
0000
0100
0000
,
0010
0000
0100
0000
0101
0000
0000
1100
0000
0000
1001
0000
0000
0110
0000
0000
,
1100
0000
0000
0000
0001
0000
1000
0000
0002
0000
0000
0023
0000
0000
0230
0000
,
0000
2300
0000
0000
3010
0000
0100
0000
0001
0000
0010
0000
0100
0000
1000
0000
,
1100
0101
1100
0101
,
2002
0000
0000
0000
,
0000
0000
0000
0000
,
0000
0000
0000
0000
,
0000
0000
0000
0000
,
0000
0000
0000
3003
;

//---------------dance-single - ----------------
#NOTES:
     dance-single:
     :
     Easy:
     7:
     0.366795,0.490315,0.387387,0.090090,0.000000,285.000000,242.000000,43.000000,10.000000,0.000000,0.000000,0.366795,0.490315,0.387387,0.090090,0.000000,285.000000,242.000000,43.000000,10.000000,0.000000,0.000000:
0000
0000
0000
0000
,
0000
0000
0000
0000
,
0000
0000
0000
0000
,
0000
0000
0000
0000
,
0000
0000
0000
0000
,
0000
0000
0000
0000
,
0000
0000
0000
0000
,
0000
0000
0000
0000
,
0000
0000
0000
0000
,
1001
0100
0001
0010
,
1000
0001
1000
0100
,
1001
0010
0100
0001
,
0010
0001
1000
0100
,
0110
0001
0010
1000
,
0001
0100
0010
1000
,
0100
0010
0100
1000
,
0001
0100
0100
0000
,
1010
0001
1000
0100
,
0010
0001
0100
0010
,
1000
0001
0010
1000
,
0001
1100
0101
1100
,
0101
1000
0001
0100
,
0001
0110
0001
0100
,
1000
0100
0001
1000
,
0011
1100
0011
1100
,
1001
0100
0100
0100
,
0100
0100
0100
1010
,
0000
0001
0100
1000
,
0010
0100
0010
1000
,
0000
0010
1000
0001
,
0010
0100
0010
0001
,
0000
0100
0010
0100
,
0001
0010
1000
0100
,
0000
1000
0001
0100
,
0110
1001
0110
1001
,
0000
0110
0001
0010
,
0001
0100
1000
0001
,
0000
0010
0100
1000
,
0010
1000
0100
0001
,
0000
0010
0000
0001
,
0000
0100
0000
0001
,
1000
1000
0001
0001
,
2002
0000
0000
3003
,
0100
0001
1000
0100
,
0000
1000
0010
1100
,
0001
0100
1000
1000
,
0000
0010
1000
0100
,
0010
0001
0100
0100
,
0000
0001
0010
1000
,
0001
0100
0010
0010
,
0000
1000
0100
0001
,
1001
0010
1000
0100
,
0010
0100
0010
0001
,
0100
1000
0010
0001
,
1000
0001
1000
0100
,
0010
0100
0010
0001
,
0100
1000
0001
0100
,
0010
0100
0010
1000
,
0002
0003
2000
3000
,
1010
0001
1000
0010
,
1000
0100
0010
0001
,
0100
0010
1000
0100
,
0001
0011
1010
0011
,
1010
0001
1000
0100
,
2020
0030
0100
3010
,
1000
0001
0010
0100
,
1001
0101
1001
1100
,
0020
0030
0200
0300
,
0010
0010
1001
0110
,
1000
0001
1000
0010
,
0100
0001
0010
0100
,
1000
0110
1010
0101
,
0001
0100
1000
0001
,
0010
0100
0010
0001
,
1100
0110
0011
0110
,
2200
0000
0000
0000
,
0000
0000
0000
0000
,
0000
0000
0000
3300
;

//---------------dance-single - ----------------
#NOTES:
     dance-single:
     :
     Beginner:
     5:
     0.166023,0.245158,0.045045,0.027027,0.000000,129.000000,124.000000,5.000000,3.000000,0.000000,0.000000,0.166023,0.245158,0.045045,0.027027,0.000000,129.000000,124.000000,5.000000,3.000000,0.000000,0.000000:
// measure 0
0000
0000
0000
0000
,  // measure 1
0000
0000
0000
0000
,  // measure 2
0000
0000
0000
0000
,  // measure 3
0000
0000
0000
0000
,  // measure 4
0000
0000
0000
0000
,  // measure 5
0000
0000
0000
0000
,  // measure 6
0000
0000
0000
0000
,  // measure 7
0000
0000
0000
0000
,  // measure 8
0000
0000
0000
0000
,  // measure 9
1001
0000
0000
0000
,  // measure 10
0000
0000
0000
0000
,  // measure 11
1001
0000
0000
0000
,  // measure 12
0000
0000
0000
0000
,  // measure 13
0010
0000
0010
0000
,  // measure 14
0100
0000
0100
0000
,  // measure 15
0001
0000
1000
0000
,  // measure 16
0001
0000
0000
0000
,  // measure 17
0000
0000
1000
1000
,  // measure 18
0000
0010
0010
0000
,  // measure 19
0000
0000
0100
0100
,  // measure 20
0000
0001
0001
0001
,  // measure 21
0000
0010
0010
0010
,  // measure 22
0000
1000
1000
1000
,  // measure 23
0000
0000
0000
0000
,  // measure 24
0010
0010
0010
0010
,  // measure 25
0020
0000
0000
0000
,  // measure 26
0000
0000
0000
0030
,  // measure 27
0000
1000
0000
1000
,  // measure 28
0000
0001
0000
0001
,  // measure 29
0000
0010
0000
0010
,  // measure 30
0000
0100
0000
0100
,  // measure 31
0000
0010
0000
0010
,  // measure 32
0000
0100
0000
0100
,  // measure 33
0000
1000
0000
0000
,  // measure 34
0001
0001
0001
0001
,  // measure 35
0000
1001
0000
0000
,  // measure 36
0010
0000
1000
0000
,  // measure 37
0000
0001
0000
0100
,  // measure 38
0000
0001
0000
0100
,  // measure 39
0000
1001
0000
0000
,  // measure 40
0000
0000
0000
0000
,  // measure 41
1000
1000
1000
1000
,  // measure 42
1000
0000
0000
0000
,  // measure 43
0001
0000
0000
0000
,  // measure 44
0000
0000
0000
0000
,  // measure 45
0010
0010
0010
0010
,  // measure 46
0000
0000
0000
0000
,  // measure 47
0001
0001
0001
0001
,  // measure 48
0000
0000
0000
0000
,  // measure 49
0100
0100
0100
0100
,  // measure 50
0000
0000
0000
0000
,  // measure 51
1001
0000
0000
0000
,  // measure 52
0000
0000
0000
0000
,  // measure 53
0001
0000
0000
0000
,  // measure 54
0000
0000
0000
0000
,  // measure 55
1000
0000
1000
0000
,  // measure 56
0001
0000
0001
0000
,  // measure 57
0100
0000
0010
0000
,  // measure 58
0100
0000
0000
0000
,  // measure 59
0000
0000
0010
0010
,  // measure 60
0010
0010
0010
0010
,  // measure 61
0000
0000
1000
1000
,  // measure 62
0000
0001
0001
0001
,  // measure 63
0000
0000
0100
0100
,  // measure 64
0200
0300
0000
0001
,  // measure 65
0000
1000
1000
0000
,  // measure 66
0010
0010
0010
0010
,  // measure 67
0010
0000
0000
0000
,  // measure 68
1000
1000
1000
1000
,  // measure 69
0000
1000
0000
0010
,  // measure 70
0000
0100
0000
0001
,  // measure 71
0000
0010
0010
0010
,  // measure 72
0000
0001
0001
0001
,  // measure 73
0001
0000
1000
0000
,  // measure 74
0100
0100
0100
0100
,  // measure 75
0200
0000
0000
0000
,  // measure 76
0000
0000
0000
0000
,  // measure 77
0000
0000
0000
0300
;
