#VERSION:0.83;
#TITLE:DIVE;
#SUBTITLE:;
#ARTIST:BeForU;
#TITLETRANSLIT:;
#SUBTITLETRANSLIT:;
#ARTISTTRANSLIT:;
#GENRE:;
#ORIGIN:;
#CREDIT:;
#BANNER:DIVE.png;
#BACKGROUND:DIVE-bg.png;
#PREVIEWVID:;
#JACKET:DIVE-jacket.png;
#CDIMAGE:;
#DISCIMAGE:;
#LYRICSPATH:;
#CDTITLE:;
#MUSIC:DIVE.ogg;
#OFFSET:0.000000;
#SAMPLESTART:40.276001;
#SAMPLELENGTH:20.000000;
#SELECTABLE:YES;
#DISPLAYBPM:155.000000;
#BPMS:0.000=153.009,
4.000=155.000;
#STOPS:;
#DELAYS:;
#WARPS:;
#TIMESIGNATURES:0.000=4=4;
#TICKCOUNTS:0.000=4;
#COMBOS:0.000=1;
#SPEEDS:0.000=1.000=0.000=0;
#SCROLLS:0.000=1.000;
#FAKES:;
#LABELS:0.000=Song Start;
#BGCHANGES:;
#KEYSOUNDS:;
#ATTACKS:
;

//---------------dance-single - ----------------
#NOTEDATA:;
#CHARTNAME:;
#STEPSTYPE:dance-single;
#DESCRIPTION:;
#CHARTSTYLE:;
#DIFFICULTY:Beginner;
#METER:4;
#RADARVALUES:0.181550,0.247919,0.000000,0.000000,0.000000,122.000000,122.000000,0.000000,0.000000,0.000000,0.000000,0.000000,0.000000,0.000000,0.181550,0.247919,0.000000,0.000000,0.000000,122.000000,122.000000,0.000000,0.000000,0.000000,0.000000,0.000000,0.000000,0.000000;
#CREDIT:;
#DISPLAYBPM:155.000000;
#NOTES:
0000
0000
0000
0000
,
0000
0000
0000
0000
,
0000
0000
0000
0000
,
0010
0010
0010
0000
,
0010
0010
0010
0010
,
0010
0000
1000
0000
,
0100
0000
0001
0000
,
0010
0000
1000
0000
,
0100
0000
0001
0000
,
0000
0000
0000
0000
,
0010
0000
0001
0000
,
0100
0000
0000
0000
,
0010
0000
1000
0000
,
0100
0100
0100
0000
,
0000
0001
0000
1000
,
0000
0010
0000
0100
,
0000
0001
0000
1000
,
0000
0001
0000
1000
,
1000
1000
1000
0000
,
0001
0001
0001
0000
,
0001
0000
0100
0000
,
0001
0000
1000
0000
,
1000
1000
1000
0000
,
1000
0000
0100
0000
,
1000
0000
0001
0000
,
0000
0001
0001
0001
,
0001
0001
0000
0001
,
0000
1000
0000
0001
,
0001
0001
0001
0000
,
0000
0100
0000
0100
,
0000
1000
0000
1000
,
0000
0010
0000
0100
,
0100
0100
0100
0000
,
0000
0010
0000
0100
,
0000
0001
0000
0100
,
0000
1000
0000
0100
,
0000
0001
0000
0100
,
0000
0001
0000
0001
,
0000
0010
0000
1000
,
0000
0100
0000
0100
,
0000
0010
0000
0001
,
0000
0100
0000
0100
,
0000
0000
0000
0000
,
0000
0000
0000
0000
,
0010
0000
0000
0000
,
0001
0000
0000
0000
,
1000
0000
0001
0000
,
1000
0000
0001
0000
,
0010
0010
0010
0010
,
0000
1000
0000
1000
,
1000
1000
0000
1000
,
0000
0001
0000
1000
,
1000
1000
1000
0000
,
0000
0100
0000
0100
,
0000
0001
0000
0001
,
0000
0010
0000
0100
,
0100
0100
0100
0000
,
0000
0010
0000
0100
,
0000
1000
1000
1000
,
0000
0001
0001
0000
;

//---------------dance-single - ----------------
#NOTEDATA:;
#CHARTNAME:;
#STEPSTYPE:dance-single;
#DESCRIPTION:;
#CHARTSTYLE:;
#DIFFICULTY:Easy;
#METER:7;
#RADARVALUES:0.327384,0.433859,0.166668,0.000000,0.000000,220.000000,204.000000,16.000000,0.000000,0.000000,0.000000,0.000000,0.000000,0.000000,0.327384,0.433859,0.166668,0.000000,0.000000,220.000000,204.000000,16.000000,0.000000,0.000000,0.000000,0.000000,0.000000,0.000000;
#CREDIT:;
#DISPLAYBPM:155.000000;
#NOTES:
0000
0000
0000
0000
,
0000
0000
0000
0000
,
0000
0000
0000
0000
,
1000
1000
1000
1000
,
0001
0001
0001
0001
,
1000
0000
0100
0000
,
0001
0000
0010
0000
,
1000
0000
0001
0000
,
1000
0000
0100
0000
,
0000
0000
0000
0000
,
0001
0001
0010
0100
,
1000
1000
0010
0100
,
0001
0001
0010
0100
,
1000
1000
0010
0100
,
0001
0100
1000
0100
,
0001
0100
1000
0100
,
0001
0000
1000
0000
,
0010
1000
0100
1001
,
0010
0010
0100
0100
,
0001
1000
0001
1000
,
0010
1000
0001
0100
,
0010
1000
0001
0100
,
0010
0010
1000
0100
,
0010
0010
0001
0100
,
0010
0010
0010
0010
,
0000
0000
0001
0110
,
1000
1100
0001
0101
,
1000
1100
0001
0101
,
0010
1000
0100
0100
,
0001
0010
1000
1001
,
0001
0100
1000
0100
,
0001
1000
0010
0100
,
1000
0100
0001
0100
,
0010
0010
1000
0100
,
0001
0001
0010
0100
,
1000
1000
0010
0100
,
0001
0001
0010
0100
,
1000
0001
1000
0101
,
0010
0010
1000
1000
,
0001
0100
1000
0100
,
0010
0010
0001
0001
,
1000
0100
0001
0100
,
0010
0000
1000
0000
,
0100
0000
0001
0000
,
0010
1000
0100
0000
,
0001
0000
0100
0000
,
1000
0100
0001
0100
,
1000
0100
0001
0100
,
0010
0010
0010
0010
,
0001
1000
0100
0101
,
1000
1100
0001
0101
,
1000
1100
0001
0101
,
0010
1000
0100
0001
,
0010
1000
0100
1001
,
1000
1100
0010
0001
,
1000
1100
0010
0001
,
1000
0100
0001
0100
,
0001
1000
0001
0100
,
0001
0001
1000
1000
,
0010
1000
0100
0000
;

//---------------dance-single - ----------------
#NOTEDATA:;
#CHARTNAME:;
#STEPSTYPE:dance-single;
#DESCRIPTION:;
#CHARTSTYLE:;
#DIFFICULTY:Medium;
#METER:9;
#RADARVALUES:0.434528,0.463872,0.208336,0.000000,0.000000,292.000000,272.000000,20.000000,0.000000,0.000000,0.000000,0.000000,0.000000,0.000000,0.434528,0.463872,0.208336,0.000000,0.000000,292.000000,272.000000,20.000000,0.000000,0.000000,0.000000,0.000000,0.000000,0.000000;
#CREDIT:;
#DISPLAYBPM:155.000000;
#NOTES:
0000
0000
0000
0000
,
0000
0000
0000
0000
,
0000
0000
0000
0000
,
1001
0000
0100
0000
0001
1000
0100
0000
,
0001
1000
0100
0000
0010
0000
0001
1000
,
0100
0010
0001
1000
,
0100
0100
0001
0010
,
1000
0100
0001
0100
,
1000
0100
0001
0100
,
0000
0000
0000
0000
,
0001
0000
0001
0000
0010
0100
1000
0000
,
0010
0100
1000
0000
0001
0000
0101
0000
,
1000
0000
1000
0000
0010
0100
0001
0000
,
0001
1000
0100
0000
0001
0000
1100
0000
,
0001
0100
0001
0100
,
1000
0100
1000
0100
,
0010
0000
0010
0000
0010
0001
0100
0000
,
0001
1000
0010
1001
,
0001
0100
0001
0000
1000
0100
1000
0000
,
0001
0100
0001
0000
1000
0100
1000
0000
,
0010
1000
0001
0100
,
0010
0001
1000
0100
,
0001
0101
1000
1100
,
0010
0001
0100
0000
0001
1000
0100
0000
,
0010
0000
0010
0000
0010
0000
0010
0001
,
0000
1000
0100
0010
0000
1001
0000
0000
,
0001
0000
1100
0000
0010
0001
0100
0000
,
0010
1000
0100
0000
1000
0000
0101
0000
,
0001
1000
0100
0000
0010
0001
0100
0000
,
0001
1000
0100
0000
0010
0000
0010
0000
,
0001
0000
0101
0000
1000
0100
1000
0000
,
0010
0001
0100
0000
0001
0000
1100
0000
,
0001
0101
0010
1000
,
0001
0100
1000
0100
,
0001
0000
0001
0000
0010
0100
1000
0000
,
0010
0100
1000
0000
0001
0000
0101
0000
,
1001
0000
1100
0000
0010
0001
0100
0000
,
0001
0001
1000
1100
,
0010
0010
0001
1000
,
0001
1000
0001
1000
,
0010
0100
0010
0100
,
0010
1000
0100
1000
0001
0100
0001
0000
,
0010
0010
1000
0100
,
0001
0000
1000
0000
0001
0000
0100
0010
,
1000
0000
1000
0000
,
0100
0000
0100
0000
0100
0010
0001
0000
,
0001
1100
0010
1001
,
1000
0101
0010
1001
,
0010
1000
0010
0000
0001
0100
0001
0000
,
1000
0001
1000
0001
1000
0001
0100
0000
,
0010
1000
0100
0000
1000
0010
0100
0000
,
0010
1000
0100
0000
1000
0010
0100
0000
,
0001
1000
0100
0000
1000
0001
0100
0000
,
0001
1000
0100
0000
1000
0001
0100
0000
,
0010
1000
0001
0000
0001
1000
0010
0000
,
0010
1000
0001
0000
0001
1000
0010
0000
,
1000
0100
0001
0100
,
0010
0000
0010
1000
0000
0100
0100
0000
,
1000
1000
0000
0001
0010
0001
0000
1000
,
0001
1000
0001
1000
0000
0000
0000
0000
;

//---------------dance-single - ----------------
#NOTEDATA:;
#CHARTNAME:;
#STEPSTYPE:dance-single;
#DESCRIPTION:;
#CHARTSTYLE:;
#DIFFICULTY:Hard;
#METER:12;
#RADARVALUES:0.599709,0.649421,0.510422,0.000000,0.088543,403.000000,354.000000,49.000000,0.000000,0.000000,0.000000,0.000000,0.000000,0.000000,0.599709,0.649421,0.510422,0.000000,0.088543,403.000000,354.000000,49.000000,0.000000,0.000000,0.000000,0.000000,0.000000,0.000000;
#CREDIT:;
#DISPLAYBPM:155.000000;
#NOTES:
0000
0000
0000
0000
,
0000
0000
0000
0000
,
0000
0000
0000
0000
,
1001
0000
0000
0100
0010
0000
0000
0000
1100
0000
0000
1000
0001
0000
0000
0000
,
1100
0000
0000
0010
0001
0000
0000
0000
0101
0000
0000
0010
1000
0000
0001
0000
,
0010
0000
1001
0000
0010
1000
0100
0000
,
0010
0001
0100
0010
1000
0100
0010
0000
,
0101
0000
0000
1000
0100
0000
0000
0000
1001
0000
0000
0100
0010
0000
0000
0000
,
0001
1000
0100
0010
0001
0100
1000
0000
,
0000
0000
0000
1001
0000
0000
0000
0000
,
0010
1000
0001
1000
0000
0001
0000
0100
,
0010
1000
0100
0010
0000
0001
0000
0100
,
0001
1000
0010
0100
0000
0001
0000
1000
,
0100
0010
0001
0100
0000
0010
0000
1000
,
0001
0100
0010
1000
0000
0100
0000
0010
,
0001
1000
0001
1000
0000
0010
0000
0100
,
0001
1000
0100
0010
0000
0100
0000
1000
,
0001
0100
0010
0100
0001
1000
0100
0000
,
1000
0100
0010
0001
1000
0001
0100
0000
,
0001
0100
0010
1000
0001
1000
0100
0000
,
0010
0001
1000
0001
0100
0010
1000
0000
,
0010
1000
0001
1000
0100
0010
0001
0000
,
1000
0010
0100
0001
0010
0100
1000
0010
,
0100
0001
0010
0100
1000
0001
0100
0000
,
1000
0001
1000
0001
0100
0000
0010
1000
,
0000
0001
1000
0100
0000
0110
0000
0000
,
1001
0100
0010
0000
1001
0100
0010
0000
,
0101
0010
1000
0100
0010
0001
1001
0000
,
1001
0100
0010
0000
1001
0100
0010
0000
,
1100
0010
0001
0100
0010
1000
1001
0000
,
0101
1000
0100
0000
0101
1000
0100
0000
,
1010
0001
0100
0000
1010
0001
0100
0000
,
0010
1000
0100
0010
0001
1000
0100
0000
,
0010
0010
0001
1000
0100
0010
0001
0000
,
0001
1000
0000
0000
0001
1000
0000
0000
0001
0000
1000
0000
0100
0000
0000
0000
,
0100
0100
0010
0010
0010
0001
0100
0000
,
0001
1000
0000
0000
0001
1000
0000
0000
0010
0000
0100
0000
0001
0000
0000
0000
,
0001
0001
0010
0100
1000
1000
0001
0000
,
0110
0110
0000
0101
0101
0000
1001
1001
,
0000
1100
1100
0000
0001
1000
0100
0000
,
0011
0011
0000
1001
1001
0000
1100
1100
,
0000
1001
1001
0000
0010
1000
0100
0000
,
1001
0000
1100
0000
0010
0001
0100
0010
,
1000
0100
0010
0001
0100
0001
0010
0001
,
0001
0000
1000
0000
,
1001
0000
0000
0100
1000
0000
0010
0000
0001
0000
1000
0000
0100
0000
0010
0000
,
0100
0000
0000
0100
1000
0000
0000
0000
0001
0000
0000
0001
1000
0000
0000
0000
,
0010
0000
0000
0010
1000
0000
0000
0000
0001
0000
0000
0001
1000
0000
0000
0000
,
0010
0000
1000
0000
0001
1000
0100
0000
,
0010
0010
0001
1000
1000
0001
0100
0000
,
1001
0000
0100
0000
0001
0001
0100
0000
,
0001
1000
0100
0000
0101
0000
1100
0000
,
0010
1000
0010
1000
0010
0010
0100
0000
,
0100
0001
0100
0001
0100
0100
0010
0000
,
1001
0100
0010
0000
1001
0100
0010
0000
,
1001
0100
0010
0001
1000
0100
0010
0000
,
0101
1000
0100
0000
0101
1000
0100
0000
,
1001
0010
0001
1000
0100
0010
0001
0000
,
0100
0010
0100
0000
0000
0000
0001
0000
1000
0000
0100
0000
0000
0000
0010
0000
,
0001
1000
0001
0000
0100
0000
0010
0000
0000
0000
0000
0000
0000
0000
0000
0000
;

//---------------dance-double - ----------------
#NOTEDATA:;
#CHARTNAME:;
#STEPSTYPE:dance-double;
#DESCRIPTION:;
#CHARTSTYLE:;
#DIFFICULTY:Easy;
#METER:6;
#RADARVALUES:0.303575,0.433859,0.135418,0.000000,0.000000,204.000000,191.000000,13.000000,0.000000,0.000000,0.000000,0.000000,0.000000,0.000000,0.303575,0.433859,0.135418,0.000000,0.000000,204.000000,191.000000,13.000000,0.000000,0.000000,0.000000,0.000000,0.000000,0.000000;
#CREDIT:;
#DISPLAYBPM:155.000000;
#NOTES:
00000000
00000000
00000000
00000000
,
00000000
00000000
00000000
00000000
,
00000000
00000000
00000000
00000000
,
10000000
01000000
00010000
00001000
,
00001000
00000100
00000001
00001000
,
00000001
00000000
00000100
00000000
,
00001000
00000000
00010000
00000000
,
01000000
00000000
10000000
00000000
,
00010000
00000000
01000000
00000000
,
00000000
00000000
00000000
00000000
,
10000000
00000000
01000000
00000000
,
00010000
00001000
00000100
00000000
,
00000001
00000000
00001000
00000000
,
00000010
00010000
00001000
00000000
,
00100000
00000000
01000000
00000000
,
10000000
00010000
01000000
00000000
,
00001000
00000000
00010000
00000000
,
00000010
00000100
00000001
00001100
,
00010000
00001000
00100000
01000000
,
00001000
00010000
00000010
00000100
,
00010000
00001000
00100000
01000000
,
00001000
00010000
00000010
00000100
,
00001000
00000100
00000001
00000100
,
00001000
00010000
01000000
10000000
,
00100000
00100000
00100000
00100000
,
10000000
01000000
00010000
00011000
,
00000010
00000000
00001000
00000000
,
00000001
00000100
00001000
00000000
,
00010000
00000000
01000000
00000000
,
10000000
00100000
00010000
00000000
,
00001000
00000010
00000001
00000100
,
00001000
00010000
01000000
10000000
,
00100000
00100000
00100000
00100000
,
10000000
00000000
01000000
00000000
,
00001000
00010000
00000010
00000100
,
00010000
00001000
00100000
01000000
,
00001000
00010000
00000010
00000100
,
00010000
00001000
00100000
01000000
,
10010000
01000000
11000000
00010000
,
00011000
00000100
00000101
00001000
,
00001001
00000100
00000101
00001000
,
00011000
01000000
11000000
00010000
,
00100000
00000000
10000000
00000000
,
01000000
00010000
00001000
00000000
,
00000100
00000000
00000001
00000000
,
00000001
00000100
00001000
00011000
,
00100000
00010000
10000000
01000000
,
00010000
01000000
00001000
00010000
,
00000010
00001000
00000001
00000100
,
00000001
00000100
00001000
00011000
,
00100000
10010000
00100000
10000000
,
01000000
00010000
00001000
00000100
,
00000001
00001000
00000001
00000100
,
00000010
00001000
00000001
00000100
,
00001000
00010000
01000000
10000000
,
10000000
01000000
00010000
00001000
,
00001000
00100000
01000000
00010000
,
00010000
00001000
00000100
00000001
,
00000010
00000010
00000001
00000100
,
00001000
00010000
01000000
00000000
;

//---------------dance-double - ----------------
#NOTEDATA:;
#CHARTNAME:;
#STEPSTYPE:dance-double;
#DESCRIPTION:;
#CHARTSTYLE:;
#DIFFICULTY:Medium;
#METER:9;
#RADARVALUES:0.431552,0.463872,0.229169,0.000000,0.000000,290.000000,268.000000,22.000000,0.000000,0.000000,0.000000,0.000000,0.000000,0.000000,0.431552,0.463872,0.229169,0.000000,0.000000,290.000000,268.000000,22.000000,0.000000,0.000000,0.000000,0.000000,0.000000,0.000000;
#CREDIT:;
#DISPLAYBPM:155.000000;
#NOTES:
00000000
00000000
00000000
00000000
,
00000000
00000000
00000000
00000000
,
00000000
00000000
00000000
00000000
,
00011000
00000000
00100000
00000000
00100000
10000000
01000000
00000000
,
00100000
10000000
01000000
00000000
01000000
00010000
00001000
00000000
,
00001000
00000100
00000001
00000010
,
00000010
00000001
00000100
00001000
,
00001000
00010000
01000000
10000000
,
00100000
00010000
00001000
00000010
,
00000000
00000000
00000000
00000000
,
00000001
00001000
00000100
00000000
00000100
00010000
00001000
00000000
,
00100000
00010000
01000000
00000000
00100000
00000000
10010000
00000000
,
10000000
00010000
01000000
00000000
01000000
00001000
00010000
00000000
,
00000010
00001000
00000100
00000000
00000010
00000000
00001001
00000000
,
00000100
00000000
00000100
00000000
00000001
00001000
00000100
00000000
,
00010000
00000000
00001000
00000000
00001000
00010000
01000000
00000000
,
10000000
00000000
00010000
00000000
,
00100000
10000000
01000000
00000000
00100000
00000000
10010000
00000000
,
01000000
00000000
00010000
00000000
00001000
00000100
00000100
00000000
,
00000100
00000000
00001000
00000000
00010000
01000000
01000000
00000000
,
10000000
00010000
01000000
00000000
01000000
10000000
01000000
00000000
,
01000000
00000000
00010000
00000000
00001000
00000100
00000100
00000000
,
00001000
00000001
00000100
00001000
,
00010000
01000000
10000000
00010000
,
10000000
00000000
00010000
00000000
10000000
00000000
00010000
10000000
,
00000000
01000000
00010000
00001000
00000000
01100000
00000000
00000000
,
00010000
00000000
00001000
00000000
00001000
00000100
00000001
00000000
,
00000001
00001000
00000100
00000000
00001001
00000000
00000101
00000000
,
00000010
00001000
00000100
00010000
,
00001000
00000000
00100000
00000000
00010000
10000000
01000000
00000000
,
00100000
00000000
00010000
00000000
00001000
00010000
01000000
00000000
,
00001000
00010000
01000000
00000000
00010000
00000000
00001100
00000000
,
00000010
00001000
00000100
00000000
00000001
00001000
00000100
00000000
,
00010000
00000000
00001000
00000000
00100000
00001000
00010000
00000000
,
00010100
00000000
00001000
00000000
00000010
00000001
00000100
00000000
,
00001000
00000001
00000100
00000000
00001000
00000000
01001000
00000000
,
00011000
00000000
00100000
00000000
00100000
10000000
01000000
00000000
,
00010000
10000000
01000000
00000000
00010000
00000000
00010010
00000000
,
00000010
00001000
00000100
00000000
00000010
00001000
00000100
00000000
,
00000010
00001000
00000100
00000000
00011000
00000000
01001000
00000000
,
00100000
00010000
01000000
00000000
00100000
00010000
01000000
00000000
,
00100000
00010000
01000000
00000000
10010000
00000000
11000000
00000000
,
00100000
00000000
00010000
00000000
,
01000000
00001000
00010000
00000000
,
00000010
00000000
00001000
00000000
,
00000001
00000000
00000100
00000000
00001000
00000000
00010000
01000000
,
10000000
00000000
01010000
00000000
00100000
10000000
01000000
00000000
,
00010000
10000000
01000000
00000000
00010000
00000000
00010100
00000000
,
00000010
00000001
00000100
00001000
,
00010000
01000000
00100000
00010000
10000000
01000000
00100000
00000000
,
00010000
00000000
11000000
00000000
10000000
01000000
00010000
00000000
,
00010000
00001000
00000100
00000000
00000001
00001000
00000100
00000000
,
00000010
00000001
00000100
00000000
00000001
00000000
00001100
00000000
,
00000001
00000000
00000100
00000000
00001000
00010000
00001000
00000000
,
00100000
01010000
00010000
11000000
,
01000000
00010000
00001000
00000100
,
00000001
00000010
00000001
00000000
00000001
00000000
00000100
00000000
,
00001000
00000000
00010000
00000000
01000000
10000000
01000000
00000000
,
00100000
00001000
00000000
00010000
00001000
00000100
00000000
00000001
,
00000010
00000100
00001000
00000001
00000000
00000000
00000000
00000000
;

//---------------dance-double - ----------------
#NOTEDATA:;
#CHARTNAME:;
#STEPSTYPE:dance-double;
#DESCRIPTION:;
#CHARTSTYLE:;
#DIFFICULTY:Hard;
#METER:11;
#RADARVALUES:0.535720,0.525722,0.395837,0.000000,0.005208,360.000000,322.000000,38.000000,0.000000,0.000000,0.000000,0.000000,0.000000,0.000000,0.535720,0.525722,0.395837,0.000000,0.005208,360.000000,322.000000,38.000000,0.000000,0.000000,0.000000,0.000000,0.000000,0.000000;
#CREDIT:;
#DISPLAYBPM:155.000000;
#NOTES:
00000000
00000000
00000000
00000000
,
00000000
00000000
00000000
00000000
,
00000000
00000000
00000000
00000000
,
10010000
00000000
01100000
00000000
00010000
10000000
01000000
00000000
,
00010000
10000000
01000000
00010000
00001000
00000100
00000001
00000001
,
00000010
00000000
00000100
00000000
00001000
00000001
00000100
00001000
,
00010000
00000000
01000000
00000000
10000000
01000000
00010000
01000000
,
10000000
00000000
01000000
00000000
00010000
00001000
00000100
00000001
,
00000010
00000001
00000100
00001000
00010000
00001000
00000100
00000000
,
00000000
00000000
00000000
00001001
00000000
00000000
00000000
00000000
,
00001000
00010000
01000000
00000000
00001000
00010000
01000000
00000000
,
00001000
00010000
01000000
10000000
00100000
00010000
00001000
00000000
,
00100000
00010000
00001000
00000000
00100000
00010000
00001000
00000000
,
00100000
00010000
00001000
00000010
00000001
00000100
00001000
00000000
,
00001000
00010000
01000000
00000000
00010000
00001000
00000100
00000000
,
00001000
00010000
01000000
00000000
00010000
00001000
00000100
00000000
,
00001000
00010000
01000000
10000000
,
00100000
00010000
00011000
00010100
,
00001000
00000100
00000001
00000010
00000001
00000100
00001000
00000000
,
00001000
00010000
01000000
10000000
00100000
10000000
01000000
00000000
,
00010000
10000000
01000000
00100000
00001000
00010000
01000000
00000000
,
00010000
00001000
00000100
00000000
00001100
00000000
00001001
00000000
,
00000010
00000001
00000100
00000000
00000001
00001000
00000100
00000000
,
00000010
00000001
00000100
00001000
00010000
00001000
01000000
00000000
,
10100000
00000000
11000000
00000000
10010000
00000000
00011000
00011000
,
00000000
00000010
00001000
00000100
00000000
00001001
00000000
00000000
,
00000101
00000000
00001001
00000000
00000010
00000001
00000100
00000000
,
00001000
00010000
01000000
10000000
00010000
10000000
01000000
00000000
,
00100000
00010000
01000000
00000000
00001000
00100000
01000000
00000000
,
00010000
00001000
00000100
00000001
00001000
00000001
00000100
00000000
,
00001001
00000000
00000100
00000000
00000010
00010000
00001000
00000000
,
00001000
00010000
00100000
10000000
01000000
00010000
00001000
00000000
,
00000010
00010000
00001000
00000000
00000010
00010000
00001000
00000000
,
00000010
00000001
00000100
00000000
00001000
00000000
00000101
00000000
,
00001001
00000000
00000101
00000000
00000010
00001000
00000100
00000000
,
00010100
00000000
00011000
00000000
00010000
01000000
10000000
00000000
,
10010000
00000000
01010000
00000000
00100000
10000000
01000000
00000000
,
10000000
01000000
00010000
00001000
00000100
00000001
00000010
00000000
,
00001001
00000101
00000000
00000100
00000100
00000000
00001000
00010000
,
00000000
00010000
01000000
00000000
10000000
00010000
01000000
00000000
,
10010000
11000000
00000000
01000000
01000000
00000000
00010000
00001000
,
00000000
00001000
00000100
00000001
00000010
00000100
00001000
00000000
,
00000001
00000000
00000001
00000000
,
00000001
00000100
00001000
00010000
01000000
10000000
00010000
01100000
,
01100000
00000000
10000000
00000000
,
10010000
00000000
00000000
01000000
10000000
00000000
01000000
00000000
00010000
00000000
00001000
00000000
00000100
00000000
00000000
00000000
,
00001001
00000000
00000100
00000000
00000001
00001000
00000100
00000000
,
00000010
00010000
00001000
00000000
00110000
00000000
10010000
00000000
,
00100000
10000000
01000000
00000000
00010000
00001000
01000000
00000000
,
00000010
00010000
00001000
00000100
00000010
00010000
00000100
00000000
,
00001010
00000000
00001001
00000000
00000010
00000001
00000100
00000000
,
00000101
00000000
00000010
00001000
00000100
00010000
00001000
00000000
,
00100000
00010000
10000000
01000000
,
01000000
00010000
00001000
00000100
00000001
00000010
00000100
00000000
,
00000001
00000000
00000101
00000000
00000010
00010000
00001000
00000000
,
00000010
00010000
00001000
00000000
00100000
00000000
01010000
00000000
,
00100000
10000000
01000000
00010000
00001000
00010000
00000100
00000000
,
00000010
00000000
00000001
00000000
00000001
00000100
00001000
00000000
,
00010000
00010000
00000000
01000000
10000000
00100000
00000000
00010000
,
00001000
00000010
00000001
00000100
00000000
00000000
00000000
00000000
;

//---------------dance-single - ----------------
#NOTEDATA:;
#CHARTNAME:;
#STEPSTYPE:dance-single;
#DESCRIPTION:;
#CHARTSTYLE:;
#DIFFICULTY:Challenge;
#METER:15;
#RADARVALUES:0.776794,0.927744,0.520839,0.479172,0.369796,522.000000,472.000000,50.000000,46.000000,0.000000,0.000000,0.000000,0.000000,0.000000,0.776794,0.927744,0.520839,0.479172,0.369796,522.000000,472.000000,50.000000,46.000000,0.000000,0.000000,0.000000,0.000000,0.000000;
#CREDIT:;
#DISPLAYBPM:155.000000;
#NOTES:
0000
0000
0000
0000
,
0000
0000
0000
0000
,
0000
0000
0000
0000
,
1000
0001
0100
0010
1000
0100
0010
0001
,
1000
0010
0100
0001
0010
0100
1000
0001
,
0010
0001
0100
0010
1000
0100
1000
0001
,
1000
0010
1000
0100
0010
0001
0100
0001
,
0010
0100
0010
0001
1000
0001
1000
0100
,
1000
0010
0100
0001
1000
0100
0010
0001
,
0200
0000
0000
0000
0000
0000
0000
0000
0000
0000
0000
0000
0000
0000
0000
0000
0000
0000
0000
0000
0000
0000
0000
0000
0020
0030
0000
0000
0000
0000
0000
0000
0000
0000
0000
0000
0000
0000
0000
0000
0000
0000
0000
0000
0000
0000
0000
0000
0300
0000
0000
0000
0000
0000
0000
0000
0000
0000
0000
0000
0000
0000
0000
0000
,
1001
0001
0010
0100
1000
0010
1000
0001
,
0010
0100
1000
0010
0100
0002
2003
3002
,
0013
0100
1000
0010
0100
0001
1000
0001
,
0010
0100
1000
0010
1000
0002
0203
0302
,
0013
0000
0100
0000
1000
0000
0010
0000
1000
0100
1000
0000
0001
0000
0010
0000
,
0001
0000
0100
0000
0010
0000
1000
0000
0001
0010
0001
0000
1000
0000
0000
0000
,
0110
0000
0101
0001
2000
3020
2030
3002
,
0203
0000
0010
0000
0310
0000
0000
0000
0001
1000
0001
0000
1000
0001
1000
0000
,
1010
0010
1000
0001
0011
0010
0100
1000
,
0010
0100
0010
0001
0010
1000
0100
0010
,
0001
0001
0001
0001
0001
0100
0010
1000
,
0100
0000
0010
0000
0001
0000
0100
0000
0010
0000
1000
0000
0001
0000
1000
0010
,
0100
0100
0001
1000
1001
0001
0010
0100
,
1000
0010
1000
0001
0010
0100
1000
0001
,
0020
0001
0001
0100
0100
1000
1000
0031
,
0000
0000
0000
0000
0000
0000
0000
0000
0011
0000
0000
0000
0000
0000
0000
0000
1001
0000
0000
0000
0000
0000
0000
0000
1100
0000
0000
0000
0000
0000
0000
0000
0000
0000
0000
0000
0000
0000
0000
0000
0012
0000
0000
0000
0000
0000
0000
0000
2003
3000
0000
0000
0000
0000
0000
0000
0000
0000
0000
0000
0000
0000
0000
0000
,
1010
0000
0010
0100
0010
0000
0100
0001
1000
0000
0100
0010
0001
0000
1000
0000
,
0010
0000
0100
0000
0001
0000
1000
0000
0100
0000
0010
0001
1000
0000
0010
0000
,
0100
0000
0001
0010
0001
0000
1000
0010
0100
0000
0010
1000
0001
0000
0010
0000
,
0100
0000
1000
0000
0010
0000
0100
0000
0001
1000
0001
0000
0010
0000
0000
0000
,
0011
0000
1000
0001
0100
0000
0010
1000
0001
0000
0010
0000
0100
0000
1000
0000
,
0110
0001
1000
0010
0100
0001
0010
0100
,
1000
0010
1000
0001
0010
0100
1000
0001
,
1001
0000
0000
0000
0100
0000
0000
0000
0110
0000
0000
0000
0202
0000
0000
0300
0000
0000
0000
0000
1003
0000
0100
0000
1000
0000
0010
0000
0100
0000
0001
0000
,
0020
0000
0000
0000
0032
0000
0000
0000
1003
0010
0000
0100
0000
0001
0010
0100
,
1000
0000
1000
0000
0001
0000
0001
0000
1000
0010
0100
0001
0000
0100
0010
1000
,
0002
0000
0000
0000
2003
0000
0000
0000
3100
1000
0010
0100
0000
0001
0010
0000
,
0001
0100
0010
0100
0001
0000
1000
0020
0000
0000
0100
0000
0100
0000
0000
0000
,
1030
0100
0010
0002
0000
0000
1003
0010
0100
0002
0000
0000
0103
0010
1000
0002
,
0000
0000
0013
0100
1000
0002
0000
0000
1003
0010
1000
0010
0100
0001
0100
0001
,
0100
0010
1000
0002
0000
0000
0013
0100
1000
0002
0000
0000
1003
0010
0100
0002
,
0000
0000
1003
0010
1000
0010
0100
0001
0010
0100
0010
0001
1000
0001
1000
0010
,
0200
0000
0301
0000
0101
0100
0010
1010
,
0000
1100
0000
1001
0000
0001
0010
0100
,
1100
0000
0101
0000
0110
0000
0000
2001
,
0000
0000
0000
0000
3010
0000
0000
0000
0100
0000
0000
0000
0101
0000
0000
0000
0000
0000
0000
0000
2010
0000
0000
0000
3002
0003
0000
0000
0000
0000
0000
0000
,
1100
0000
0011
0000
1001
0100
0010
1000
,
1010
0001
1000
0100
0010
0002
2003
3020
,
0100
0100
0001
0001
1000
1000
0001
1030
,
1010
1010
0101
0101
1001
0110
1001
0110
,
1001
0000
0000
0000
1000
0000
0100
0000
0010
0000
0000
0000
0100
0000
0010
0000
0001
0000
0000
0000
1000
0000
0001
0000
0100
0000
0000
0000
0220
0000
0000
0300
,
0000
0000
1030
0010
0100
0000
0001
0010
0100
0000
1000
0001
1000
0000
0010
0000
,
1000
0000
0100
0010
0100
0000
1000
0001
0010
0000
0001
0100
0010
0000
1010
0000
,
0001
0010
0100
1000
0010
0100
0001
0000
,
1001
0000
0001
1000
0100
0000
0010
0100
1000
0000
0010
0100
0001
0000
1000
0000
,
2100
3002
1003
0010
0100
0020
2030
3002
,
0010
0010
0100
0100
1000
1000
0010
0103
,
0101
0001
1001
2100
0000
0010
3020
0000
,
0130
0010
0100
0000
0000
0000
0001
0000
0011
0000
1010
0000
0000
0000
1000
0000
,
0010
0100
0010
0000
0110
0000
1001
0000
0000
0000
0000
0000
0000
0000
0000
0000
;

//---------------dance-solo - ----------------
#NOTEDATA:;
#CHARTNAME:;
#STEPSTYPE:dance-solo;
#DESCRIPTION:;
#CHARTSTYLE:;
#DIFFICULTY:Beginner;
#METER:4;
#RADARVALUES:0.209824,0.277737,0.072917,0.031250,0.000000,141.000000,134.000000,7.000000,3.000000,0.000000,0.000000,0.000000,0.000000,0.000000,0.209824,0.277737,0.072917,0.031250,0.000000,141.000000,134.000000,7.000000,3.000000,0.000000,0.000000,0.000000,0.000000,0.000000;
#CREDIT:;
#DISPLAYBPM:155.000000;
#NOTES:
000000
000000
000000
000000
,
000000
000000
000000
000000
,
000000
000000
000000
000000
,
001000
001000
001000
000000
,
001000
001000
001000
000000
,
010000
000000
010000
000000
,
000010
000000
000010
000000
,
010000
000000
010000
000000
,
000010
000000
000010
000000
,
020020
000000
030030
000000
,
010000
000000
001000
000000
,
010000
000000
000000
000000
,
000010
000000
001000
000000
,
000010
000000
000000
000000
,
010000
010000
010000
000000
,
000010
000010
000010
000000
,
000000
001000
001000
001000
,
001000
000000
000010
000010
,
000010
000000
010000
000000
,
010000
010000
010000
000000
,
001000
010000
001000
010000
,
000010
000010
000000
000000
,
010000
000000
000010
000000
,
001000
000010
010000
000010
,
002000
000000
000000
003000
,
000000
010000
000010
000000
,
010000
010000
010000
000000
,
001000
001000
001000
000000
,
010000
000010
010000
000000
,
000010
000010
000010
000000
,
001000
000010
001000
000010
,
010000
000000
000000
010000
,
001000
000000
000000
000000
,
010000
000010
010010
000000
,
001000
000000
001000
000000
,
000010
000010
000010
000000
,
001000
000000
001000
000000
,
010000
010000
010000
000000
,
010000
000000
010000
000000
,
001000
000000
001000
000000
,
000010
000000
000010
000000
,
010000
010000
000010
000010
,
010010
000000
000000
000000
,
001000
000000
000000
000000
,
010000
000000
000000
000000
,
000010
000000
000000
000000
,
001000
000000
000010
000000
,
010000
000000
000000
000000
,
010010
000000
000000
000000
,
010000
000010
010000
000010
,
010000
001000
010000
000000
,
000010
001000
000010
000000
,
001000
000010
010000
000000
,
000010
010000
001000
000000
,
010000
010000
001000
010000
,
000010
000000
000000
000010
,
010000
000000
000000
001000
,
010000
000010
010010
000000
,
011000
000000
001010
000000
,
010000
000010
000000
000000
;

//---------------dance-solo - ----------------
#NOTEDATA:;
#CHARTNAME:;
#STEPSTYPE:dance-solo;
#DESCRIPTION:;
#CHARTSTYLE:;
#DIFFICULTY:Easy;
#METER:7;
#RADARVALUES:0.351194,0.402022,0.312503,0.302086,0.000000,236.000000,206.000000,30.000000,29.000000,0.000000,0.000000,0.000000,0.000000,0.000000,0.351194,0.402022,0.312503,0.302086,0.000000,236.000000,206.000000,30.000000,29.000000,0.000000,0.000000,0.000000,0.000000,0.000000;
#CREDIT:;
#DISPLAYBPM:155.000000;
#NOTES:
000000
000000
000000
000000
,
000000
000000
000000
000000
,
000000
000000
000000
000000
,
001000
001000
000100
000100
,
010000
010000
000010
000010
,
100000
100000
000001
000001
,
000100
000100
000010
000010
,
010000
010000
001000
001000
,
100000
000100
001000
000001
,
000000
000000
000000
010010
000000
000000
000000
000000
,
100001
001000
000001
010000
,
001000
000100
001000
010000
,
000100
010000
000010
100000
,
001000
010000
000100
001000
,
000010
000100
000010
010000
,
001000
100000
001000
000100
,
000001
010000
001000
000100
,
000020
000000
010000
001030
,
101000
100000
001010
000010
,
001000
000100
010000
000000
,
000002
200003
300002
200003
,
300100
001000
000010
010000
,
011000
010000
000101
000001
,
010000
000100
100000
000010
,
001200
001000
001000
001300
,
000000
100000
000000
000001
000000
001000
000000
000000
,
010010
010010
001100
001100
,
000100
001000
000010
100000
,
001000
010000
000100
001000
,
000010
000010
000020
000030
,
101000
101000
000101
000101
,
010000
001000
100000
000100
,
001000
000010
010000
001000
,
200000
000000
000001
000002
000000
000000
300003
000000
,
101000
001001
010000
000010
,
000100
000001
100000
001000
,
100100
000101
010000
001000
,
100000
000001
020020
030030
,
000000
000200
000000
000000
002300
000000
000000
003020
,
000000
020030
100000
030001
,
200000
000000
000000
300020
000000
000000
020030
000000
,
000000
000001
001000
030100
,
010020
001000
010000
001000
,
100000
100000
200000
300030
,
000100
001000
000002
000003
,
100000
000010
020000
030000
,
101000
000001
001001
100000
,
002200
000000
000000
003300
000000
010000
000020
020000
,
000000
000000
000000
030030
,
000100
000100
010000
000010
,
100100
001001
010000
001000
,
100000
000100
000001
000010
,
100001
001100
000001
100000
,
001000
001000
002000
003000
,
100001
010010
100000
001000
,
010000
000010
000100
000001
,
010000
001000
100000
000100
,
020000
000000
000010
000020
000000
000000
030030
000000
,
100000
100000
000000
000000
000001
000001
000000
000000
,
010000
000010
010000
000010
000000
000000
000000
000000
;

//---------------dance-solo - ----------------
#NOTEDATA:;
#CHARTNAME:;
#STEPSTYPE:dance-solo;
#DESCRIPTION:;
#CHARTSTYLE:;
#DIFFICULTY:Medium;
#METER:9;
#RADARVALUES:0.485124,0.525722,0.416671,0.604173,0.000000,326.000000,286.000000,40.000000,58.000000,0.000000,0.000000,0.000000,0.000000,0.000000,0.485124,0.525722,0.416671,0.604173,0.000000,326.000000,286.000000,40.000000,58.000000,0.000000,0.000000,0.000000,0.000000,0.000000;
#CREDIT:;
#DISPLAYBPM:155.000000;
#NOTES:
000000
000000
000000
000000
,
000000
000000
000000
000000
,
000000
000000
000000
000000
,
000200
000000
002300
000000
003020
000000
010030
000002
,
000000
000100
000000
000010
000000
010000
000000
001003
,
000100
101000
000100
001001
,
000010
100100
010000
000101
,
010000
001100
000010
100001
,
100000
000100
001000
000010
010000
001000
000100
000001
,
100000
000000
000000
010010
000000
000000
000000
000000
,
000100
001000
000010
010000
001000
000100
000000
000002
,
000000
000000
000000
000000
000000
001003
000100
020000
,
000000
000000
000000
030010
010000
001000
100000
000200
,
000000
000000
000000
000000
000000
010300
000100
002000
,
000000
003001
000100
000000
000110
000000
100000
002000
,
000000
013000
000100
000000
020020
000000
000000
000000
,
000030
000000
031000
010000
000010
100000
000001
000200
,
000000
000300
001001
101000
,
100001
001000
000000
000100
010000
000010
000000
001002
,
000000
020003
000000
030020
000000
000000
000000
001030
,
000100
010000
000100
010000
000010
001000
000100
100000
,
000001
001000
000000
000000
000000
000000
000000
000000
,
001100
000001
000000
010000
000100
001000
000000
002010
,
000000
003200
000000
020300
000000
031000
100000
000001
,
020000
000000
000010
000000
000010
000000
030010
010000
,
000000
001000
010000
000010
000000
001100
000000
000000
,
100100
000000
000101
000000
100000
000100
001000
000020
,
000000
020030
000000
032000
000000
103000
000001
000100
,
000110
000000
011000
000000
000001
001000
000100
200000
,
000000
301000
000100
000020
000000
020000
030030
000000
,
101000
000000
001001
000000
000100
000010
010000
001000
,
100000
000001
000000
010010
000000
001000
000100
200000
,
000000
000000
001000
000000
300001
200000
000000
300100
,
001000
000100
020000
000020
000000
000000
030030
000000
,
010100
000000
100010
000000
001000
000100
010000
000000
,
001000
001000
001000
010000
000100
010000
000001
000000
,
000110
000000
101000
000000
010000
000100
001000
000000
,
000001
000100
000010
010000
002000
000000
003000
000000
,
100000
200000
000000
000100
300200
000000
001000
002300
,
000000
000010
003020
000000
010030
000010
010000
001000
,
000100
000200
000000
000001
000302
000000
010003
020000
,
000000
031000
010000
000100
001000
000010
010000
001000
,
100002
000000
000203
000000
000320
000000
010000
020030
,
000000
032000
000000
203000
000000
300100
001000
000001
,
000200
000000
000302
000000
200003
000000
300000
011000
,
000000
010000
000010
200000
000000
000002
300003
000000
,
100100
000000
001010
000000
010000
001000
000100
000010
,
100000
000001
000000
010010
000000
001000
000100
200000
,
000001
000000
000100
000000
000001
000000
301000
100000
,
100000
000001
100000
000001
100000
000001
100000
000001
,
000101
000000
101000
000000
010000
000010
000100
002000
,
000000
203000
000000
300020
000000
000130
000010
010000
,
101000
000000
010010
000000
001000
000100
010000
000002
,
000000
010003
000010
002000
000000
000200
003300
000000
,
100100
000000
001001
000000
000010
000100
000001
100000
,
001000
010000
000000
000101
000000
100000
000010
000200
,
000000
000000
100000
000000
000310
020000
000000
030100
,
100000
001000
000100
000002
000000
000000
000003
000000
,
100000
100000
000000
010000
000001
000001
000000
000010
,
001000
000100
001000
001100
000000
000000
000000
000000
;

//---------------dance-solo - ----------------
#NOTEDATA:;
#CHARTNAME:;
#STEPSTYPE:dance-solo;
#DESCRIPTION:;
#CHARTSTYLE:;
#DIFFICULTY:Hard;
#METER:12;
#RADARVALUES:0.605661,0.618496,0.375004,0.354170,0.093751,407.000000,371.000000,36.000000,34.000000,0.000000,0.000000,0.000000,0.000000,0.000000,0.605661,0.618496,0.375004,0.354170,0.093751,407.000000,371.000000,36.000000,34.000000,0.000000,0.000000,0.000000,0.000000,0.000000;
#CREDIT:;
#DISPLAYBPM:155.000000;
#NOTES:
000000
000000
000000
000000
,
000000
000000
000000
000000
,
000000
000000
000000
000000
,
100100
000000
001001
000000
010010
001000
000100
200000
,
000000
300002
000000
002003
000000
003200
000000
010300
,
000010
000000
000000
000100
000000
000000
001000
000000
100000
000000
000000
000001
000000
000000
010000
000000
,
001000
000000
000000
000100
000000
000000
000010
000000
010000
000000
000000
000001
000000
000000
100000
000000
,
000100
000000
000000
001000
000000
000000
000001
000000
010000
000000
000000
000010
000000
000000
100000
000000
,
001000
000000
000000
100000
000000
000000
000010
000000
010000
000000
000000
000100
000000
000000
000001
000000
,
002000
000000
003000
010010
000000
000000
000000
000000
,
100001
000001
000100
001000
010000
000100
001000
000020
,
000000
010000
000000
000100
000000
001030
000001
200000
,
000000
000100
000000
301000
010000
000100
001000
000002
,
000000
000100
000000
010000
000000
100003
000010
000100
,
000001
001000
000100
010000
001000
000100
000010
100000
,
001000
010000
000100
001000
000020
100000
100030
000000
,
010100
000000
000100
001000
000001
010000
000010
200000
,
001000
001000
301000
000000
100001
000000
010010
000000
,
001100
000100
001000
000001
000100
001000
010000
000010
,
100000
001000
010000
000200
000000
002300
000000
003001
,
010000
010000
000010
000010
000100
001000
100000
000001
,
010000
000100
001000
000010
100000
001000
010000
000000
,
010001
000001
000100
001000
100000
000100
010000
000010
,
000100
001000
100000
000020
000000
010030
001000
100000
,
000002
000100
000100
000000
010000
010000
010003
000000
,
000000
000100
001000
001001
000000
100100
000000
000000
,
100001
010000
001000
100000
000100
010000
000010
000100
,
000010
000100
000001
001000
000100
010000
001000
000100
,
000010
001000
000100
010000
000010
100000
000100
001000
,
000001
000100
000010
010000
000100
001000
000010
000000
,
100010
000100
010000
001000
000100
000010
001000
000001
,
100000
000100
001000
001020
000000
010000
010030
000020
,
000000
000100
000000
010030
000000
011000
000100
001000
,
000001
000100
000010
010000
001000
000100
000001
100000
,
110000
000000
000000
000000
000011
000000
000000
000000
100000
000100
000000
001000
000001
000000
000000
000000
,
010000
000000
010000
000000
010000
000000
000010
000000
000100
000001
000000
100000
001000
000000
000000
000000
,
011000
000000
000000
000000
000110
000000
000000
000000
010000
001000
000000
000010
100000
000000
000100
000000
,
001000
000001
001000
000001
001000
000000
000100
020000
000000
000000
000010
000000
000010
000000
000000
000000
,
031000
201000
000000
300001
000201
000000
000310
020010
,
000000
030100
100200
000000
100300
000010
010000
001000
,
100000
100002
000000
010003
010200
000000
001300
002001
,
000000
003010
000100
000001
010000
000010
100000
001000
,
020010
000000
000100
000000
001000
000000
030010
001001
,
000000
001100
000000
010100
000000
100000
100000
000001
,
000200
000000
000302
000000
200003
000000
300000
001020
,
000000
010030
000010
002000
000000
000100
003100
000000
,
100100
000000
011000
000000
000100
001000
010000
000001
,
000100
000010
001000
000100
100000
001000
010000
000002
,
000000
000100
000000
100000
000000
000010
000000
010003
,
000100
000100
000100
000100
010000
010000
000010
000010
,
100000
001000
010000
000100
001000
000100
010000
000010
,
100000
000001
000100
001000
000100
000010
010000
000100
,
001000
000100
010000
001000
000100
001000
000100
000001
,
100000
000010
010000
001000
200000
000100
300100
000000
,
010100
001000
100000
000010
000100
001000
010000
000010
,
000100
000001
001000
000010
010000
001000
100000
000100
,
001000
000010
000100
001000
010000
021000
000000
000001
,
030001
001000
000100
200000
000000
000010
310000
000000
,
000100
001000
000100
000000
000000
000000
100000
000000
000001
000000
000001
000000
000000
000000
001000
000000
,
000010
010000
000010
010000
000000
000000
000000
000000
;

//---------------dance-solo - ----------------
#NOTEDATA:;
#CHARTNAME:;
#STEPSTYPE:dance-solo;
#DESCRIPTION:;
#CHARTSTYLE:;
#DIFFICULTY:Challenge;
#METER:15;
#RADARVALUES:0.802092,0.896819,0.541672,0.375004,0.411463,539.000000,487.000000,52.000000,36.000000,0.000000,0.000000,0.000000,0.000000,0.000000,0.802092,0.896819,0.541672,0.375004,0.411463,539.000000,487.000000,52.000000,36.000000,0.000000,0.000000,0.000000,0.000000,0.000000;
#CREDIT:;
#DISPLAYBPM:155.000000;
#NOTES:
// measure 0
000000
000000
000000
000000
,  // measure 1
000000
000000
000000
000000
,  // measure 2
000000
000000
000000
000000
,  // measure 3
100001
000100
001000
000010
010000
001000
000100
000001
,  // measure 4
100000
000010
000100
001000
000100
000001
010000
000010
,  // measure 5
000100
001000
000100
000001
100000
000001
000010
000100
,  // measure 6
000010
001000
000100
010000
001000
100000
000001
010000
,  // measure 7
000001
100000
010000
000100
100000
000010
010000
000001
,  // measure 8
001000
000100
100000
001000
010000
000010
000001
100000
,  // measure 9
000200
000000
000000
000000
000000
000000
000000
000000
000000
000000
000000
000300
010010
000000
000000
000000
000000
000000
000000
000000
000000
000000
000000
000000
000000
000000
000000
000000
000000
000000
000000
000000
,  // measure 10
001100
000001
100000
001000
010000
000010
000100
001000
,  // measure 11
000100
000010
010000
000100
001000
000001
000100
001000
,  // measure 12
000100
000010
100000
001000
010000
000001
100000
000010
,  // measure 13
001000
000100
010000
001000
000100
001000
010000
000001
,  // measure 14
100000
000000
000001
000000
000100
000000
000010
000000
010000
001000
010000
000000
000001
000000
000100
000000
,  // measure 15
000010
000000
100000
000000
001000
000000
010000
000000
000100
001000
000100
000000
100000
000000
000000
000000
,  // measure 16
000101
000000
020000
032000
203000
300002
000203
000320
,  // measure 17
001000
001000
001030
000010
001010
000000
101000
000000
,  // measure 18
010001
000000
000001
000000
000010
000000
000100
000000
100000
001000
100000
000000
000100
000000
010000
000000
,  // measure 19
001000
000000
000100
000000
000010
000000
001000
000000
000100
010000
000100
000000
100000
000000
000001
000000
,  // measure 20
000110
000110
011000
011000
000001
100000
000100
001000
,  // measure 21
000010
000000
010000
000000
001000
000000
000100
000000
000010
000000
100000
000000
000001
000000
001000
000100
,  // measure 22
100000
100000
001000
010000
000100
001000
000001
000010
,  // measure 23
000100
000000
000010
000000
000001
000000
001000
000000
000010
000000
100000
001000
100000
000000
010000
000000
,  // measure 24
200010
000010
010000
010000
000100
000100
001000
300001
,  // measure 25
000000
000000
101000
000000
000110
000000
011000
000000
000000
000000
200002
000003
300100
000000
000000
000000
,  // measure 26
010010
000000
010000
001000
000100
000000
001000
010000
000010
000000
000100
000001
100000
000000
001000
000000
,  // measure 27
010000
000100
001000
000010
000100
001000
100000
000001
,  // measure 28
000100
000000
000010
010000
000010
000000
010000
001000
100000
000000
000100
010000
000001
000000
000100
000000
,  // measure 29
000010
000000
001000
000000
000100
000000
100000
000000
001000
010000
000001
000000
000100
000000
000000
000000
,  // measure 30
000101
000000
000100
000010
010000
000000
001000
100000
000001
000000
010000
000100
001000
000000
000010
000000
,  // measure 31
000110
000000
000110
000000
100000
000001
000100
000000
001000
000000
020000
000000
030200
000000
002300
000000
,  // measure 32
003010
000100
000001
010000
001000
100000
000100
001000
,  // measure 33
001100
000100
100100
201000
000000
000001
300010
000000
,  // measure 34
110000
000000
000000
000000
000011
000000
000000
000000
001000
000100
001000
000010
000000
010000
001000
100000
,  // measure 35
000100
000000
010010
000000
000100
000000
010010
000000
010000
000010
001000
000001
000000
000001
000100
001000
,  // measure 36
200000
000000
000000
000000
300002
000000
000000
000000
000103
000010
001000
000100
000000
010000
001000
000000
,  // measure 37
100000
000100
001000
000100
010000
001000
000100
000020
000000
000000
100000
000000
010030
000000
000000
000000
,  // measure 38
100000
001000
000100
000020
000000
000000
010030
000100
100000
000020
000000
000000
000130
000001
010000
000020
,  // measure 39
000000
000000
100030
000001
001000
000020
000000
000000
000130
000010
000100
000001
001000
000010
010000
001000
,  // measure 40
100000
000100
001000
000020
000000
000000
000130
001000
010000
000020
000000
000000
100030
000001
010000
000020
,  // measure 41
000000
000000
000130
000010
000100
000001
000100
001000
010000
000100
010000
000010
000100
001000
100000
000001
,  // measure 42
002000
000000
003200
000000
010300
001000
100000
000010
,  // measure 43
000000
000110
000000
101000
000000
010000
000100
001000
,  // measure 44
001010
000000
100100
000000
010010
001000
000100
000002
,  // measure 45
000000
000100
010003
001000
200000
000010
300001
000000
,  // measure 46
101000
000000
000010
000000
010000
000000
000100
000000
001000
000001
001000
000000
000010
000000
010000
000000
,  // measure 47
021000
030010
010000
000100
001000
000001
100000
002000
,  // measure 48
010000
010000
000001
000001
000100
000100
100000
103000
,  // measure 49
101000
101000
000101
000101
100001
001100
100001
001100
,  // measure 50
010010
000000
010000
000100
100000
000000
001000
000100
000010
000000
010000
000001
000100
000000
000010
000000
,  // measure 51
010000
000000
000100
001000
000100
000000
100000
000010
010000
000000
000001
001000
000001
000000
100000
000000
,  // measure 52
000010
000000
010000
000100
100000
000000
010000
000001
000100
000000
000010
001000
000010
000000
020000
000000
,  // measure 53
030100
000000
002000
000000
003002
000000
200003
000000
300010
010000
001000
000000
101000
000000
000000
000000
,  // measure 54
000110
000000
100000
000001
000100
000000
001000
010000
000010
000000
000100
001000
010000
000100
001000
000010
,  // measure 55
200000
300020
000130
001000
010000
000010
000100
000001
,  // measure 56
010000
001000
100000
000010
000100
000001
010000
001000
,  // measure 57
101000
000000
100000
000000
101000
000000
001001
000000
010000
001000
010000
001000
100000
000001
100000
000001
,  // measure 58
000100
000010
001000
000000
000000
000000
100000
000000
100100
000000
010100
000000
000000
000000
000001
000000
,  // measure 59
001000
000100
010000
000000
010010
000000
100001
000000
000000
000000
000000
000000
000000
000000
000000
000000
;
