#TITLE:DELETED MOTION;
#SUBTITLE:;
#ARTIST:TACHINON;
#TITLETRANSLIT:;
#SUBTITLETRANSLIT:;
#ARTISTTRANSLIT:;
#GENRE:;
#CREDIT:;
#BANNER:DELETED MOTION-bn.png;
#BACKGROUND:DELETED MOTION-bg.png;
#LYRICSPATH:;
#CDTITLE:;
#MUSIC:DELETED MOTION.ogg;
#OFFSET:0.075000;
#SAMPLESTART:27.680000;
#SAMPLELENGTH:20.000000;
#SELECTABLE:YES;
#DISPLAYBPM:147.000000;
#BPMS:0.000000=147.000000
;
#STOPS:
;
#BGCHANGES:;
#KEYSOUNDS:;
#ATTACKS:;

//---------------dance-single - ----------------
#NOTES:
     dance-single:
     :
     Hard:
     12:
     0.568914,0.607060,0.170552,0.221718,0.328313,467.000000,447.000000,20.000000,26.000000,0.000000,0.000000,0.568914,0.607060,0.170552,0.221718,0.328313,467.000000,447.000000,20.000000,26.000000,0.000000,0.000000:
0000
0000
0000
0000
,
0000
0000
0000
0000
,
0000
0000
0000
0000
,
1100
0100
0010
0001
,
0100
0000
0010
1000
0001
0010
0100
1000
,
0101
0000
0000
0000
0010
0000
0000
1000
0000
0000
0100
0000
0010
0000
0001
0000
,
1010
0000
0000
0000
0001
0000
0000
1000
0000
0000
0001
0000
0010
0000
0100
0000
,
0011
0000
0000
0000
0100
0000
0000
0001
0000
0000
0010
0000
0100
0000
1000
0000
,
1001
0000
0010
0000
0001
0100
0010
1000
,
0110
0000
0001
0010
1000
0010
0100
0001
,
0010
1000
0100
0010
0100
0001
0100
1000
,
0001
1000
0100
0010
1000
0010
0100
0010
,
0001
0000
0100
0000
0010
0000
1000
0000
0000
0000
0010
0100
0000
0001
1000
0000
,
0010
0000
0100
1000
0100
0001
0010
0100
,
0001
0100
0010
1000
0100
0001
0010
0100
,
1000
0001
0010
1000
0010
0001
0100
0010
,
1010
1010
0101
1001
,
0020
0000
0000
1000
0000
0000
0031
0000
1000
0000
0100
0000
0010
0000
0001
0000
,
0200
0000
0000
1000
0000
0000
0301
0000
0010
0000
0100
0000
1000
0000
0010
0000
,
2000
0000
0000
0100
0000
0000
3010
0000
0002
0000
0000
0100
0000
0000
1003
0000
,
0020
0000
0000
1000
0000
0000
0130
0000
0002
0000
0000
1000
0000
0000
0013
0000
,
2000
0000
0000
0001
0000
0000
3100
0000
1000
0000
0010
0000
0100
0000
0001
0000
,
0020
0000
0000
0100
0000
0000
0031
0000
1000
0000
0001
0000
1000
0000
0010
0000
,
0200
0000
0000
1000
0000
0000
0301
0000
0020
0000
0000
0100
0000
0000
1030
0000
,
0002
0000
0000
0100
0000
0000
0013
0000
1000
0100
0000
0010
0001
0000
1000
0000
,
0010
1000
0100
0001
0100
0010
0001
0000
,
1000
0010
0001
0010
1000
0001
0100
0000
,
0010
0100
0001
0010
1000
0010
0001
0100
,
0020
0000
0000
1000
0000
0000
0031
0000
0010
0000
1000
0000
0001
0000
0100
0000
,
0010
0001
0010
1000
0100
0010
0001
0000
,
1000
0001
0100
1000
0100
0010
0100
0000
,
0001
0010
0100
1000
0010
0001
0010
0100
,
0001
1000
0000
0001
1000
0000
0001
1000
0000
0001
1000
0000
0010
0000
0100
0000
,
0110
0000
0000
0000
0100
0000
0000
0001
0000
0000
1000
0000
0000
0100
0000
0000
,
0000
0000
0000
0000
1000
0000
0000
0010
0000
0000
0100
0000
0001
0000
0000
0000
,
0000
0000
0000
0000
0010
0000
0000
0001
0000
0000
1000
0000
0000
0010
0000
0000
,
0100
0000
0000
0010
0000
0000
0100
0000
0001
0010
0000
0001
0000
0000
1000
0000
,
1001
0000
0000
0000
0001
0000
0000
0010
0000
0000
0100
0000
0000
1000
0000
0000
,
0000
0000
0000
0000
0010
0000
0000
1000
0000
0000
0001
0000
0000
0100
0000
0000
,
0000
0000
0000
0000
0001
0000
0000
0100
0000
0000
0010
0000
0000
1000
0000
0000
,
0100
0000
0000
1000
0000
0000
0001
0000
1000
0010
0000
0100
0002
0000
0000
0000
,
0013
0000
0000
0100
0000
0000
1000
0000
0001
0000
0000
0100
0000
0000
0010
0000
,
1000
0000
0000
0001
0000
0000
1000
0000
0100
0000
0000
0010
0000
0000
0001
0000
,
0010
0000
0000
0100
0000
0000
0010
0000
0100
0000
0000
1000
0000
0000
0001
0000
,
0010
0000
0000
0001
0000
0000
0100
0000
1000
0000
0000
0010
0000
0000
0001
0000
,
0010
0000
0000
0001
0000
0000
1000
0000
0100
0000
0000
0010
0000
0000
0100
0000
,
1000
0000
0000
0010
0000
0000
0001
0000
0010
0000
0000
0001
0000
0000
1000
0000
,
0100
0000
0000
1000
0000
0000
0001
0000
0010
0000
0000
0100
0000
0000
1000
0000
,
0001
0000
0000
1000
0000
0000
0001
0000
0100
0000
0000
0010
0000
0000
1000
0000
,
0200
0000
0000
0300
,
1100
1100
0011
1001
,
0020
0000
0000
1000
0000
0000
0130
0000
0010
0000
0001
0000
1000
0000
0001
0000
,
0200
0000
0000
0010
0000
0000
0301
0000
1000
0000
0001
0000
0010
0000
0100
0000
,
2000
0000
0000
0100
0000
0000
3001
0000
0020
0000
0000
0001
0000
0000
0130
0000
,
2000
0000
0000
0010
0000
0000
3100
0000
0002
0000
0000
0010
0000
0000
1003
0000
,
0020
0000
0000
0100
0000
0000
0031
0000
0100
0000
0010
0000
1000
0000
0001
0000
,
2000
0000
0000
0001
0000
0000
3010
0000
0001
0000
0100
0000
0010
0000
1000
0000
,
0002
0000
0000
0010
0000
0000
0103
0000
2000
0000
0000
0001
0000
0000
3100
0000
,
0020
0000
0000
1000
0000
0000
0031
0000
0100
0010
0000
1000
0001
0000
0100
0000
,
0010
0001
1000
0100
0100
0001
1000
0010
,
0001
0100
0010
1000
0001
0010
0100
1000
,
0010
0001
0100
1000
0100
0001
1000
0010
,
0001
0010
0100
1000
0010
0001
1000
0100
,
0010
0100
0001
0100
1000
0001
1000
0010
,
0100
0010
0001
0010
1000
0001
1000
0100
,
0100
0001
0010
1000
0001
0100
1000
0010
,
1000
0001
0000
1000
0001
0000
1000
0000
0010
0000
0100
0000
0001
0000
1000
0000
,
2100
0000
0000
0000
0001
0000
0000
0001
0000
0000
0001
0000
0000
3001
0000
0000
,
0010
0000
1000
0000
0100
0000
0000
0010
0000
0000
0001
0000
0100
0000
0010
0000
,
1010
0000
0000
0000
0001
0000
0000
0100
0000
0000
0010
0000
0000
1000
0000
0000
,
0100
0010
0100
0001
0100
1000
0010
0100
,
0110
0000
0000
0110
0000
0000
0000
0000
0000
0000
0000
0000
0000
0000
0000
0000
;

//---------------dance-single - ----------------
#NOTES:
     dance-single:
     :
     Medium:
     10:
     0.445873,0.486074,0.255829,0.119387,0.068221,366.000000,336.000000,30.000000,14.000000,0.000000,0.000000,0.445873,0.486074,0.255829,0.119387,0.068221,366.000000,336.000000,30.000000,14.000000,0.000000,0.000000:
0000
0000
0000
0000
,
0000
0000
0000
0000
,
0000
0000
0000
0000
,
1100
0001
0010
0100
,
1000
0010
0100
0001
,
0011
1000
0010
0100
,
0101
0000
0010
0000
1000
0001
1000
0010
,
1010
1000
0100
0001
,
1001
0000
0010
0000
0000
1000
0001
0100
,
0110
0000
0000
0001
0100
0000
0000
0010
,
1000
0100
1000
0100
1000
0010
0100
0001
,
0010
0000
0000
0001
1000
0000
0000
0100
,
1000
0001
1000
0001
0000
0010
0100
1000
,
0001
0000
0010
0000
1000
0100
1000
0000
,
0001
0010
1000
0000
0100
0010
0001
0000
,
0100
0000
0010
0000
1000
0100
0010
0001
,
0101
0101
1010
1001
,
0020
0000
0000
1030
0000
0000
0000
0000
0001
0000
0010
0000
0100
0000
0000
0000
,
2000
0000
0000
3001
0000
0000
0000
0000
0100
0000
0010
0000
1000
0000
0000
0000
,
0200
0000
0000
0310
0000
0000
0000
0000
0002
0000
0000
1003
0000
0000
0000
0000
,
0020
0000
0000
1030
0000
0000
0000
0000
0200
0000
0000
0301
0000
0000
0000
0000
,
0020
0000
0000
0130
0000
0000
0000
0000
1000
0000
0010
0000
0001
0000
0000
0000
,
0200
0000
0000
0310
0000
0000
0000
0000
0100
0000
0001
0000
1000
0000
0000
0000
,
0002
0000
0000
0013
0000
0000
0000
0000
2000
0000
0000
3100
0000
0000
0000
0000
,
2000
0000
0000
3001
0000
0000
0000
0000
1100
0000
0000
0000
0101
0000
0000
0000
,
0010
0000
0100
0000
0001
0010
1000
0000
,
0100
0000
0010
0000
0001
0100
1000
0000
,
0010
1000
0100
0000
0010
0001
0100
0000
,
0001
0010
0100
1000
0001
0100
0010
1000
,
0001
0000
0010
0000
1000
0100
0001
0000
,
1000
0000
0010
0000
0100
0001
1000
0000
,
0010
1000
0001
0000
1000
0100
0010
0000
,
0011
0000
1010
0000
0001
1000
0100
0010
,
0001
1000
0010
0100
,
0001
0010
0100
1000
,
0010
0100
0001
1000
,
0100
0010
0001
1000
,
0110
0001
0010
1000
,
0100
0010
0100
1000
,
0001
0010
0001
1000
,
0010
0100
0010
1001
,
1000
0000
0000
1000
0000
0000
1000
0000
0000
0000
0000
0000
0000
0000
0000
0000
,
0010
0100
0001
1000
,
0100
0010
0001
1000
,
0010
1000
0100
0001
,
1000
0000
0000
1000
0000
0000
1000
0000
0000
0000
0000
0000
0000
0000
0000
0000
,
0001
0100
1000
0010
,
0100
0010
1000
0001
,
0010
0100
1000
0001
,
0200
0000
0000
0300
,
0011
0011
1100
1001
,
0010
0000
0100
0000
0001
0010
0100
1000
,
0001
0000
0100
0000
1000
0010
0100
0001
,
1000
1100
0001
0101
,
0010
0000
1001
0000
0100
0010
1000
0001
,
0010
0000
1000
0000
0001
0100
0010
1000
,
0100
0000
0010
0000
0100
0010
0001
1000
,
0010
1010
0100
0101
,
0001
0000
0000
0000
0110
0000
0000
0000
1000
0000
0000
0001
0000
0000
1000
0000
,
0100
0010
0001
0000
1000
0000
0100
0000
,
1000
0010
0001
0000
0010
0000
0100
0000
,
0010
0001
0100
0000
0010
1000
0100
0000
,
1000
0010
0100
0001
1000
0100
0010
0001
,
1000
0010
0001
0000
0100
0000
0010
0000
,
1000
0100
0001
0000
0010
0100
1000
0000
,
0010
0100
0010
1000
0100
0010
0001
0000
,
1000
0000
0000
0010
0000
0000
0100
0000
0001
0000
0010
0000
0100
0000
1000
0000
,
1001
0000
0010
0000
0100
0010
1000
0000
,
0001
0000
0011
0000
1000
0010
0100
0001
,
1010
0000
0001
0000
0010
0100
1000
0000
,
0010
0100
0010
0000
1000
0100
0001
0000
,
0120
0000
0000
0200
0330
0000
0000
0000
0000
0000
0000
0000
0000
0000
0000
0000
;

//---------------dance-single - ----------------
#NOTES:
     dance-single:
     :
     Easy:
     7:
     0.316740,0.394935,0.289939,0.306994,0.000000,260.000000,226.000000,34.000000,36.000000,0.000000,0.000000,0.316740,0.394935,0.289939,0.306994,0.000000,260.000000,226.000000,34.000000,36.000000,0.000000,0.000000:
0000
0000
0000
0000
,
0000
0000
0000
0000
,
0000
0000
0000
0000
,
1000
1000
0001
0001
,
0010
0100
0010
0100
,
1001
0010
0100
0001
,
0110
1000
0010
0100
,
1001
0001
0010
0100
,
0120
0200
0000
0330
,
0010
1000
0100
0001
,
0010
0100
0010
0001
,
0100
1000
0010
0100
,
0002
2000
0000
3003
,
0010
1000
0100
0001
,
0010
0100
0010
0001
,
0100
0010
1000
0001
,
0110
0110
1001
0110
,
1000
0010
0001
0100
,
0001
0010
0100
1000
,
2200
3300
0022
0033
,
0202
0303
2020
3030
,
0001
0010
0100
1000
,
0010
0100
0001
1000
,
2020
3030
0202
0303
,
0022
0033
1000
0001
,
1100
0001
0100
1000
,
0010
0100
0010
1000
,
0100
0010
0001
0100
,
0001
0010
1000
0100
,
0001
0010
0001
0100
,
1000
0001
0010
1000
,
0100
0010
0100
1000
,
0010
0010
0010
0100
,
1001
0001
0000
1000
,
0000
0100
0000
0010
,
0000
0001
0000
0100
,
1000
1000
0001
0100
,
0110
0010
0000
1000
,
0000
0100
0000
0001
,
0000
1000
0000
0001
,
0010
0100
1000
1001
,
0010
0000
0010
0000
,
0100
0000
0100
0000
,
0001
0000
0001
0000
,
1000
0000
1000
0000
,
0010
1000
0100
0000
,
0010
0001
0100
0000
,
0001
0010
1000
0000
,
0001
0100
1000
2200
,
0000
0000
0000
3300
,
1001
1001
0110
1001
,
0010
1000
0100
0001
,
0010
0100
0010
0001
,
0202
0303
2200
3300
,
0022
0033
2020
3030
,
0001
1000
0010
0100
,
0001
0010
0100
1000
,
2020
3030
0202
0303
,
2200
3300
0001
1000
,
0010
0001
0100
1000
,
0010
0100
0010
1000
,
0100
0001
0010
1000
,
0100
0010
0100
0010
,
0001
0100
1000
0010
,
1000
0001
1000
0100
,
0010
0010
0100
1000
,
0010
0010
0010
0100
,
1001
0001
0000
0010
,
0000
1000
0000
0100
,
0110
0001
0000
1000
,
0010
0010
1000
0100
,
0022
0033
0000
0000
;

//---------------dance-single - ----------------
#NOTES:
     dance-single:
     :
     Beginner:
     4:
     0.144970,0.211911,0.102331,0.000000,0.000000,119.000000,107.000000,12.000000,0.000000,0.000000,0.000000,0.144970,0.211911,0.102331,0.000000,0.000000,119.000000,107.000000,12.000000,0.000000,0.000000,0.000000:
0000
0000
0000
0000
,
0000
0000
0000
0000
,
0000
0000
0000
0000
,
1001
0000
0000
0000
,
0000
0000
0000
0000
,
1000
0000
0000
0000
,
0100
0000
0000
0000
,
0010
0000
0000
0000
,
0001
0000
0000
0000
,
0110
0000
0100
0000
,
1000
0000
0010
0000
,
1000
0000
0001
0000
,
1000
1000
0000
0000
,
0010
0000
0001
0000
,
0100
0000
1000
0000
,
0110
0000
0010
0000
,
0100
0000
1001
0000
,
0010
0000
1000
0000
,
0100
0000
0010
0000
,
0001
0000
0001
0000
,
1000
0000
1000
0000
,
0001
0000
0010
0000
,
1000
0000
0100
0000
,
0010
0000
0010
0000
,
0100
0000
0100
0000
,
0001
0000
0001
0000
,
0010
0000
0010
0000
,
0100
0000
0100
0000
,
1000
0000
1000
0000
,
0010
0000
0010
0000
,
1000
0000
1000
0000
,
0100
0000
0100
0000
,
0001
0000
0001
0000
,
1001
0000
0000
0000
,
0000
0000
0000
0000
,
0110
0000
0000
0000
,
0000
0000
0000
0000
,
1001
0000
0000
0000
,
0001
0000
0000
0000
,
0110
0000
0000
0000
,
0100
0000
0000
0000
,
0010
0000
0000
0000
,
0010
0000
0000
0000
,
0100
0000
0000
0000
,
0100
0000
0000
0000
,
0001
0000
0000
0000
,
0001
0000
0000
0000
,
1000
0000
0000
0000
,
1000
0000
0000
0000
,
1001
0000
0000
0000
,
1000
0000
0010
0000
,
0110
0000
0001
0000
,
1000
0000
0001
0000
,
0010
0000
0100
0000
,
1000
0000
0010
0000
,
1000
0000
0100
0000
,
0010
0000
0001
0000
,
0100
0000
0010
0000
,
1000
0000
0001
0000
,
0010
0000
0010
0000
,
0100
0000
0100
0000
,
1000
0000
0001
0000
,
1000
0000
0001
0000
,
0010
0000
0010
0000
,
0100
0000
0100
0000
,
1000
0000
0001
0000
,
1000
0000
0001
0000
,
1001
0000
0000
0000
,
0000
0000
0000
0000
,
0110
0000
0000
0000
,
0001
0000
1000
0000
,
0010
0000
0000
0000
;

//---------------dance-single - ----------------
#NOTES:
     dance-single:
     :
     Challenge:
     16:
     0.912455,0.880237,0.733375,0.238773,1.108591,749.000000,663.000000,86.000000,28.000000,0.000000,0.000000,0.912455,0.880237,0.733375,0.238773,1.108591,749.000000,663.000000,86.000000,28.000000,0.000000,0.000000:
// measure 0
0000
0000
0000
0000
,  // measure 1
0000
0000
0000
0000
,  // measure 2
0000
0000
0000
0000
,  // measure 3
1100
0000
0000
1000
0001
0000
0000
0001
0100
0000
0000
0010
0000
0000
1000
0000
,  // measure 4
0100
0000
0000
0000
0000
0000
0010
0000
0000
0001
0000
0000
1000
0000
0000
0000
0100
0000
0000
0000
1000
0000
0000
0000
0001
0000
0000
0000
0010
0000
0000
0000
0100
0000
0000
0000
1000
0000
0000
0000
0001
0000
0000
0000
0100
0000
0000
0000
,  // measure 5
0101
0000
0000
0000
2000
0000
0000
3002
0000
0000
0023
0000
0000
0130
0000
0000
,  // measure 6
0011
0000
0000
0000
0001
1000
0000
0010
0000
0000
1100
0000
0110
0000
0011
0000
,  // measure 7
1001
0000
0000
0000
0010
1000
0000
1000
0100
0000
0010
0001
0000
0001
0100
0000
,  // measure 8
0110
0000
0000
0000
0001
1000
0001
1000
0000
1000
0100
0010
0001
0010
0100
1000
,  // measure 9
0010
0100
0010
1000
1100
0100
0010
0001
,  // measure 10
0101
0100
0110
0010
1010
1000
1001
0001
,  // measure 11
0011
0010
0001
0100
1010
0001
1000
0100
,  // measure 12
1100
0000
1100
0000
1100
0000
1100
0000
0000
1000
0100
0010
0001
0010
0100
1000
,  // measure 13
0010
0100
0001
1000
1001
0010
1010
1000
,  // measure 14
1100
0100
0110
0010
0011
0001
0101
0100
,  // measure 15
0110
0010
1000
0001
0011
0100
1100
0001
,  // measure 16
1010
0000
0000
0000
1010
0000
0000
0000
1000
0001
1000
0001
0010
0100
1000
0000
,  // measure 17
0010
0100
0010
0100
0000
0100
0001
0000
1000
0001
1000
0001
0000
0001
0010
0000
,  // measure 18
0100
1000
0100
1000
0000
1000
0010
0000
0100
0001
0100
0001
0000
0001
0010
0000
,  // measure 19
1000
0100
0010
0001
0000
0100
0010
0000
1000
0010
0100
0001
0000
0010
0100
0000
,  // measure 20
0010
0001
1000
0010
0000
1000
0100
0000
1000
0010
0100
0001
0000
1000
0001
0000
,  // measure 21
0010
1000
0010
1000
0000
0100
1000
0000
0001
0010
0001
0010
0000
0001
0100
0000
,  // measure 22
0010
0100
0010
0100
0000
0010
1000
0000
0001
0100
0001
0100
0000
0010
1000
0000
,  // measure 23
0100
0010
0001
1000
0000
1000
0010
0000
1000
0100
0010
0001
0000
0100
0001
0000
,  // measure 24
0010
0100
0010
0001
0000
1000
0010
0000
1000
0100
0000
0010
0001
0100
0010
1000
,  // measure 25
0001
0100
1000
0000
0010
0000
0100
0001
1000
0000
0010
0100
0010
0100
0001
0000
,  // measure 26
2000
0000
3200
0000
0320
0000
0032
0000
0103
0010
1000
0001
0010
0100
1000
0000
,  // measure 27
0001
0100
1000
0000
0010
0000
1000
0100
0010
0000
0001
0100
0001
1000
0100
0000
,  // measure 28
0020
0032
0203
0320
2030
3002
2003
3200
,  // measure 29
1300
0010
0001
0000
0100
0000
0001
0010
0100
0000
1000
0001
1000
0010
0100
0000
,  // measure 30
0001
0010
0100
0000
1000
0000
0010
0000
0100
0001
0100
0001
1000
0010
0100
0000
,  // measure 31
0001
0010
1000
0000
0001
0000
0100
0010
1000
0000
0100
0010
0001
1000
0001
0000
,  // measure 32
1000
0100
0000
0010
0001
0000
0100
0010
0000
1000
0001
0010
0100
1000
0001
0000
,  // measure 33
0011
0000
0000
0000
1100
0000
0000
0110
0000
0000
0011
0000
0000
0101
0000
0000
,  // measure 34
0010
0000
0000
0000
1001
0000
0000
0101
0000
0000
1100
0000
0011
0000
1000
0000
,  // measure 35
0010
0000
0000
0000
1010
0000
0000
0110
0000
0000
0101
0000
0000
0011
0000
0000
,  // measure 36
1000
0100
0000
0100
0010
0000
1001
0000
0001
1000
0000
0001
0000
0010
0100
0000
,  // measure 37
1000
0000
0000
0000
0110
0000
0000
1001
0000
0000
0011
0000
0000
1100
0000
0000
,  // measure 38
0010
0000
0100
0000
0101
0000
0000
1100
0000
0000
0011
0000
0000
1010
0000
0000
,  // measure 39
0010
0000
0100
0000
1001
0000
0000
0011
0000
0000
1100
0000
0000
0101
0000
0000
,  // measure 40
1000
0010
0000
0010
0100
0000
0001
0000
0010
0001
1000
0010
0200
0000
0000
0000
,  // measure 41
0310
0000
0000
0010
0000
0000
1000
0000
0100
0000
0000
1000
0000
0001
0100
0000
,  // measure 42
0000
0101
0000
0000
0011
0000
0000
0110
0000
0000
1100
0000
1001
0000
0000
0000
,  // measure 43
0010
1000
0000
0000
0101
0000
0000
0010
1000
0001
1000
0000
0010
0000
0100
0001
,  // measure 44
0000
0000
0000
1010
0000
0000
1100
0000
0000
0001
0010
0100
0000
1000
0001
0100
,  // measure 45
0010
0000
0000
0000
1000
0100
0000
0010
0000
0000
0011
0000
0000
0110
0000
0000
,  // measure 46
0000
1001
0000
0000
0010
0100
0010
0100
0000
0000
0001
0000
0010
0001
0000
0101
,  // measure 47
0000
0000
0000
0000
1000
0001
0000
0010
0000
0000
0100
1000
0000
1000
0001
0000
,  // measure 48
0110
0000
0000
0101
0000
0000
1010
0000
0001
0010
0000
0100
0000
1000
0001
0000
,  // measure 49
0012
1000
0010
1003
,  // measure 50
1001
0000
1001
0000
1000
0010
1000
0010
0000
0100
0001
0000
0010
0100
1000
0000
,  // measure 51
0001
0010
0001
0010
0000
0100
1000
0000
0010
0100
0010
0100
0000
0001
1000
0000
,  // measure 52
0100
1000
0100
1000
0000
0001
0100
0000
0001
1000
0001
1000
0000
0010
0100
0000
,  // measure 53
0001
0010
0100
1000
0000
0010
1000
0000
0100
0010
0100
1000
0000
0001
0010
0000
,  // measure 54
0001
0100
0001
0010
0000
1000
0100
0000
1000
0001
0100
0010
0000
0100
0010
0000
,  // measure 55
1000
0010
1000
0010
0000
0100
0001
0000
0010
0100
0010
0100
0000
1000
0001
0000
,  // measure 56
0100
0001
0100
0001
0000
0010
0100
0000
1000
0001
1000
0001
0000
1000
0010
0000
,  // measure 57
1000
0100
0010
0001
0000
1000
0001
0000
0010
0100
0010
0001
0000
1000
0100
0000
,  // measure 58
1000
0001
0010
0100
0000
0010
0001
0000
1000
0001
0000
0100
0010
0000
1000
0001
,  // measure 59
0010
0001
0100
0000
1000
0000
0010
0100
0001
0000
1000
0100
0010
0001
0100
0000
,  // measure 60
0020
0000
0230
0000
0302
0000
2003
0000
3100
0010
0100
1000
0010
0100
0001
0000
,  // measure 61
1000
0100
0001
0000
0010
0000
0100
0010
0001
0000
0100
0010
1000
0001
1000
0000
,  // measure 62
0001
0010
0200
0000
0320
0000
0032
0000
2003
0000
3002
0000
2003
0000
3200
0000
,  // measure 63
0310
0100
1000
0000
0010
0000
1000
0001
0100
0000
0010
1000
0100
0010
0100
0000
,  // measure 64
0010
0001
1000
0000
0010
0000
0100
0000
0001
0000
0010
0001
1000
0010
0100
0000
,  // measure 65
0001
0010
1000
0010
0001
0000
0100
1000
0100
0001
0100
0000
0010
0100
0001
1000
,  // measure 66
0100
0010
0000
0001
1000
0000
0010
0100
0001
0010
0100
1000
0001
0100
0010
1000
,  // measure 67
0001
0000
0000
0000
0011
0000
0000
1100
0000
0000
1001
0000
0000
1010
0000
0000
,  // measure 68
0010
0100
0010
0100
0001
0000
0000
0101
0000
0000
1000
0100
0000
0010
0001
0000
,  // measure 69
0110
0000
0000
0000
1100
0000
0000
0101
0000
0000
0011
0000
0000
1010
0000
0001
,  // measure 70
0010
0100
0010
0100
1000
0000
0001
0100
0000
0001
0010
0000
0100
1000
0001
1000
,  // measure 71
1001
0000
0000
0110
0000
0000
0000
0000
0000
0000
0000
0000
0000
0000
0000
0000
;
