#VERSION:0.83;
#TITLE:DEADLOCK;
#SUBTITLE:;
#ARTIST:MAX MAXIMIZER;
#TITLETRANSLIT:;
#SUBTITLETRANSLIT:;
#ARTISTTRANSLIT:;
#GENRE:;
#ORIGIN:;
#CREDIT:;
#BANNER:DEADLOCK-bn.png;
#BACKGROUND:DEADLOCK-bg.png;
#PREVIEWVID:;
#JACKET:DEADLOCK-jacket.png;
#CDIMAGE:;
#DISCIMAGE:;
#LYRICSPATH:;
#CDTITLE:;
#MUSIC:DEADLOCK.ogg;
#OFFSET:2.125000;
#SAMPLESTART:20.976999;
#SAMPLELENGTH:20.000000;
#SELECTABLE:YES;
#DISPLAYBPM:94.000000:187.000000;
#BPMS:0.000=93.500,
100.000=187.000,
200.000=93.500;
#STOPS:;
#DELAYS:;
#WARPS:;
#TIMESIGNATURES:0.000=4=4;
#TICKCOUNTS:0.000=4;
#COMBOS:0.000=1;
#SPEEDS:0.000=1.000=0.000=0;
#SCROLLS:0.000=1.000;
#FAKES:;
#LABELS:0.000=Song Start;
#BGCHANGES:;
#KEYSOUNDS:;
#ATTACKS:
;

//---------------dance-single - ----------------
#NOTEDATA:;
#CHARTNAME:;
#STEPSTYPE:dance-single;
#DESCRIPTION:;
#CHARTSTYLE:;
#DIFFICULTY:Hard;
#METER:11;
#RADARVALUES:0.523182,0.843175,0.227118,0.359603,0.269702,387.000000,363.000000,24.000000,38.000000,0.000000,0.000000,0.000000,0.000000,0.000000,0.523182,0.843175,0.227118,0.359603,0.269702,387.000000,363.000000,24.000000,38.000000,0.000000,0.000000,0.000000,0.000000,0.000000;
#CREDIT:;
#DISPLAYBPM:94.000000:187.000000;
#NOTES:
0000
0000
0000
0000
,
0000
0000
0000
0000
,
0000
0000
0000
0000
,
1020
1000
1000
1030
1001
1001
0100
0100
,
0201
0001
0001
0301
1001
0000
0100
0000
,
1001
0000
0010
0100
0001
0000
0001
0000
0011
0000
0001
0010
0000
0100
1000
0000
,
0110
0000
0010
1000
0100
0000
0100
0000
0110
0000
1000
0001
0100
0000
0000
0000
,
0011
0000
0100
1000
0010
0000
0010
0000
0101
0000
0001
1000
0000
0010
0100
0000
,
1010
0000
1000
0001
0010
0000
0100
0000
1000
0001
1000
1100
0000
0000
0000
0000
,
0010
0001
0100
0001
1000
0001
1000
0010
,
1000
0100
1000
0010
0100
0010
0100
0001
,
1000
0001
0010
0001
0100
0001
1000
0001
,
0010
0000
0100
0000
1000
0000
0100
0000
1000
0001
0100
0010
1000
0001
0100
0010
,
1000
0001
0010
0001
0100
0010
0100
0001
,
0010
0100
1000
0100
0010
0001
1000
0001
,
1000
0001
0010
0100
0010
0001
0100
0010
,
1000
0000
0001
0000
0010
0000
0100
0000
0010
0100
0001
1000
0010
0100
0001
1000
,
2002
0000
0000
0000
0000
0000
0000
3000
,
0020
0000
0000
0003
0200
0000
0000
0030
,
2000
0300
0001
0000
0010
0000
0100
0000
,
0020
3000
0100
0000
0200
0030
0001
0000
,
0310
1000
0100
1000
0010
1000
0100
1000
0010
1000
0100
0010
0001
1000
0001
0000
,
0100
0001
0010
0001
0100
0001
0010
0001
0100
0001
0010
0100
1000
0001
1000
0000
,
0001
1000
0100
1000
0001
1000
0100
1000
0001
1000
0100
0010
0100
1000
0001
0000
,
1000
0100
0010
0001
1000
0010
0100
0001
1000
0100
0010
0001
1000
0010
0100
0001
,
0220
0000
0000
0030
,
0301
0100
0010
1000
0001
1000
0100
0010
,
0001
1000
0010
0100
0101
0000
0101
0000
,
1000
0001
0010
0001
0100
0010
1000
0100
,
0010
0001
0100
0001
1000
0100
0010
0000
,
0001
1000
0100
0010
0001
0100
0010
1000
,
0001
0010
0100
1000
1100
0000
1100
0000
,
0010
0100
0001
0100
0010
1000
0100
0010
,
0002
0000
0203
0000
0302
0000
2003
0000
3200
0000
2300
0000
,
3010
1000
0001
1000
0100
0010
0100
0010
,
0001
0100
0001
1000
1010
0000
1010
0000
,
0001
1000
0100
0010
0001
0100
0001
1000
,
0020
0000
0230
0000
0302
0000
2003
0000
3002
0000
0203
0000
,
0320
0000
1030
0100
0020
0000
0031
0100
,
0002
0000
0013
0100
2000
0000
3010
0100
,
0001
0010
0001
0010
0100
1000
0100
1000
,
0010
0100
0010
0100
0001
1000
0001
1000
,
0200
1000
1000
1000
,
1300
0001
0100
0010
0100
0010
1000
0000
,
0002
0010
0010
0010
,
0013
0001
0100
0001
1000
0100
0010
0000
,
2000
0100
0001
3100
,
1000
0001
0010
0100
1000
0010
0100
0000
,
0002
0100
1000
0103
,
0001
1000
0100
0010
0100
1000
0010
0000
,
2001
0000
0000
0000
3200
0000
0000
0000
2300
0000
0000
0000
0000
0000
0000
3001
,
1002
0100
2003
3100
,
2002
0000
0000
0000
,
0000
0000
0000
0000
,
3003
0000
0000
0000
;

//---------------dance-single - ----------------
#NOTEDATA:;
#CHARTNAME:;
#STEPSTYPE:dance-single;
#DESCRIPTION:;
#CHARTSTYLE:;
#DIFFICULTY:Medium;
#METER:9;
#RADARVALUES:0.356900,0.459914,0.246044,0.264971,0.023658,264.000000,238.000000,26.000000,28.000000,0.000000,0.000000,0.000000,0.000000,0.000000,0.356900,0.459914,0.246044,0.264971,0.023658,264.000000,238.000000,26.000000,28.000000,0.000000,0.000000,0.000000,0.000000,0.000000;
#CREDIT:;
#DISPLAYBPM:94.000000:187.000000;
#NOTES:
0000
0000
0000
0000
,
0000
0000
0000
0000
,
0000
0000
0000
0000
,
1020
1000
1000
1030
1001
1001
0000
0000
,
0201
0001
0001
0301
1001
0000
0000
0000
,
1001
0000
0000
0000
1000
0000
0001
0000
0010
0000
0000
0100
0000
0000
1000
0000
,
1100
0000
0000
0000
1000
0000
0100
0000
0010
0000
0000
0001
0000
0000
0000
0000
,
0110
0000
0000
0000
0100
0000
0010
0000
1000
0000
0000
0100
0000
0000
0001
0000
,
0011
0000
0000
0000
0100
0000
0100
0000
0001
1000
0001
1000
0000
0000
0000
0000
,
0010
0001
0100
0000
1000
0100
0010
0000
,
0100
0001
0010
0000
1000
0001
0100
0000
,
1000
0001
0010
0000
1000
0010
0100
0000
,
0010
0100
0010
0100
2000
0000
3002
0000
,
0103
0001
1000
0000
0001
0010
0100
0000
,
0010
0100
1000
0000
0001
0100
1000
0000
,
0010
1000
0001
0000
1000
0100
0010
0000
,
0001
1000
0001
1000
0020
0000
0230
0000
,
0002
0000
0000
0000
0000
0000
0000
0300
,
2000
0000
0000
0003
0200
0000
0000
3000
,
0020
0000
0000
0000
0000
0000
0000
0300
,
0200
0000
0000
0030
2000
0000
0000
0300
,
3001
1000
0100
0010
0001
0100
0001
0000
,
0010
1000
0001
1000
0100
0010
0001
0000
,
0100
0001
1000
0100
0010
0001
1000
0000
,
0001
1000
0001
0100
0010
1000
0010
0100
,
2002
0000
0000
0003
,
3010
0000
1000
0100
0000
1000
0001
0000
,
0100
0001
0100
0000
0101
0000
0101
0000
,
1000
0000
0001
0100
0000
0001
1000
0000
,
0001
0100
0001
0000
1000
0100
1000
0000
,
0010
0000
1000
0001
0000
1000
0100
0000
,
0001
1000
0001
0000
1100
0000
1100
0000
,
0010
0000
1000
0100
0000
1000
0010
0000
,
1000
1100
0001
0101
,
0010
0000
1000
0001
0000
0001
0100
0000
,
0010
0100
0010
0000
0110
0000
0110
0000
,
0100
0000
0001
1000
0000
0100
0010
0000
,
0001
0011
1000
1010
,
0002
0000
0003
1000
0200
0000
0300
1000
,
0020
0000
0030
0100
0002
0000
0003
1000
,
0010
0010
0100
0100
,
0001
1000
0100
0000
1000
0001
0100
0000
,
1002
0100
0100
0100
,
1000
0000
0010
0000
1003
0001
0100
0000
,
2010
0100
0100
0100
,
0001
0000
0010
0000
3001
1000
0100
0000
,
0210
1000
1000
1000
,
0010
0000
0001
0000
0310
0100
0010
0000
,
0102
0010
0010
0010
,
0100
0000
1000
0000
0013
0001
0100
0000
,
2001
0010
0200
0300
,
0002
3000
2000
3003
,
2002
0000
0000
0000
,
0000
0000
0000
0000
,
3003
0000
0000
0000
;

//---------------dance-single - ----------------
#NOTEDATA:;
#CHARTNAME:;
#STEPSTYPE:dance-single;
#DESCRIPTION:;
#CHARTSTYLE:;
#DIFFICULTY:Easy;
#METER:6;
#RADARVALUES:0.208191,0.255508,0.075706,0.189265,0.000000,154.000000,146.000000,8.000000,20.000000,0.000000,0.000000,0.000000,0.000000,0.000000,0.208191,0.255508,0.075706,0.189265,0.000000,154.000000,146.000000,8.000000,20.000000,0.000000,0.000000,0.000000,0.000000,0.000000;
#CREDIT:;
#DISPLAYBPM:94.000000:187.000000;
#NOTES:
// measure 0
0000
0000
0000
0000
,  // measure 1
0000
0000
0000
0000
,  // measure 2
0000
0000
0000
0000
,  // measure 3
0010
0000
0100
0000
0001
0001
0000
0000
,  // measure 4
0010
0100
1000
0000
,  // measure 5
0010
1000
0001
0001
,  // measure 6
0010
0100
1000
0001
,  // measure 7
0100
0001
1000
1000
,  // measure 8
0001
0000
1000
0000
0100
0100
0000
0000
,  // measure 9
0001
0100
1000
0100
,  // measure 10
0001
0010
0100
1000
,  // measure 11
0010
1000
0100
0001
,  // measure 12
0010
0100
1000
1000
,  // measure 13
0001
0010
1000
0010
,  // measure 14
0001
0010
0100
1000
,  // measure 15
0010
0100
0001
1000
,  // measure 16
0100
0010
0001
0001
,  // measure 17
2002
0000
0000
3003
,  // measure 18
0020
0030
0200
0300
,  // measure 19
0220
0000
0000
0330
,  // measure 20
0002
0003
2000
3000
,  // measure 21
0001
0100
1000
0010
,  // measure 22
0100
0010
1000
0100
,  // measure 23
0010
0001
0100
1000
,  // measure 24
0001
1000
0100
0010
,  // measure 25
0220
0000
0000
0330
,  // measure 26
0010
0010
0100
0100
,  // measure 27
0001
0000
1000
1000
,  // measure 28
0001
0001
1000
1000
,  // measure 29
0100
0000
0010
0000
,  // measure 30
0100
0100
1000
1000
,  // measure 31
0010
0000
0010
0010
,  // measure 32
1000
1000
0001
0001
,  // measure 33
0100
0000
0100
0000
,  // measure 34
0001
0001
0010
0010
,  // measure 35
0001
0000
1000
0100
,  // measure 36
1000
1000
0010
0010
,  // measure 37
0100
0000
0100
0000
,  // measure 38
1001
0000
0110
0000
,  // measure 39
1001
0000
0110
0000
,  // measure 40
1000
0000
0100
0000
,  // measure 41
0010
0000
0001
0000
,  // measure 42
2000
0000
0000
3000
,  // measure 43
0010
0010
0010
0000
,  // measure 44
0200
0000
0000
0300
,  // measure 45
0001
0001
0001
0000
,  // measure 46
0020
0000
0000
0030
,  // measure 47
0100
0100
0100
0000
,  // measure 48
0002
0000
0000
0003
,  // measure 49
1000
1000
1000
0000
,  // measure 50
0020
0030
2000
3000
,  // measure 51
0002
0003
0200
0300
,  // measure 52
2002
0000
0000
0000
,  // measure 53
0000
0000
0000
0000
,  // measure 54
3003
0000
0000
0000
;

//---------------dance-single - ----------------
#NOTEDATA:;
#CHARTNAME:;
#STEPSTYPE:dance-single;
#DESCRIPTION:;
#CHARTSTYLE:;
#DIFFICULTY:Beginner;
#METER:2;
#RADARVALUES:0.112207,0.196835,0.018926,0.037853,0.000000,83.000000,81.000000,2.000000,4.000000,0.000000,0.000000,0.000000,0.000000,0.000000,0.112207,0.196835,0.018926,0.037853,0.000000,83.000000,81.000000,2.000000,4.000000,0.000000,0.000000,0.000000,0.000000,0.000000;
#CREDIT:;
#DISPLAYBPM:94.000000:187.000000;
#NOTES:
0000
0000
0000
0000
,
0000
0000
0000
0000
,
0000
0000
0000
0000
,
0010
0000
0100
0000
,
0001
0000
1000
0000
,
0001
0000
0001
0000
,
1000
0000
1000
0000
,
0010
0000
0010
0000
,
0100
0000
0100
0000
,
0001
0000
0010
0000
,
0001
0000
0010
0000
,
0100
0000
1000
0000
,
0100
0000
1000
0000
,
0010
0000
1000
0000
,
0010
0000
1000
0000
,
0001
0000
0100
0000
,
0001
0000
0100
0000
,
0010
0000
0000
0000
,
0000
0000
0000
0000
,
0100
0000
0000
0000
,
0000
0000
0000
0000
,
0001
0001
0001
0000
,
0100
0100
0100
0000
,
0010
0010
0010
0000
,
1000
1000
1000
0000
,
1001
0000
0000
0000
,
0010
0010
0010
0010
,
0000
0000
0000
0000
,
1000
1000
1000
1000
,
0000
0000
0000
0000
,
0001
0001
0001
0001
,
0000
0000
0000
0000
,
0100
0100
0100
0100
,
0000
0000
0000
0000
,
0001
0001
0001
0001
,
0000
0000
0000
0000
,
1000
1000
1000
1000
,
0000
0000
0000
0000
,
0010
0000
0000
0000
,
0100
0000
0000
0000
,
0001
0000
0001
0000
,
1000
0000
1000
0000
,
0020
0000
0000
0030
,
0000
0000
0000
0000
,
0200
0000
0000
0300
,
0000
0000
0000
0000
,
0002
0000
0000
0003
,
0000
0000
0000
0000
,
2000
0000
0000
3000
,
0000
0000
0000
0000
,
0001
0000
0000
0000
,
1000
0000
1000
0000
,
1001
0000
0000
0000
;

//---------------dance-single - ----------------
#NOTEDATA:;
#CHARTNAME:;
#STEPSTYPE:dance-single;
#DESCRIPTION:;
#CHARTSTYLE:;
#DIFFICULTY:Challenge;
#METER:13;
#RADARVALUES:0.735429,1.022030,0.435309,0.217655,0.790181,544.000000,498.000000,46.000000,23.000000,0.000000,0.000000,0.000000,0.000000,0.000000,0.735429,1.022030,0.435309,0.217655,0.790181,544.000000,498.000000,46.000000,23.000000,0.000000,0.000000,0.000000,0.000000,0.000000;
#CREDIT:;
#DISPLAYBPM:94.000000:187.000000;
#NOTES:
0000
0000
0000
0000
,
0000
0000
0000
0000
,
0000
0000
0000
0000
,
1010
0000
1010
0000
1010
0000
1010
0000
1001
0000
1001
0000
1000
0100
0010
0001
,
0101
0000
0101
0000
0101
0000
0101
0000
1001
0000
0000
0100
0100
0000
0110
0000
,
1001
0000
1000
0100
0010
0001
0100
0010
2000
0100
3100
2000
0001
3001
0100
0010
,
0110
0000
0010
1000
0001
0010
0100
1000
0020
0100
0130
0101
0000
1000
1100
0000
,
1001
0000
0010
1000
0001
0100
0001
0010
0200
1000
1300
0002
1000
1003
0010
0100
,
0110
0000
0000
0000
0001
0000
0010
0000
0100
0000
1000
0000
0010
0000
0100
0000
0001
0000
0001
0000
0001
0000
1001
0000
0000
0000
0000
0000
1000
0001
1000
0001
,
1000
0010
0100
0001
1000
0010
0100
0001
1000
0001
0100
0010
0001
0100
0010
1000
,
0001
0010
0001
1000
0100
0010
0001
1000
0100
1000
0010
0100
1000
0010
0001
0100
,
0010
1000
0001
0100
0001
1000
0100
0010
0001
0010
1000
0100
0001
1000
0010
0100
,
1000
0100
0010
0001
1000
0100
0010
0001
1000
1000
1000
1000
0001
0001
0001
0001
,
1000
0001
0010
0100
0001
0010
0001
0100
0010
1000
0001
0100
0010
1000
0100
1000
,
0001
0100
0010
1000
0001
0100
1000
0001
0010
1000
0010
0100
0010
0001
1000
0100
,
0001
0010
0001
1000
0100
0001
0010
0100
0001
1000
0010
0100
1000
0100
1000
0010
,
0100
0010
1000
0001
0100
0010
1000
0001
0010
0010
0010
0010
0100
0100
0100
0100
,
2001
0010
0001
0100
,
3020
0100
2030
0100
,
3002
0010
1000
0100
,
0023
0001
0230
1000
,
0310
0000
0100
0000
1000
0001
1000
0000
0010
0000
0100
0000
0001
0000
0000
0000
1000
0000
0100
0000
0010
0001
0010
0000
0001
0000
0100
0000
1000
0000
0000
0000
,
0001
0000
1000
0000
0100
1000
0100
0000
0010
0000
0001
0000
0010
0000
0000
0000
0001
0000
0100
0000
0010
1000
0010
0000
0100
0000
0001
0000
1000
0000
0000
0000
,
0001
0000
0010
0000
0001
0010
0001
0000
1000
0000
0100
0000
0010
0000
0001
0000
1000
0000
0100
0000
1000
0100
1000
0000
0001
0000
0010
0000
0100
0000
1000
0000
,
0010
0000
0100
0000
0010
0100
0010
0000
1000
0000
0001
0000
1000
0001
1000
0000
0001
0000
1000
0000
0001
1000
0001
0000
0100
0000
0010
0000
0100
0010
0100
0000
,
0220
0030
0001
1000
,
0301
1000
0100
0010
0001
0100
0010
1000
,
0100
0000
0010
0000
1000
0000
0001
0000
0100
0010
0100
0000
0010
0100
0010
0000
,
1000
0100
0010
0100
0010
0001
1000
0001
,
0010
0000
0000
0001
0100
0000
0000
0001
1000
0000
0000
0010
1000
0000
0000
0100
,
0010
0100
0010
0001
0100
1000
0001
1000
,
0010
0000
1000
0000
0100
0000
0010
0000
0001
1000
0001
0000
1000
0001
1000
0000
,
0010
1000
0001
1000
0100
0010
0100
0001
,
0011
0000
0011
0000
0011
0000
1100
0000
1100
0000
1100
0000
,
1000
0001
0010
0001
0100
1000
0010
0100
,
0001
0000
1000
0000
0100
0000
1000
0000
0010
0100
0010
0000
1000
0001
1000
0000
,
0001
1000
0100
0010
1000
0001
0100
0010
,
1010
0000
1010
0000
1010
0000
0101
0000
0101
0000
0101
0000
,
2001
0000
3010
1000
1200
0000
1300
0001
,
0021
0000
0031
0100
0102
0000
0103
0010
,
1000
1000
1000
1000
0001
0001
0001
0001
,
0100
0100
0100
0100
0010
0010
0010
0010
,
0110
0000
0000
0100
0010
0000
0000
0010
0100
0000
0000
0100
0010
0000
0000
0010
,
1000
0100
0010
0001
1000
0010
0100
0001
,
1001
0000
0000
1000
0001
0000
0000
0001
1000
0000
0000
1000
0001
0000
0000
0001
,
0010
0001
0100
0001
1000
0100
1000
0010
,
0101
0000
0000
0001
0100
0000
0000
0100
0001
0000
0000
0001
0100
0000
0000
0100
,
0001
0010
0100
1000
0001
0100
0010
1000
,
1100
0000
0000
0100
1000
0000
0000
1000
0100
0000
0000
0100
1000
0000
0000
1000
,
0010
1000
0100
0010
0001
1000
0001
0100
,
0110
0000
2001
0000
3002
0100
0100
1003
,
0021
0001
0001
0031
0102
0100
0100
0103
,
2002
0000
0000
0000
,
0000
0000
0000
0000
,
3003
0000
0000
0000
;
