#TITLE:DEAD END;
#SUBTITLE:;
#ARTIST:N & S;
#TITLETRANSLIT:;
#SUBTITLETRANSLIT:;
#ARTISTTRANSLIT:;
#GENRE:;
#CREDIT:;
#BANNER:DEAD END.png;
#BACKGROUND:DEAD END-bg.png;
#LYRICSPATH:;
#CDTITLE:;
#MUSIC:DEAD END.ogg;
#OFFSET:0.000000;
#SAMPLESTART:54.317001;
#SAMPLELENGTH:20.000000;
#SELECTABLE:YES;
#DISPLAYBPM:190.000000;
#BPMS:0.000000=190.074005
,20.000000=190.011002
;
#STOPS:
;
#BGCHANGES:;
#KEYSOUNDS:;
#ATTACKS:;

//---------------dance-single - ----------------
#NOTES:
     dance-single:
     :
     Beginner:
     4:
     0.164618,0.271799,0.000000,0.000000,0.000000,115.000000,115.000000,0.000000,0.000000,0.000000,0.000000,0.164618,0.271799,0.000000,0.000000,0.000000,115.000000,115.000000,0.000000,0.000000,0.000000,0.000000:
0000
0000
0000
0000
,
0000
0000
0000
0000
,
0000
0000
0000
0000
,
0000
0000
0000
0000
,
0000
0000
0000
0000
,
0000
0000
0000
0000
,
0000
0000
0000
0000
,
0010
0010
0000
0000
,
0010
0010
0000
0000
,
0001
0000
0000
0000
,
0100
0100
0000
0000
,
0100
0100
0000
0000
,
0100
0100
0000
0000
,
0100
0100
0000
0000
,
0010
0010
0000
0000
,
0010
0010
0000
0000
,
0010
0010
0000
0000
,
0010
0010
0000
0000
,
0001
0000
0000
0000
,
1000
1000
0000
0000
,
1000
1000
0000
0000
,
1000
1000
0000
0000
,
0100
0000
0000
0000
,
0001
0001
0000
0000
,
0001
0001
0000
0000
,
0001
0001
0000
0000
,
0010
0000
0000
0000
,
0010
0000
0000
0000
,
0100
0000
0000
0000
,
0100
0000
0000
0000
,
0010
0000
0000
0000
,
0010
0000
0000
0000
,
0100
0000
0000
0000
,
0010
0010
0010
0010
,
0010
0010
0010
0000
,
0000
0000
0000
0000
,
0001
0000
0000
0000
,
1000
0000
0000
0000
,
0001
0000
0000
0000
,
1000
1000
0000
0000
,
1000
1000
0000
0000
,
1000
1000
0000
0000
,
0100
0000
0000
0000
,
0001
0001
0000
0000
,
0010
0010
0000
0000
,
0001
0001
0000
0000
,
0010
0010
0000
0000
,
1000
1000
0000
0000
,
0100
0100
0000
0000
,
1000
1000
0000
0000
,
0100
0100
0000
0000
,
1000
0000
0000
0000
,
0010
0000
0000
0000
,
1000
0000
0000
0000
,
0010
0000
0000
0000
,
0001
0000
0000
0000
,
0100
0000
0000
0000
,
0001
0000
0000
0000
,
0100
0000
0000
0000
,
1000
1000
1000
0000
,
0000
0000
0000
0000
,
0001
0001
0001
0000
,
0000
0000
0000
0000
,
0010
0010
0010
0000
,
0000
0000
0000
0000
,
0100
0100
0100
0000
,
0000
0000
0000
0000
,
0000
0000
0000
0000
,
1000
1000
0000
0000
,
0100
0100
0000
0000
,
0010
0010
0000
0000
,
0010
0010
0000
0000
,
0001
0001
0000
0000
,
1000
1000
0000
0000
,
0001
0001
0000
0000
,
1000
0000
0000
0000
,
0100
0100
0000
0000
,
0010
0010
0010
0000
,
0000
0000
0000
0000
;

//---------------dance-single - ----------------
#NOTES:
     dance-single:
     :
     Easy:
     7:
     0.347846,0.621255,0.270547,0.000000,0.000000,243.000000,216.000000,27.000000,0.000000,0.000000,0.000000,0.347846,0.621255,0.270547,0.000000,0.000000,243.000000,216.000000,27.000000,0.000000,0.000000,0.000000:
0000
0000
0000
0000
,
0000
0000
0000
0000
,
0000
0000
0000
0000
,
0000
0000
0000
0000
,
0000
0000
0000
0000
,
0000
0000
0000
0000
,
0000
0000
0000
0000
,
0010
0000
0100
0000
,
0010
0000
0100
0000
,
1001
0100
0000
0000
,
0001
0100
0001
1000
,
0100
0000
1000
0000
0000
0010
0000
0010
,
0000
1000
0001
0100
,
0010
0000
0100
0000
0000
0001
0000
0001
,
0000
1000
0001
0100
,
0010
0000
1000
0000
0000
0100
0000
0100
,
0000
0010
0001
0100
,
0010
0000
1000
0000
0000
0100
0000
0100
,
1000
0100
1001
0000
,
0000
0000
0000
0000
,
1000
0001
0100
0001
,
1000
0000
0100
0000
0000
0010
0000
0010
,
0000
0001
1000
0100
,
0010
0000
0100
0000
0000
1000
0000
1000
,
0000
0010
0100
0001
,
1000
0000
0010
0000
0000
0100
0000
0100
,
1001
0000
0100
0000
,
0100
0000
0100
0000
,
1001
0000
0100
0000
,
0100
0000
0100
0000
,
1001
0000
0100
0000
,
0100
0000
1001
0000
,
1001
0000
0000
0000
,
1000
0000
1000
0000
,
1000
0000
1000
0000
,
1000
0100
0010
0010
,
0001
0100
0010
0010
,
0100
0100
0100
0010
,
0010
0010
0100
0010
,
1000
0000
0100
0000
,
0010
0000
0001
0000
,
0100
0000
0010
0000
,
1000
0000
0000
0000
,
0010
0100
0010
0100
,
0010
0000
1000
0000
0000
0100
0000
0100
,
0000
0010
0100
0010
,
0001
0000
0100
0000
0000
0010
0000
0010
,
0000
0100
0001
0010
,
0100
0000
1000
0000
0000
0001
0000
0001
,
0000
1000
0100
0010
,
0001
0000
0100
0000
0000
0010
0000
0010
,
1000
0100
1001
0000
,
0000
0000
0000
0000
,
1000
0001
0100
0010
,
1000
0000
0100
0000
0000
0010
0000
0010
,
0000
0001
0001
1000
,
1000
0000
1000
0000
0000
0100
0000
0100
,
0000
0010
0001
0100
,
0010
0000
1000
0000
0000
0100
0000
0000
,
1001
0000
0010
0100
0000
0000
0000
0000
,
1001
0000
0000
1001
0000
0000
0000
0000
,
1001
0000
0010
0100
0000
0000
0000
0000
,
1001
0000
0000
1001
0000
0000
0000
0000
,
1001
0000
0010
0100
0000
0000
0000
0000
,
1001
0000
0000
1001
0000
0000
0000
0000
,
1001
0000
0010
0100
0000
0000
0000
0000
,
1001
0000
0000
1001
0000
0000
0000
0000
,
0000
0000
0000
0000
,
0010
0100
0010
0001
,
0100
0010
0010
0000
1000
0000
0001
0000
,
0100
0010
0010
0010
,
1000
0000
0100
0100
1000
0000
0001
0000
,
1000
0010
0100
0010
,
0100
0000
0001
0000
0010
0010
0100
0000
,
1000
0001
0010
0100
,
0100
0000
0100
0010
0010
0000
0100
0000
,
1001
0110
0110
1001
,
1100
0101
1001
0000
,
0000
0000
0000
0000
;

//---------------dance-single - ----------------
#NOTES:
     dance-single:
     :
     Medium:
     10:
     0.499581,0.581487,0.120243,0.000000,0.025051,349.000000,337.000000,12.000000,0.000000,0.000000,0.000000,0.499581,0.581487,0.120243,0.000000,0.025051,349.000000,337.000000,12.000000,0.000000,0.000000,0.000000:
0000
0000
0000
0000
,
0000
0000
0000
0000
,
0000
0000
0000
0000
,
0000
0000
0000
0000
,
0000
0000
0000
0000
,
0000
0000
0000
0000
,
0000
0000
0000
0000
,
1000
0100
0010
0100
,
1000
0010
0100
0001
,
1100
0001
0000
0000
,
1000
0100
0010
0000
0010
0001
0100
0000
,
0100
0010
1000
0000
0000
0001
0000
0001
,
0010
0100
1000
0000
1000
0010
0100
0000
,
0100
0001
0010
0000
0000
0010
0000
0010
,
0100
1000
0001
0000
0100
0010
1000
0000
,
0100
0010
0001
0000
0000
0000
1000
0100
,
0010
0100
1000
0000
0000
0000
0001
0010
,
0001
0100
0010
0000
0000
0000
0010
0100
,
1001
0100
0010
0000
,
0001
0010
0001
0000
0000
0100
0000
0100
,
0001
0100
0010
0000
1000
0100
0010
0000
,
0010
0001
0100
0000
0000
0010
0000
0010
,
1000
0100
0010
0000
0010
0001
0100
0000
,
0010
1000
0100
0000
0000
0000
0010
0001
,
1000
0100
0010
0000
0000
0000
0100
1000
,
0000
0000
0100
0000
0000
0000
0100
0010
,
0001
1000
0100
0000
0000
0100
0000
0000
,
0000
0100
0000
0000
0000
0100
0000
0000
,
1000
0010
0100
0000
0000
0100
0000
0000
,
0000
0100
0000
0000
0000
0100
0000
0000
,
0001
0010
0100
0000
0000
0100
0000
0000
,
0000
0100
0000
0000
0000
1001
0000
1001
,
0000
1001
0000
0000
,
1000
0000
0000
1000
0000
0000
1000
0000
1000
0000
0000
1000
0000
0000
1000
0000
,
1000
0000
0000
1000
0000
0000
1000
0000
1000
0000
0000
0000
0000
0000
0000
0000
,
1000
0000
0100
0000
0010
0010
0010
0000
,
0001
0000
0100
0000
0010
0010
0010
0000
,
1000
1000
1000
0000
0001
0001
0001
0000
,
0010
0100
1000
0001
0100
0100
0100
0000
,
1000
0100
0010
0001
,
0100
0010
1000
0100
,
0010
0001
0100
0010
,
1000
0000
0000
0000
,
0001
0100
0010
0000
0010
1000
0100
0000
,
0100
0010
0001
0000
0000
1000
0000
1000
,
0010
0100
0001
0000
0001
0010
0100
0000
,
0100
1000
0010
0000
0000
0010
0000
0010
,
0100
0001
1000
0000
0100
0010
0001
0000
,
0100
0010
1000
0000
0000
0000
0001
0100
,
0010
0100
0001
0000
0000
0000
1000
0010
,
1000
0100
0010
0000
0000
0000
0010
0100
,
1001
0100
0010
0000
,
1000
0010
1000
0000
0000
0100
0000
0100
,
1000
0100
0010
0000
0001
0100
0010
0000
,
0010
1000
0100
0000
0000
0010
0000
0010
,
0001
0100
0010
0000
0010
1000
0100
0000
,
0010
0001
0100
0000
0000
0000
0010
1000
,
0001
0100
0010
0000
0000
0000
0100
0001
,
0000
0000
0100
0000
0000
0000
0100
0010
,
1000
0001
0100
0010
0000
0010
0000
0000
,
0001
0100
0010
1000
0100
0010
0000
0000
,
0001
1000
0010
0100
0000
0100
0000
0000
,
0001
0010
0100
1000
0010
0100
0000
0000
,
0001
0010
0100
1000
0000
1000
0000
0000
,
0001
0100
1000
0100
0001
0010
0000
0000
,
0100
1000
0010
0100
0000
0100
0000
0000
,
0001
0010
1000
0010
0001
0100
0000
0000
,
0001
1000
0001
0000
0010
0000
0100
0000
,
1000
0000
0010
0100
0000
0001
0100
0000
,
0010
0100
0001
1000
0000
0100
0100
0000
,
1000
0000
0010
0100
0000
0001
0100
0000
,
0010
0100
0001
1000
0000
0100
0100
0000
,
1000
0000
0010
0100
0000
0001
0100
0000
,
0010
0100
0001
1000
0000
0100
0100
0000
,
1000
0000
0010
0100
0000
0001
0100
0000
,
0010
0100
0001
1000
0000
0100
0100
0000
,
1001
0000
0000
0110
0000
0000
1001
0000
0000
0000
0000
0000
0000
0000
0000
0000
,
1001
0000
0000
0110
0000
0000
1001
0000
0000
0000
0000
0000
0000
0000
0000
0000
,
0000
0000
0000
0000
;

//---------------dance-single - ----------------
#NOTES:
     dance-single:
     :
     Hard:
     12:
     0.644158,0.697785,0.400810,0.000000,0.025051,450.000000,410.000000,40.000000,0.000000,0.000000,0.000000,0.644158,0.697785,0.400810,0.000000,0.025051,450.000000,410.000000,40.000000,0.000000,0.000000,0.000000:
0000
0000
0000
0000
,
0000
0000
0000
0000
,
0000
0000
0000
0000
,
0000
0000
0000
0000
,
0000
0000
0000
0000
,
0000
0000
0000
0000
,
0000
0000
0000
0000
,
1000
0000
0100
1000
0010
0000
0100
0001
,
1000
0000
0100
0010
0001
0000
1000
0100
,
1000
0101
0000
0000
,
1000
0100
0010
0000
0010
0001
0100
0000
,
0100
0010
1000
0000
1000
0001
0010
0000
,
0010
0100
1000
0000
1000
0010
0100
0000
,
0100
0001
0010
0000
0010
0100
0010
0000
,
0100
1000
0001
0000
0100
0010
1000
0000
,
0100
0010
0001
0000
0100
0010
1000
0000
,
0100
0010
0001
0000
1000
0100
0010
0000
,
0001
0100
0010
0000
1000
0100
0001
0000
,
0100
0000
1000
0100
1000
0000
0000
0000
,
0001
0100
0001
0010
0100
1000
0000
1000
,
0010
0100
0001
0010
0100
0010
0100
1000
,
0010
0100
0001
0010
0100
1000
0000
1000
,
0100
0010
0001
0100
0010
0100
0001
0010
,
0100
1000
0100
0010
0001
0100
0000
0100
,
0010
1000
0100
0010
0001
0100
0010
0100
,
0001
1000
0100
0010
0001
1000
0000
1000
,
0100
0010
0001
0100
,
1001
0000
0100
0010
0000
0010
0001
0000
,
0001
0100
0010
1000
,
0100
0000
0100
1000
0100
1000
0001
0000
,
1000
0010
0100
0001
,
1001
0000
0010
0100
0000
0001
1000
0000
,
0100
0010
0001
1000
,
1000
0000
0000
0100
0000
0000
0001
0000
1000
0000
0000
0100
0000
0000
0010
0000
,
1000
0000
0000
0001
0000
0000
0010
0000
0100
0000
0000
0000
0000
0000
0000
0000
,
1100
0000
0110
0000
0001
0010
0001
0000
,
0101
0000
0110
0000
1000
0010
1000
0000
,
0100
0010
0001
0000
0100
0010
1000
0000
,
0100
0010
0001
0100
0010
0010
0010
0000
,
1001
1100
1100
0101
,
0101
0110
0110
1001
,
1001
0101
1100
1001
,
0100
0000
0000
0000
,
1000
0100
0010
0001
0100
0001
0100
0010
,
1000
0100
0010
0100
1000
0001
0000
0001
,
1000
0010
0100
0001
0010
0100
1000
0010
,
0100
0001
0010
0100
1000
0010
0000
0010
,
0100
0001
0010
0100
1000
0010
0100
0001
,
0010
0100
1000
0010
0100
0010
0000
0010
,
0100
0001
0010
0100
1000
0010
0100
0001
,
0010
0100
1000
0010
0100
0001
0000
0001
,
0010
0100
0010
0000
1001
0000
0000
0000
,
0001
0100
0001
0010
0100
1000
0000
1000
,
0010
0100
0001
0010
0100
0010
0100
1000
,
0010
0100
0001
0010
0100
1000
0000
1000
,
0100
0010
0001
0100
0010
0100
0001
0010
,
0100
1000
0100
0010
0001
0100
0000
0100
,
0010
1000
0100
0010
0001
0100
0010
0100
,
0001
0010
0100
1000
0001
0100
0000
0100
,
0001
1000
0100
0010
0000
1001
0000
0000
,
0100
0100
0100
0010
0010
0010
0000
0000
,
0001
1000
0010
0100
0000
1001
0000
0000
,
0100
0100
0100
0100
0010
0010
0000
0000
,
0001
0100
0010
1000
0000
1100
0000
0000
,
0001
0100
0100
0100
0100
0100
0000
0000
,
0010
1000
0100
0010
0000
0101
0000
0000
,
0100
0100
0100
0100
0100
0100
0000
0000
,
1000
0100
0001
0000
1001
0000
1001
0000
,
0010
1000
0010
0100
0000
1001
0000
0000
,
0100
0010
0100
1000
0000
1001
0000
0000
,
1000
0100
0010
0001
0000
1100
0000
0000
,
0001
0100
0001
0010
0000
0110
0000
0000
,
1000
0001
0100
0010
0000
1001
0000
0000
,
0100
0010
0001
0100
0000
0110
0000
0000
,
1000
0100
0010
0001
0000
0101
0000
0000
,
0010
1000
0100
0010
0000
0011
0000
0000
,
1001
0000
0000
0101
0000
0000
0101
0000
0000
0000
0010
0000
1000
0000
0100
0000
,
1001
0000
0000
1001
0000
0000
0110
0000
0000
0000
0000
0000
0000
0000
0000
0000
,
0000
0000
0000
0000
;

//---------------dance-double - ----------------
#NOTES:
     dance-double:
     :
     Easy:
     8:
     0.432302,0.542721,0.280567,0.000000,0.010020,302.000000,274.000000,28.000000,0.000000,0.000000,0.000000,0.432302,0.542721,0.280567,0.000000,0.010020,302.000000,274.000000,28.000000,0.000000,0.000000,0.000000:
00000000
00000000
00000000
00000000
,
00000000
00000000
00000000
00000000
,
00000000
00000000
00000000
00000000
,
00000000
00000000
00000000
00000000
,
00000000
00000000
00000000
00000000
,
00000000
00000000
00000000
00000000
,
00000000
00000000
00000000
00000000
,
10000000
00000000
10000000
00000000
,
10000000
00000000
10000000
01000000
,
00010000
00010000
00000000
00000000
,
10000000
10000000
10000000
01000000
,
00010000
00010000
00010000
01000000
,
10000000
01000000
00010000
01000000
,
00010000
00001000
00000100
00000100
,
00000001
00000001
00000001
00000100
,
00001000
00001000
00001000
00000100
,
00000001
00000100
00001000
00000100
,
00001000
00010000
01000000
10000000
,
00100000
10000000
10010000
01000000
,
00100000
00010000
00010000
01000000
,
00100000
10000000
10000000
01000000
,
00010000
00001000
00000100
00000001
,
00000010
00000001
00001001
00000100
,
00000010
00001000
00001000
00000100
,
00000010
00000001
00000001
00000100
,
00001000
00010000
00010000
00010000
,
00010100
00011000
00010100
00011000
,
00010000
01000000
00010000
00001000
,
01001000
00011000
01001000
00011000
,
00001000
00000100
00001000
00010000
,
00010100
00011000
00010100
00011000
,
00010000
01000000
00010000
00001000
,
01001000
00011000
01001000
00011000
,
00001000
00000000
00000100
00000000
,
00000001
00000000
00000100
00000000
,
00001001
00001000
00001000
00000001
,
00001001
00001000
00001000
00000001
,
00001001
00001000
00001000
00000001
,
00000100
00001000
00010000
01000000
,
10010000
10000000
10000000
00010000
,
10010000
10000000
10000000
00010000
,
10010000
10000000
10000000
00010000
,
00010000
00000000
00000000
00000000
,
00100000
10000000
00100000
10000000
,
00100000
10000000
01000000
00010000
,
01000000
00010000
01000000
00010000
,
01000000
00010000
00100000
10000000
,
01000000
00010000
00001000
00000100
,
00001000
00010000
01000000
00010000
,
01000000
10000000
00000000
01000000
00000000
00100000
00000000
01000000
,
00010000
01000000
01000000
01000000
,
00100000
10000000
10000000
01000000
,
00100000
00010000
00010000
01000000
,
10000000
01000000
00010000
00001000
,
00000100
00000100
00000010
00000010
,
00001000
00000100
00001000
00000010
,
00001000
00000100
00001000
00000010
,
00000100
00000001
00000010
00000001
,
00000100
00000001
00000010
00000001
,
00000110
00001000
00010000
01000000
,
00100000
00010000
10000000
00100000
,
01100000
00010000
00001000
00000100
,
00000010
00001000
00000001
00000010
,
00000110
00001000
00010000
01000000
,
00100000
00010000
10000000
00100000
,
01100000
00010000
00001000
00000100
,
00000010
00001000
00000001
00000010
,
00000001
00000100
00000001
00000001
,
00000001
00001000
00001000
00000001
,
00000001
00001000
00010000
01000000
,
00100000
01000000
00100000
01000000
,
00100000
01000000
00100000
01000000
,
10000000
01000000
00010000
00001000
,
00001000
00001000
00010000
01000000
,
10000000
10000000
00010000
00010000
,
00100000
00010000
10000000
10000000
,
10000000
00000000
00000000
01000000
00000000
00000000
10000000
00000000
00000000
00000000
01000000
00000000
10000000
00000000
01000000
00000000
,
10000000
00000000
00000000
01000000
00000000
00000000
00010000
00000000
00000000
00000000
00000000
00000000
00000000
00000000
00000000
00000000
,
00000000
00000000
00000000
00000000
;

//---------------dance-double - ----------------
#NOTES:
     dance-double:
     :
     Medium:
     9:
     0.466657,0.542721,0.280567,0.000000,0.025051,326.000000,298.000000,28.000000,0.000000,0.000000,0.000000,0.466657,0.542721,0.280567,0.000000,0.025051,326.000000,298.000000,28.000000,0.000000,0.000000,0.000000:
00000000
00000000
00000000
00000000
,
00000000
00000000
00000000
00000000
,
00000000
00000000
00000000
00000000
,
00000000
00000000
00000000
00000000
,
00000000
00000000
00000000
00000000
,
00000000
00000000
00000000
00000000
,
00000000
00000000
00000000
00000000
,
00100000
00100000
10000000
01000000
,
00100000
00100000
10000000
01000000
,
00100000
01000000
00000000
00000000
,
01100000
00010000
00010000
10000000
,
01000000
10000000
01000000
10000000
,
01000000
00010000
00001000
00000100
,
00001000
00001000
00000100
00000001
,
00000110
00001000
00001000
00000001
,
00000100
00000001
00000100
00000001
,
00000100
00001000
00010000
01000000
,
01100000
00110000
11000000
10010000
,
00100000
10000000
01000000
01000000
,
00110000
10000000
01000000
01000000
,
00100000
10000000
00100000
10000000
,
01000000
00010000
00001000
00000100
,
00000010
00000001
00000100
00000100
,
00001010
00000001
00000100
00000100
,
00000010
00000001
00000010
00000001
,
00000100
00001000
00010000
00010000
,
00010010
00011000
00101000
00110000
,
00010000
01000000
00010000
00100000
,
00101000
00011000
00010010
00001010
,
00001000
00000100
00001000
00000010
,
00010010
00011000
00101000
00110000
,
00010000
01000000
00010000
00100000
,
01000000
01000000
10000000
00010000
,
10000000
00000000
00000000
10000000
00000000
00000000
10000000
00000000
00010000
00000000
00000000
00010000
00000000
00000000
00010000
00000000
,
01000000
00000000
00000000
01000000
00000000
00000000
01000000
00000000
01000000
00000000
00000000
00000000
00000000
00000000
00000000
00000000
,
01000000
00010000
00001000
00000100
,
00000100
00001000
00010000
01000000
,
01000000
00010000
00001000
00000100
,
00000100
00001000
00010000
01000000
,
00010000
01000000
00010000
00000000
01000000
10000000
01000000
00000000
,
00010000
01000000
00010000
00000000
01000000
10000000
01000000
00000000
,
00010000
01000000
00010000
00000000
01000000
10000000
01000000
00000000
,
01000000
00000000
00000000
00000000
,
00100000
10000000
00010000
10000000
,
01000000
10000000
01000000
00010000
,
00001000
00000100
00000010
00000100
,
00000001
00000001
00000001
00000001
,
00000010
00000001
00001000
00000001
,
00000100
00000001
00000100
00001000
,
00000001
00000001
00000000
00000001
00000000
00000100
00000000
00001000
,
00010000
01000000
10000000
10000000
,
01000000
00010000
10000000
01000000
,
01000000
10000000
00010000
01000000
,
10010000
01000000
10010000
01000000
,
10010000
01000000
10010000
01000000
,
00010000
00001000
00000100
00000100
,
00001000
00010000
01000000
01000000
,
00010000
00001000
00000100
00000100
,
00001000
00010000
01000000
01000000
,
01000000
00010000
00001000
00000100
,
00000101
00001000
00000100
00000001
,
00000100
00001000
00010000
01000000
,
10000000
00010000
00100000
10000000
,
01000000
00010000
00001000
00000100
,
00000010
00000101
00000010
00000001
,
00000100
00001000
00010000
01000000
,
00100000
00100000
10000000
00010000
,
01000000
00100000
01000000
00000000
00100000
00000000
00100000
00000000
,
10000000
01000000
10000000
00000000
10000000
00000000
00010000
00000000
,
10000000
01000000
00010000
00000000
00001000
00000000
00000100
00000000
,
00000001
00000010
00000100
00000000
00000010
00000000
00000001
00000000
,
00000100
00001000
00010000
00000000
00101000
00000000
00011000
00000000
,
00010000
00001000
00010000
00000000
01000000
00000000
10000000
00000000
,
00010000
01000000
10000000
00000000
00100000
00000000
00100000
00000000
,
00100000
10000000
00010000
00000000
01000000
00000000
01000000
00000000
,
10000000
01000000
00010000
00000000
00001000
00000000
00000100
00000000
,
00001000
00000000
00000000
00000001
00000000
00000000
00000100
00000000
00000000
00000000
00001000
00000000
00000100
00000000
00000001
00000000
,
00000100
00000000
00000000
00001000
00000000
00000000
00000100
00000000
00000000
00000000
00000000
00000000
00000000
00000000
00000000
00000000
,
00000000
00000000
00000000
00000000
;

//---------------dance-double - ----------------
#NOTES:
     dance-double:
     :
     Hard:
     13:
     0.675651,0.660083,0.170344,0.000000,0.010020,472.000000,455.000000,17.000000,0.000000,0.000000,0.000000,0.675651,0.660083,0.170344,0.000000,0.010020,472.000000,455.000000,17.000000,0.000000,0.000000,0.000000:
00000000
00000000
00000000
00000000
,
00000000
00000000
00000000
00000000
,
00000000
00000000
00000000
00000000
,
00000000
00000000
00000000
00000000
,
00000000
00000000
00000000
00000000
,
00000000
00000000
00000000
00000000
,
00000000
00000000
00000000
00000000
,
01001000
00011000
00010010
00011000
,
00110000
00011000
00001100
00011000
,
01000000
10000000
00000000
00000000
,
00010000
01000000
00010000
01000000
00100000
01000000
00010000
00000000
,
00001000
01000000
00010000
00100000
00001000
00010000
00001000
00000000
,
00000010
00000100
00000001
00000000
00000010
00000100
00001000
00000000
,
00000010
00010000
00001000
00000100
00000010
00010000
00001000
00000000
,
00010000
01000000
10000000
00100000
00010000
00100000
10000000
00000000
,
01000000
10000000
00010000
00100000
01000000
10000000
01000000
00000000
,
00100000
01000000
00010000
00000000
10000000
00100000
00010000
00000000
,
10100000
01010000
10010000
11000000
,
00100000
10000000
01000000
00010000
00001000
00000100
00000010
00000000
,
00010000
00001000
00000100
00000010
00010000
00001000
00000100
00000000
,
00000010
00001000
00000100
00000000
00000010
00000001
00000100
00000000
,
00000010
00001000
00010000
01000000
00010000
01000000
10000000
00000000
,
10000000
01000000
00100000
00010000
10000000
01000000
00010000
00000000
,
00001000
00000100
00000010
00001000
00000001
00000100
00000010
00000000
,
00000100
00000001
00000010
00000000
00001000
00000001
00000100
00000000
,
00001000
00010000
00001000
00010000
01000000
10000000
00100000
00000000
,
01000000
10000000
01000000
10000000
01000000
10000000
01000000
00010000
,
00001000
00000000
00001000
00000100
00000000
00000001
00000100
00000000
,
00000100
00000001
00000100
00000001
00000100
00000001
00000100
00001000
,
00010000
00000000
00010000
01000000
00000000
10000000
01000000
00000000
,
01000000
10000000
01000000
10000000
01000000
10000000
01000000
00010000
,
00001000
00000000
00001000
00000100
00000000
00000001
00000100
00000000
,
00000100
00000001
00000100
00000001
00000100
00000001
00000100
00000000
,
00001000
00010000
01000000
10000000
,
00100000
01000000
01000000
00000000
,
10000000
00010000
10000000
00010000
10000000
01000000
10000000
01000000
,
00010000
00001000
00000100
00000001
00000100
00001000
00000100
00000000
,
00000001
00001000
00000001
00001000
00000001
00000100
00000001
00000100
,
00001000
00010000
01000000
10000000
01000000
00010000
01000000
00000000
,
10000000
00010000
10000000
00010000
10000000
01000000
10000000
01000000
,
00010000
00001000
00000100
00000001
00000100
00001000
00000100
00000000
,
00001000
00000001
00000010
00000100
,
00000100
00000000
00000000
00000000
,
00000010
00000100
00001000
00000010
00000100
00000001
00001000
00000100
,
00000010
00000001
00000100
00000010
00001000
00000100
00000010
00000100
,
00000010
00000100
00000001
00000000
00000010
00000100
00001000
00000000
,
00000110
00001000
00010000
01000000
,
00100000
01000000
10000000
00100000
01000000
00010000
10000000
01000000
,
00100000
01000000
10000000
00000000
00100000
01000000
00100000
01000000
,
00010000
10000000
00000000
00110000
00000000
11000000
00000000
00010000
,
00001000
00000100
00000001
00000001
,
00001000
00000001
00000100
00001000
00010000
00000100
00001000
00000001
,
00000010
00000001
00001000
00000010
00001000
00000100
00001000
00000000
,
00000010
00010000
00001000
00000100
00000010
00001000
00000100
00000010
,
00001000
00010000
01000000
00010000
00001000
01000000
00010000
00000000
,
10000000
00100000
01000000
00010000
00100000
00001000
00010000
00001000
,
01000000
00010000
00100000
01000000
00010000
00001000
00000100
00000000
,
00000010
00001000
00000010
00000100
00000001
00000100
00000010
00001000
,
00000010
00000001
00000010
00001000
00000100
00000001
00000100
00000000
,
00000001
00000100
00000001
00000100
00000000
00001000
00000100
00000000
,
00000010
00000001
00001000
00000010
00000100
00000001
00001000
00000000
,
00000001
00000100
00000001
00000100
00000000
00001000
00000100
00000000
,
00000100
00010000
00001000
00010000
01000000
10000000
01000000
00000000
,
10000000
01000000
10000000
01000000
00000000
00010000
01000000
00000000
,
10000000
00010000
01000000
00100000
10000000
01000000
00010000
00000000
,
10000000
01000000
10000000
01000000
00000000
00010000
01000000
00000000
,
01000000
00001000
00010000
00001000
00000100
00000001
00000100
00000000
,
00000001
00001000
00000100
00000000
00000011
00000000
00001100
00000000
,
00000010
00001000
00000100
00000010
00000001
00000100
00000010
00001000
,
00000001
00000100
00001000
00010000
01000000
10000000
00100000
00000000
,
00010000
01000000
10000000
01000000
00010000
10000000
01000000
00100000
,
00010000
10000000
01000000
00010000
01000000
00100000
00010000
00000000
,
10000000
01000000
00010000
00001000
00000100
00000010
00000001
00000010
,
00000001
00000010
00001000
00000100
00000010
00000001
00000100
00000000
,
00001000
00000001
00000100
00000001
00001000
00000100
00001000
00000010
,
00001000
00000001
00000100
00001000
00010000
01000000
00100000
00000000
,
01000000
00000000
00000000
10000000
00000000
00000000
00010000
00000000
00000000
00000000
00100000
00000000
00010000
00000000
10000000
00000000
,
01000000
00000000
00000000
00010000
00000000
00000000
01000000
00000000
10000000
00000000
00000000
00000000
00000000
00000000
00000000
00000000
,
00000000
00000000
00000000
00000000
;

//---------------dance-couple - ----------------
#NOTES:
     dance-couple:
     :
     Medium:
     9:
     0.330668,0.497442,0.150304,0.000000,0.005010,231.000000,216.000000,15.000000,0.000000,0.000000,0.000000,0.330668,0.542721,0.150304,0.000000,0.005010,231.000000,216.000000,15.000000,0.000000,0.000000,0.000000:
00000000
00000000
00000000
00000000
,
00000000
00000000
00000000
00000000
,
00000000
00000000
00000000
00000000
,
00000000
00000000
00000000
00000000
,
00000000
00000000
00000000
00000000
,
00000000
00000000
00000000
00000000
,
00000000
00000000
00000000
00000000
,
10001000
01000100
00010001
01000100
,
10001000
01000100
00010001
01000100
,
10001000
10011001
00000000
00000000
,
10000000
01000000
00100001
00000000
00100000
00010000
01000001
00000000
,
01000000
00100000
10000001
00000000
10000000
00010000
00100001
00000000
,
00100000
01000000
10000001
00000000
10000000
00100000
01000001
00000000
,
01000000
00010000
00100001
00000000
00100000
01000000
00100001
00000000
,
00001000
00000100
10000010
00000000
00000010
00000001
10000100
00000000
,
00000100
00000010
10001000
00000000
00001000
00000001
10000010
00000000
,
00000010
00000100
10001000
00000000
00001000
00000010
10000100
00000000
,
00000100
00000001
10000010
00000000
00000010
00000100
10000010
00000000
,
00100010
00011000
01000100
00000000
,
00010000
00100000
00010000
00000000
00000000
01000000
00000000
01000000
,
00010000
01000000
00100000
00000000
10000000
01000000
00100000
00000000
,
00000010
00000001
00000100
00000000
00000000
00000010
00000000
00000010
,
00001000
00000100
00000010
00000000
00000010
00000001
00000100
00000000
,
10001000
10001000
00010001
00010001
,
10001000
10001000
00010001
00010001
,
10001000
00010001
10001000
00010001
,
00001001
00000000
00000100
00000000
,
00000100
00000000
00000100
00000000
,
10010000
00000000
01000000
00000000
,
01000000
00000000
01000000
00000000
,
00010001
00010001
10001000
10001000
,
00100010
00100010
01000100
01000100
,
10000001
10000001
00011000
00011000
,
10000001
00000000
10000001
00000000
,
10000001
00000000
10000001
00000000
,
00100000
00000000
00100000
00000000
00010000
10000000
01000000
00000000
,
00100000
00000000
00100000
00000000
00010000
10000000
01000000
00000000
,
00000010
00000000
00000010
00000000
00001000
00000001
00000100
00000000
,
00000010
00000000
00000010
00000000
00001000
00000001
00000100
00000000
,
01000000
01000000
10000000
00000000
00000100
00000100
00000001
00000000
,
01000000
01000000
00010000
00000000
00000100
00000100
00001000
00000000
,
01000000
01000000
01000000
00000000
00000100
00000100
00000100
00000000
,
10011001
00000000
00000000
00000000
,
00010000
01000000
00100001
00000000
00100000
10000000
01000001
00000000
,
01000000
00100000
00010001
00000000
00010000
01000000
00100001
00000000
,
00100000
01000000
00010001
00000000
00010000
00100000
01000001
00000000
,
01000000
10000000
00100001
00000000
00100000
01000000
00010001
00000000
,
00000001
00000100
10000010
00000000
00000010
00001000
10000100
00000000
,
00000100
00000010
10000001
00000000
00000001
00000100
10000010
00000000
,
00000010
00000100
10000001
00000000
00000001
00000010
10000100
00000000
,
00000100
00001000
10000010
00000000
00000010
00000100
10000001
00000000
,
10011001
00000000
00000000
00000000
,
10000000
00100000
10000001
00000000
00000000
01000000
00000001
01000000
,
10000000
01000000
00100001
00000000
00010000
01000000
00100001
00000000
,
00100000
10000000
01000001
00000000
00000000
00100000
00000001
00100000
,
00010000
01000000
00100001
00000000
00100000
10000000
01000001
00000000
,
00001000
00000010
10001000
00000000
00000000
00000100
10000000
00000100
,
00001000
00000100
10000010
00000000
00000001
00000100
10000010
00000000
,
00000010
00001000
10000100
00000000
00000000
00000010
10000000
00000010
,
00000001
00000100
10000010
00000000
00000010
00001000
10000100
00000000
,
10010000
00000000
00000000
10010000
00000000
00000000
00000000
00000000
,
10010000
00000000
00100000
01000000
00000000
00000000
00000000
00000000
,
00001001
00000000
00000000
00001001
00000000
00000000
00000000
00000000
,
00001001
00000000
00000010
00000100
00000000
00000000
00000000
00000000
,
10010000
00000000
00000000
00001001
00000000
00000000
00000000
00000000
,
01100110
00000000
00010001
10001000
00000000
00000000
00000000
00000000
,
00001001
00000000
00000000
10010000
00000000
00000000
00000000
00000000
,
00000000
00000000
01100110
01100110
,
10000000
00000000
00100001
01000000
00000000
00010000
01000001
00000000
,
00100000
01000000
00010001
10000000
00000000
01000000
01000001
00000000
,
10000000
00000000
00100001
01000000
00000000
00010000
01000001
00000000
,
00100000
01000000
00010001
10000000
00000000
01000000
01000001
00000000
,
00001000
00000000
10000010
00000100
00000000
00000001
10000100
00000000
,
00000010
00000100
10000001
00001000
00000000
00000100
10000100
00000000
,
00001000
00000000
10000010
00000100
00000000
00000001
10000100
00000000
,
00000010
00000100
10000001
00001000
00000000
00000100
10000100
00000000
,
01100000
00000000
00000000
01100000
00000000
00000000
10010000
00000000
00000000
00000000
00000000
00000000
00000000
00000000
00000000
00000000
,
00000110
00000000
00000000
00000110
00000000
00000000
00001001
00000000
00000000
00000000
00000000
00000000
00000000
00000000
00000000
00000000
;

//---------------dance-solo - ----------------
#NOTES:
     dance-solo:
     :
     Easy:
     7:
     0.343551,0.543598,0.230466,0.000000,0.000000,240.000000,217.000000,23.000000,0.000000,0.000000,0.000000,0.343551,0.543598,0.230466,0.000000,0.000000,240.000000,217.000000,23.000000,0.000000,0.000000,0.000000:
000000
000000
000000
000000
,
000000
000000
000000
000000
,
000000
000000
000000
000000
,
000000
000000
000000
000000
,
000000
000000
000000
000000
,
000000
000000
000000
000000
,
000000
000000
000000
000000
,
000100
000000
001000
000000
,
000100
000000
001000
000000
,
100001
000010
000000
000000
,
000010
001000
000001
001000
,
100000
000000
001000
000000
000000
000010
000000
000010
,
000000
100000
000001
001000
,
000100
000000
001000
000000
000000
000001
000000
000001
,
000000
100000
000001
001000
,
000100
000000
100000
000000
000000
000010
000000
000010
,
000000
001000
000100
100000
,
000100
000000
100000
000000
000000
001000
000000
001000
,
000100
100000
100001
000000
,
000000
000000
000000
000000
,
010000
000001
010000
001000
,
100000
000000
001000
000000
000000
000010
000000
000010
,
000000
001000
000001
100000
,
000100
000000
001000
000000
000000
000001
000000
000001
,
000000
010000
001000
100000
,
000001
000000
001000
000000
000000
000100
000000
000100
,
100000
000000
000010
000000
,
010000
000000
000010
000000
,
010010
000000
001000
000000
,
001000
000000
001000
000000
,
100001
000000
000100
000000
,
000100
000000
100001
000000
,
100001
000000
000000
000000
,
001000
000000
001000
000000
,
001000
000000
001000
000000
,
001000
000010
100000
100000
,
000001
000100
001000
001000
,
010000
010000
010000
000001
,
000001
000001
001000
000100
,
100000
000000
100000
000000
,
000100
000000
001000
000000
,
000001
000000
000100
000000
,
100000
000000
000000
000000
,
000100
001000
000100
001000
,
000100
000000
010000
000000
000000
000001
000000
000001
,
000000
000100
001000
000010
,
000010
000000
001000
000000
000000
000100
000000
000100
,
000000
100000
000001
001000
,
000100
000000
010000
000000
000000
000010
000000
000010
,
000000
100000
001000
000100
,
000001
000000
001000
000000
000000
000100
000000
000100
,
001000
001000
100001
000000
,
000000
000000
000000
000000
,
001000
000010
010000
000100
,
100000
000000
001000
000000
000000
010000
000000
010000
,
000000
000001
000001
100000
,
100000
000000
100000
000000
000000
000100
000000
000100
,
000000
001000
000001
100000
,
000100
000000
001000
000000
000000
000010
000000
000000
,
001100
000000
000100
001000
000000
000000
000000
000000
,
100001
000000
000000
100001
000000
000000
000000
000000
,
100001
000000
000100
001000
000000
000000
000000
000000
,
100001
000000
000000
100001
000000
000000
000000
000000
,
100001
000000
000010
010000
000000
000000
000000
000000
,
010010
000000
000000
010010
000000
000000
000000
000000
,
001100
000000
000100
001000
000000
000000
000000
000000
,
100001
000000
000000
100000
000001
000000
000000
000000
,
000000
000000
000000
000000
,
000100
001000
000010
001000
,
000001
100000
100000
000000
000010
000000
001000
000000
,
000010
100000
100000
100000
,
000100
000000
001000
001000
000001
000000
100000
000000
,
000010
001000
000100
001000
,
000100
000000
010000
000000
000100
000100
001000
000000
,
100000
000001
001000
000100
,
000100
000000
001000
000010
000010
000000
001000
000000
,
100001
001100
001100
100001
,
010000
000010
010010
000000
;

//---------------dance-solo - ----------------
#NOTES:
     dance-solo:
     :
     Medium:
     10:
     0.490992,0.542721,0.050101,0.000000,0.025051,343.000000,338.000000,5.000000,0.000000,0.000000,0.000000,0.490992,0.542721,0.050101,0.000000,0.025051,343.000000,338.000000,5.000000,0.000000,0.000000,0.000000:
000000
000000
000000
000000
,
000000
000000
000000
000000
,
000000
000000
000000
000000
,
000000
000000
000000
000000
,
000000
000000
000000
000000
,
000000
000000
000000
000000
,
000000
000000
000000
000000
,
100000
000100
001000
000100
,
010000
000100
001000
000100
,
101000
000010
000000
000000
,
010000
001000
000100
000000
010000
001000
000100
000000
,
000100
000001
100000
000000
000000
100000
000000
100000
,
000100
001000
000001
000000
000001
000100
000010
000000
,
001000
000010
001000
000000
000000
000100
000000
000100
,
100000
000001
001000
000000
001000
000100
100000
000000
,
000010
001000
000010
000000
000000
000000
100000
001000
,
010000
001000
100000
000000
000000
000000
000001
000100
,
000001
000100
000010
000000
000000
000000
001000
000100
,
100001
001000
000010
000000
,
010000
100000
010000
000000
000000
001000
000000
001000
,
000010
001000
000100
000000
000001
001000
000010
000000
,
000010
001000
000001
000000
000000
000100
000000
000100
,
000010
000001
000010
000000
000100
001000
100000
000000
,
001000
000100
000001
000000
000000
000000
010000
001000
,
010000
000001
000100
000000
000000
000000
001000
010000
,
000000
000000
001000
000000
000000
000000
001000
010000
,
000001
000100
001000
000000
000000
100000
000000
000000
,
000000
100000
000000
000000
000000
100000
000000
000000
,
100000
000100
001000
000000
000000
001000
000000
000000
,
000000
001000
000000
000000
000000
001000
000000
000000
,
000001
000100
001000
000000
000000
001000
000000
000000
,
000000
001000
000000
000000
000000
100001
000000
100001
,
000000
100001
000000
000000
,
010000
000000
000000
010000
000000
000000
010000
000000
010000
000000
000000
010000
000000
000000
010000
000000
,
010000
000000
000000
010000
000000
000000
010000
000000
010000
000000
000000
000000
000000
000000
000000
000000
,
001000
000000
100000
000000
000001
000001
000001
000000
,
001000
000000
000010
000000
100000
100000
100000
000000
,
000100
000100
000100
000000
001000
001000
001000
000000
,
000001
000100
000010
100000
001000
001000
001000
000000
,
100000
000100
001000
000001
,
000100
001000
100000
001000
,
000100
000001
001000
000100
,
010000
000000
000000
000000
,
000001
001000
000010
000000
000010
100000
001000
000000
,
001000
010000
000001
000000
000000
100000
000000
100000
,
000100
001000
000010
000000
000010
001000
000100
000000
,
000100
100000
000001
000000
000000
000001
000000
000001
,
001000
000100
100000
000000
010000
000100
100000
000000
,
000010
000100
000001
000000
000000
000000
100000
001000
,
010000
001000
100000
000000
000000
000000
000001
001000
,
000010
001000
000001
000000
000000
000000
000100
001000
,
010000
001000
000100
000000
,
000001
001000
000001
000000
000000
000100
000000
000100
,
001000
000100
000001
000000
100000
000010
100000
000000
,
000100
001000
000010
000000
000000
010000
000001
010000
,
000001
001000
000100
000000
100000
000010
010000
000000
,
010000
000100
001000
000000
000000
000000
001000
000100
,
100000
000010
001000
000000
000000
000000
001000
000001
,
000000
000000
001000
000000
000000
000000
001000
000100
,
100000
001000
010000
000100
000000
000100
000000
000000
,
000001
001000
000100
010000
001000
100000
000000
000000
,
000010
001000
000100
100000
000000
100000
000000
000000
,
000001
001000
000100
100000
000100
001000
000000
000000
,
000001
000100
001000
100000
000000
000010
000000
000000
,
000001
001000
100000
001000
000001
000100
000000
000000
,
001000
100000
000100
010000
000000
100000
000000
000000
,
000010
001000
000100
001000
000010
100000
000000
000000
,
000001
010000
000001
000000
010000
000000
001000
000000
,
100000
000000
000010
000001
000000
000100
001000
000000
,
001000
000100
100000
000001
000000
001000
001000
000000
,
000010
000000
001000
000100
000000
100000
000001
000000
,
010000
001000
100000
000001
000000
000100
000100
000000
,
000010
000000
100000
001000
000000
000001
001000
000000
,
000100
001000
000010
100000
000000
001000
001000
000000
,
010000
000000
000100
001000
000000
000001
001000
000000
,
000100
001000
000010
100000
000000
001000
001000
000000
,
100000
000000
000000
001000
000000
000000
010000
000000
000000
000000
000000
000000
000000
000000
000000
000000
,
000001
000000
000000
001000
000000
000000
000010
000000
000000
000000
000000
000000
000000
000000
000000
000000
;

//---------------dance-solo - ----------------
#NOTES:
     dance-solo:
     :
     Hard:
     13:
     0.644158,0.697785,0.400810,0.000000,0.025051,450.000000,410.000000,40.000000,0.000000,0.000000,0.000000,0.644158,0.697785,0.400810,0.000000,0.025051,450.000000,410.000000,40.000000,0.000000,0.000000,0.000000:
000000
000000
000000
000000
,
000000
000000
000000
000000
,
000000
000000
000000
000000
,
000000
000000
000000
000000
,
000000
000000
000000
000000
,
000000
000000
000000
000000
,
000000
000000
000000
000000
,
010000
000000
010000
100000
000100
000000
001000
000010
,
000010
000000
001000
000100
100000
000000
010000
100000
,
010000
010001
000000
000000
,
100000
000100
001000
000000
001000
000010
001000
000000
,
000001
000001
100000
000000
100000
000100
001000
000000
,
001000
000001
100000
000000
100000
000001
001000
000000
,
001000
000010
000100
000000
000100
000001
000100
000000
,
001000
010000
000100
000000
001000
000010
000100
000000
,
001000
100000
000100
000000
000100
001000
000001
000000
,
000100
001000
100000
000000
000001
000100
001000
000000
,
100000
010000
001000
000000
000001
001000
000100
000000
,
001000
000000
010000
100000
010000
000000
000000
000000
,
000001
000010
000001
000100
000010
001000
000000
001000
,
000100
010000
000010
001000
000100
001000
000100
100000
,
000100
001000
000010
010000
000100
001000
000000
001000
,
000100
010000
000010
001000
000100
001000
000001
100000
,
000100
001000
000100
010000
000010
001000
000000
001000
,
000100
100000
001000
010000
000100
001000
000001
001000
,
000100
100000
001000
000100
000001
010000
000000
010000
,
001000
100000
000001
000100
,
100001
000000
001000
000100
000000
000100
010000
000000
,
010000
000001
100000
000010
,
001000
000000
001000
000100
001000
000100
001000
000000
,
000001
001000
000100
100000
,
100001
000000
000100
001000
000000
000100
000001
000000
,
001000
000100
100000
000001
,
000001
000000
000000
001000
000000
000000
100000
000000
000001
000000
000000
001000
000000
000000
100000
000000
,
000100
000000
000000
001000
000000
000000
000001
000000
001000
000000
000000
000000
000000
000000
000000
000000
,
100010
000000
010001
000000
000100
001000
000100
000000
,
010001
000000
100010
000000
001000
000100
001000
000000
,
000001
000100
000010
000000
100000
000100
010000
000000
,
001000
000100
000001
100000
000010
000010
000010
000000
,
100001
100100
010100
000110
,
000110
001100
001100
100001
,
100001
001010
011000
100001
,
001000
000000
000000
000000
,
100000
001000
000100
000001
001000
000100
001000
000100
,
100000
001000
000100
001000
100000
000010
000000
000010
,
001000
000100
001000
000001
000100
000010
100000
001000
,
010000
000001
000100
001000
100000
000100
000000
000100
,
001000
000001
100000
000001
100000
000100
001000
000010
,
001000
000001
001000
000100
100000
000100
000000
001000
,
000100
001000
000001
100000
001000
100000
000100
001000
,
000001
001000
000010
100000
000100
001000
000000
001000
,
000001
000100
000001
000000
100001
000000
000000
000000
,
001000
000100
001000
000100
100000
010000
000000
100000
,
000001
001000
000001
100000
000100
001000
000100
001000
,
000010
001000
000001
000100
001000
100000
000000
100000
,
001000
000100
000001
001000
000100
001000
000010
000010
,
010000
010000
000100
001000
000100
001000
000000
001000
,
000100
100000
001000
000100
000001
001000
000100
001000
,
000010
000001
000010
000001
000100
100000
000000
100000
,
000001
001000
000100
100000
000000
100001
000000
000000
,
001000
001000
001000
000100
000100
000100
000000
000000
,
000010
010000
000100
001000
000000
100001
000000
000000
,
001000
001000
001000
001000
000100
000100
000000
000000
,
010000
001000
100000
001000
000000
001010
000000
000000
,
100000
001000
001000
001000
001000
001000
000000
000000
,
000100
001000
000010
001000
000000
001001
000000
000000
,
100000
100000
100000
100000
100000
100000
000000
000000
,
000001
001000
100000
000000
100001
000000
100001
000000
,
000100
010000
000100
100000
000000
100001
000000
000000
,
001000
000010
001000
000001
000000
100001
000000
000000
,
000010
001000
010000
001000
000000
001010
000000
000000
,
000001
010000
100000
000010
000000
011000
000000
000000
,
000001
001000
000100
100000
000000
100001
000000
000000
,
001000
000100
001000
000010
000000
010010
000000
000000
,
100000
001000
000100
000001
000000
000011
000000
000000
,
000001
000100
001000
100000
000000
110000
000000
000000
,
001100
000000
000000
000110
000000
000000
000110
000000
000000
000000
001000
000000
100000
000000
000100
000000
,
010100
000000
000000
010100
000000
000000
100001
000000
000000
000000
000000
000000
000000
000000
000000
000000
;

//---------------dance-single - ----------------
#NOTES:
     dance-single:
     :
     Challenge:
     16:
     0.994867,1.126025,0.541093,0.290587,0.596204,695.000000,641.000000,54.000000,29.000000,0.000000,0.000000,0.994867,1.126025,0.541093,0.290587,0.596204,695.000000,641.000000,54.000000,29.000000,0.000000,0.000000:
0000
0000
0000
0000
,
0000
0000
0000
0000
,
0000
0000
0000
0000
,
0000
0000
0000
0000
,
0000
0000
0000
0000
,
0000
0000
0000
0000
,
0000
0000
0000
0000
,
1000
1000
0100
0100
0010
0010
0001
0001
,
0100
0100
0010
0010
1000
1000
0001
0001
,
1002
0100
0010
0013
,
0001
0000
0100
0000
0010
0000
1000
0001
1000
0000
0010
0000
0100
0000
0001
0000
,
0010
0000
0100
0000
0001
0000
1000
0000
0001
0010
0001
0010
0001
0000
0100
0000
,
0010
0000
1000
0000
0100
0000
1000
0001
1000
0000
0100
0000
0010
0000
0001
0000
,
0100
0000
0010
0000
1000
0000
0001
0000
0010
0100
0010
0100
0010
0000
0001
0000
,
0100
0000
0001
0000
0010
0000
0001
1000
0001
0000
1000
0000
0010
0000
0100
0000
,
0010
0000
1000
0000
0001
0000
1000
0000
0100
1000
0100
1000
0010
0000
0100
0000
,
0001
0000
0010
0000
0001
0000
0100
0010
1000
0000
0100
0000
1000
0000
0001
0000
,
1000
0000
0010
0000
0100
0000
0001
0000
1000
0001
1000
0001
0100
0000
0010
0000
,
0110
0000
0000
0000
1000
0001
0010
0001
2000
0000
0100
0000
0100
0000
0000
0000
,
0001
0000
0001
0000
3001
0000
1000
0000
0010
1000
0100
0010
0001
0000
0100
0000
,
0001
0000
1000
0000
0100
0000
1000
0010
0100
0000
0001
0000
0010
0000
0001
0000
,
1000
0000
0100
0000
0001
0000
0100
0000
1000
0010
0100
0001
0010
0000
0100
0000
,
1000
0000
0001
0000
0010
0000
0001
1000
0010
0000
0100
0000
0010
0000
0100
0000
,
0001
0000
1000
0000
0001
0000
0010
0000
0100
1000
0001
1000
0100
0000
0010
0000
,
0001
0000
1000
0000
0010
0000
0100
0001
1000
0000
0100
0000
0010
0000
0001
0000
,
0100
0010
0100
0010
1000
0001
1000
0001
0010
0000
0001
0000
1000
0000
0100
0000
,
0010
0000
0001
0000
0100
0000
0010
1000
0010
1000
0100
0000
1000
0000
0001
0000
,
0200
0001
0301
2000
0100
3100
0020
1000
,
1030
0000
0010
0000
0100
0000
0001
0010
0001
0100
0001
0000
1000
0000
0010
0000
,
1000
0000
0001
0100
0001
0000
1000
0100
1000
0000
0010
0000
0100
0000
0101
0000
,
0010
0000
1000
0000
0100
0000
1000
0001
0010
0001
0100
0000
0010
0000
1000
0000
,
0002
0010
0013
2000
0001
3001
0200
0010
,
0310
0000
1000
0000
0100
0000
1000
0001
0010
0100
1000
0000
0001
0000
0100
0000
,
0011
0000
0000
1100
0000
0000
1010
0000
1100
0000
0000
1010
0000
0000
1001
0000
,
0101
0000
0000
0011
0000
0000
0110
0000
2010
0000
0001
0000
0001
0000
0000
0000
,
3100
1000
0100
1000
1002
0010
0010
0000
,
0103
0001
0100
0001
0012
1000
1000
0000
,
0103
0001
0101
0000
0010
1000
0110
0000
,
0001
1000
0010
1000
0001
0000
0010
0000
0100
0000
0100
0000
1100
0000
0000
0000
,
2000
0001
3001
1000
0020
0100
0130
0010
,
0200
0010
0310
0100
0002
1000
1003
0001
,
1000
0010
1000
0010
0100
0010
0100
0010
1000
0001
1000
0001
0100
0001
0100
0002
,
2000
0000
0000
3003
,
0010
0000
1000
0100
1000
0000
0001
0000
0010
0000
0001
0100
0001
0000
1000
0000
,
0010
0000
1000
0001
0100
0000
0001
1000
0100
0000
0010
0000
0100
0000
1000
0000
,
0001
0000
0100
0010
0100
0000
0001
0000
1000
0000
0010
0100
0010
0000
1000
0000
,
0001
0000
0100
0001
0010
0000
0100
1000
0010
0000
1000
0000
0001
0000
0100
0000
,
0001
0000
1000
0001
0100
0000
0010
0000
1000
0000
0001
0010
0100
0000
1000
0000
,
0010
0000
1000
0100
1000
0000
0001
0100
0001
0000
0010
0000
0001
0000
1000
0000
,
0001
0000
0100
0010
0100
0000
0001
0000
1000
0000
0001
1000
0010
0000
1000
0000
,
0001
0010
0001
0010
0100
1000
0100
1000
0010
0000
0100
0000
0001
0000
1000
0000
,
0110
0000
0000
0000
0010
1000
0001
0100
0002
0000
0010
0000
0010
0000
0000
0000
,
1000
0000
1000
0000
1003
0000
0001
0100
0010
0000
0100
0000
0001
0000
0010
0000
,
0001
0000
1000
0100
1000
0000
0001
0000
0100
0000
0010
1000
0010
0000
0100
0000
,
0001
0000
0010
0100
1000
0000
0001
0100
0010
0000
1000
0000
0010
0000
0100
0000
,
0010
0000
1000
0100
1000
0000
0001
0000
0100
0000
0001
0010
0001
0000
1000
0000
,
0010
0000
0100
0010
1000
0000
0001
1000
0100
0000
0010
0000
0001
0000
0010
0000
,
0001
0000
1000
0100
1000
0000
0010
0000
0100
0000
0001
0010
0001
0000
1000
0000
,
0010
1000
0100
1000
0001
0100
0001
0010
0001
0000
1000
0000
0010
0000
0100
0000
,
1100
1100
1001
0101
0000
0101
0110
0000
,
1000
0001
0100
0001
1000
0010
0100
0010
1000
0000
1002
0000
0013
0000
0000
0000
,
0011
0011
1010
1010
0000
0110
1001
0000
,
0010
1000
0001
1000
0001
0100
0010
0100
0001
0000
0012
0000
1003
0000
0000
0000
,
1100
1100
1001
0011
0000
0101
0101
0000
,
0010
1000
0001
0010
0100
1000
0001
0100
0001
0000
0210
0000
0301
0000
0000
0000
,
1010
1010
0110
0101
0000
1010
1001
0000
,
1000
0100
0010
0001
0010
0100
1000
0001
0100
0000
1200
0000
0301
0000
0000
0000
,
0001
1000
0001
1000
0001
0000
0010
0000
0012
0000
0100
0000
0103
0000
0000
0000
,
0020
0001
0031
2000
0010
3010
0200
0001
,
0301
0000
0100
0000
0010
0000
1000
0100
1000
0001
1000
0000
0001
0000
0010
0000
,
0002
1000
1003
0200
1000
1300
0020
0100
,
0130
0000
0001
0000
0010
0000
0100
1000
0001
1000
0001
0000
0100
0000
0010
0000
,
1000
0100
0010
0001
1000
0010
0100
0001
,
0100
0001
0010
0100
1000
0001
1000
0010
,
0100
0100
0010
0010
1000
1000
0001
0001
,
0010
0001
0010
0001
0100
0010
0100
0010
1000
0100
1000
0100
1000
0001
1000
0001
,
1000
0100
0000
1000
0100
0000
1001
0000
0000
0000
1010
0000
1100
0000
0011
0000
,
0001
0010
0000
0001
0010
0000
0101
0000
0110
0000
0000
0000
0000
0000
0000
0000
;

//---------------dance-solo - ----------------
#NOTES:
     dance-solo:
     :
     Beginner:
     4:
     0.200405,0.271799,0.040081,0.020040,0.000000,140.000000,136.000000,4.000000,2.000000,0.000000,0.000000,0.200405,0.271799,0.040081,0.020040,0.000000,140.000000,136.000000,4.000000,2.000000,0.000000,0.000000:
000000
000000
000000
000000
,
000000
000000
000000
000000
,
000000
000000
000000
000000
,
000000
000000
000000
000000
,
000000
000000
000000
000000
,
000000
000000
000000
000000
,
000000
000000
000000
000000
,
010000
000000
000010
000000
,
010000
000000
000010
000000
,
010010
000000
000000
000000
,
000010
000000
001000
000000
,
010000
010000
010000
000000
,
001000
000000
010000
000000
,
000010
000010
000010
000000
,
010000
000000
000010
000000
,
001000
001000
001000
000000
,
000010
000010
000010
000000
,
010000
010000
010000
000000
,
002000
000000
000000
000000
,
000000
000000
003000
000000
,
010000
000000
001000
000000
,
000010
000010
000010
000000
,
001000
000000
000010
000000
,
010000
010000
010000
000000
,
000010
000000
010000
000000
,
001000
001000
001000
000000
,
010000
000000
000000
000000
,
010000
000000
010000
000000
,
000010
000000
000000
000000
,
000010
000000
000010
000000
,
001000
000000
000000
000000
,
001000
000000
001000
000000
,
001000
000000
000000
000000
,
000010
000000
000010
000000
,
010000
000000
010010
000000
,
000010
000000
001000
000000
,
000000
000000
001000
000000
,
000000
000000
001000
000000
,
000000
000000
001000
000000
,
000010
000000
001000
000000
,
010000
000000
001000
000000
,
000010
000000
010000
000000
,
010010
000000
000000
000000
,
010000
000000
000010
000000
,
001000
001000
001000
000000
,
000010
000000
001000
000000
,
010000
010000
010000
000000
,
001000
000000
010000
000000
,
000010
000010
000010
000000
,
010000
010000
010000
000000
,
000010
000010
000010
000000
,
002000
000000
000000
000000
,
000000
000000
003000
000000
,
001000
000000
000010
000000
,
010000
010000
010000
000000
,
000010
000000
010000
000000
,
001000
001000
001000
000000
,
010000
000000
001000
000000
,
000010
000010
000010
000000
,
010000
010000
010000
010000
,
000000
000000
000000
000000
,
000010
000010
000010
000010
,
000000
000000
000000
000000
,
010000
010000
010000
010000
,
000000
000000
000000
000000
,
000010
000010
000010
000010
,
000000
000000
000000
000000
,
010010
000000
000000
000000
,
010000
000000
000000
000000
,
001000
000000
000000
000000
,
000010
000000
000000
000000
,
001000
000000
000000
000000
,
000010
000000
000000
000000
,
010000
000000
000000
000000
,
000010
000000
000000
000000
,
010000
000000
000000
000000
,
000010
000010
000010
000000
,
010000
010000
010000
000000
;

//---------------dance-solo - ----------------
#NOTES:
     dance-solo:
     :
     Challenge:
     16:
     0.983415,1.087196,0.541093,0.360729,0.571154,687.000000,633.000000,54.000000,36.000000,0.000000,0.000000,0.983415,1.087196,0.541093,0.360729,0.571154,687.000000,633.000000,54.000000,36.000000,0.000000,0.000000:
// measure 0
000000
000000
000000
000000
,  // measure 1
000000
000000
000000
000000
,  // measure 2
000000
000000
000000
000000
,  // measure 3
000000
000000
000000
000000
,  // measure 4
000000
000000
000000
000000
,  // measure 5
000000
000000
000000
000000
,  // measure 6
000000
000000
000000
000000
,  // measure 7
000020
000100
000100
000130
020000
001000
001000
031000
,  // measure 8
000002
001000
001000
001003
200000
001000
001000
301000
,  // measure 9
020010
030020
000100
000130
,  // measure 10
000001
000000
000100
000000
000010
000000
001000
000100
100000
000000
001000
000000
010000
000000
000010
000000
,  // measure 11
000100
000000
000001
001000
000010
000000
010000
000000
000100
100000
000100
100000
000001
000000
001000
000000
,  // measure 12
000001
000000
010000
000000
001000
000000
100000
000010
000100
000000
001000
000000
000001
000000
100000
000000
,  // measure 13
001000
000000
010000
000000
000010
000000
000100
000000
000001
100000
000001
100000
001000
000000
010000
000000
,  // measure 14
000010
000000
000100
000000
000001
000000
100000
001000
010000
000000
000100
000000
100000
000000
000010
000000
,  // measure 15
000100
000000
001000
000000
100000
000000
000010
000000
010000
001000
010000
001000
100000
000000
000001
000000
,  // measure 16
000100
000000
000010
000000
010000
000000
001000
100000
001000
000000
010000
000000
000001
000000
000100
000000
,  // measure 17
000010
010000
000010
010000
001000
100000
001000
100000
000100
000000
010000
000001
000100
000000
000001
000000
,  // measure 18
100001
000000
000000
000000
100000
000100
001000
000001
020000
000000
001000
000000
001000
000000
000000
000000
,  // measure 19
030001
000000
000100
000000
000010
000000
100000
000000
001000
010000
001000
010000
000001
000000
100000
000000
,  // measure 20
001000
000000
100000
000000
000010
000000
000100
000001
010000
000000
001000
000000
100000
000000
000010
000000
,  // measure 21
010000
000000
000001
000000
000100
000000
001000
000000
100000
000100
100000
000100
010000
000000
000010
000000
,  // measure 22
100000
000000
000001
000000
000100
000000
000010
001000
000100
000000
010000
000000
000001
000000
100000
000000
,  // measure 23
000010
000000
000100
000000
010000
000000
000001
000000
100000
001000
100000
001000
000100
000000
000010
000000
,  // measure 24
010000
000000
000100
000000
100000
000000
000010
001000
000001
000000
000100
000000
010000
000000
000001
000000
,  // measure 25
000100
001000
000100
001000
000010
100000
000010
100000
000001
000000
010000
001000
010000
000000
000001
000000
,  // measure 26
000101
000000
000001
000100
001000
010000
000010
100000
,  // measure 27
002000
000000
103000
000100
100000
000000
000020
000000
010030
001000
010000
000000
000002
000000
000103
000000
,  // measure 28
010010
000000
100000
000010
000100
001000
010000
000001
,  // measure 29
000100
000010
001000
000010
010000
000001
010000
001000
100000
000000
000100
100000
001000
000000
101000
000000
,  // measure 30
000000
001001
001000
000100
010000
000001
100000
000010
,  // measure 31
000200
000000
000301
010000
000001
000000
002000
000000
003010
000000
100010
000000
100000
000000
100100
000000
,  // measure 32
000100
000000
010100
000000
010000
000000
000001
000100
000010
000000
100000
001000
010000
000000
000001
000000
,  // measure 33
000011
000000
000000
000110
000000
000000
001100
000000
011000
000000
000000
110000
000000
000000
100001
000000
,  // measure 34
100100
000000
000000
001001
000000
000000
000101
000000
202000
000000
000000
000000
003000
000000
000000
000000
,  // measure 35
300100
100000
001000
010000
000002
000010
000013
001000
,  // measure 36
000100
010000
001000
000100
000002
100000
100003
000010
,  // measure 37
000100
000001
100000
000100
020000
000010
030010
001000
,  // measure 38
100000
000100
100000
000100
001000
000010
001000
000010
020000
000000
000001
000000
030001
000000
000000
000000
,  // measure 39
200000
000100
000100
300100
020000
001000
001000
031000
,  // measure 40
000020
000100
000100
000130
000002
001000
001000
001003
,  // measure 41
000001
001000
000100
100000
000010
000100
000001
010000
001000
010000
000100
001000
000010
000100
000001
200000
,  // measure 42
002000
000000
000000
303000
,  // measure 43
010000
000000
000100
000000
001000
000000
000010
000100
000001
000000
001000
000000
000100
000000
100000
001000
,  // measure 44
010000
000000
000100
000000
001000
000000
000001
000000
000010
000100
001000
100000
000010
000000
010000
000000
,  // measure 45
001000
000000
100000
000000
000010
000000
000100
000001
010000
000000
000010
000000
001000
000000
000100
100000
,  // measure 46
010000
000000
001000
000000
000100
000000
000001
000000
100000
000010
000100
000001
010000
000000
001000
000000
,  // measure 47
100000
000000
000010
000000
010000
000000
001000
100000
000100
000000
001000
000000
000001
000000
010000
000010
,  // measure 48
000100
000000
000010
000000
010000
000000
001000
000000
100000
000001
000100
000010
010000
000000
001000
000000
,  // measure 49
100000
000000
000100
000000
001000
000000
000010
010000
000001
000000
100000
000000
000010
000000
001000
000100
,  // measure 50
010000
001000
010000
001000
000100
000001
000100
000001
100000
000000
000010
010000
000010
000000
100000
000000
,  // measure 51
100100
000000
000000
000000
010000
000010
000100
000001
200000
000000
001000
000000
001000
000000
000000
000000
,  // measure 52
310000
000000
000010
000000
000100
000000
000001
000000
100000
000010
010000
001000
000100
000000
000001
000000
,  // measure 53
000010
000000
000100
000000
000001
000000
001000
000100
010000
000000
001000
000000
100000
000000
000001
100000
,  // measure 54
000010
000000
000100
000000
010000
000000
000001
000000
100000
000010
000100
010000
000001
000000
001000
000000
,  // measure 55
000100
000000
010000
000000
001000
000000
100000
000010
000100
000000
000001
000000
010000
000000
001000
000100
,  // measure 56
000010
000000
000001
000000
010000
000000
001000
000000
100000
000100
010000
000010
000100
000000
000001
000000
,  // measure 57
010000
000000
000100
000000
100000
000000
000001
000010
010000
000000
000100
000000
001000
000000
000010
100000
,  // measure 58
000100
001000
000100
001000
000001
100000
000001
100000
000010
000000
010000
000001
010000
000000
000010
000000
,  // measure 59
000110
000110
000110
000110
000000
210000
300001
000000
,  // measure 60
100000
001000
000100
000000
000001
001000
000100
000000
010010
000000
010020
000000
100030
000000
000000
000000
,  // measure 61
010100
010100
010100
010100
000000
000012
100003
000000
,  // measure 62
001000
100000
000001
000000
000100
000010
010000
000000
100001
000000
100002
000000
010003
000000
000000
000000
,  // measure 63
011000
011000
011000
011000
000000
120000
030100
000000
,  // measure 64
100000
000010
000100
000000
001000
010000
000001
000000
000101
000000
000201
000000
000310
000000
000000
000000
,  // measure 65
001010
001010
001010
001010
000000
000021
001030
000000
,  // measure 66
000010
000100
001000
000000
010000
000100
001000
000000
001100
000000
001200
000000
100300
000000
000000
000000
,  // measure 67
100100
000000
000010
010000
001000
000000
000100
000000
000102
000000
100000
000000
100003
000000
000000
000000
,  // measure 68
000010
000100
000001
001000
000100
010000
001000
100000
,  // measure 69
000100
001000
000010
000100
000001
010000
001000
100000
,  // measure 70
000100
001000
000010
010000
001000
000100
000001
100000
,  // measure 71
010000
000010
000100
001000
000001
100000
000100
001000
,  // measure 72
000010
010000
001000
000100
000001
100000
000010
010000
,  // measure 73
001000
000100
100000
000010
000100
001000
010000
000001
,  // measure 74
000010
000001
000100
100000
000010
010000
001000
000100
,  // measure 75
000010
000100
000010
000100
001000
100000
001000
100000
000100
010000
000100
010000
000001
000010
000001
000010
,  // measure 76
020000
000000
000000
030020
000000
000000
001030
000000
000000
000000
100000
000000
000001
000000
000100
000000
,  // measure 77
000110
000000
000000
101000
000000
000000
000101
000000
010010
000000
000000
000000
000000
000000
000000
000000
;
