#VERSION:0.83;
#TITLE:DAWN OF FALCON;
#SUBTITLE:;
#ARTIST:L.E.D.-G;
#TITLETRANSLIT:;
#SUBTITLETRANSLIT:;
#ARTISTTRANSLIT:;
#GENRE:;
#ORIGIN:;
#CREDIT:;
#BANNER:DAWN OF FALCON-bn.png;
#BACKGROUND:DAWN OF FALCON-bg.png;
#PREVIEWVID:;
#JACKET:DAWN OF FALCON-jacket.png;
#CDIMAGE:;
#DISCIMAGE:;
#LYRICSPATH:;
#CDTITLE:;
#MUSIC:DAWN OF FALCON.ogg;
#OFFSET:0.000000;
#SAMPLESTART:12.387097;
#SAMPLELENGTH:20.000000;
#SELECTABLE:YES;
#DISPLAYBPM:155.000000;
#BPMS:0.000=155.000;
#STOPS:;
#DELAYS:;
#WARPS:;
#TIMESIGNATURES:0.000=4=4;
#TICKCOUNTS:0.000=4;
#COMBOS:0.000=1;
#SPEEDS:0.000=1.000=0.000=0;
#SCROLLS:0.000=1.000;
#FAKES:;
#LABELS:0.000=Song Start;
#BGCHANGES:;
#KEYSOUNDS:;
#ATTACKS:
;

//---------------dance-single - ----------------
#NOTEDATA:;
#CHARTNAME:;
#STEPSTYPE:dance-single;
#DESCRIPTION:;
#CHARTSTYLE:;
#DIFFICULTY:Hard;
#METER:13;
#RADARVALUES:0.608875,0.701181,0.338712,0.376347,0.540998,453.000000,417.000000,36.000000,40.000000,0.000000,0.000000,0.000000,0.000000,0.000000,0.608875,0.701181,0.338712,0.376347,0.540998,453.000000,417.000000,36.000000,40.000000,0.000000,0.000000,0.000000,0.000000,0.000000;
#CREDIT:;
#DISPLAYBPM:155.000000;
#NOTES:
0000
0000
0000
0000
,
0000
0000
0000
0000
,
0000
0000
0000
0000
,
0000
0000
0000
0000
,
0002
0000
0000
0000
0003
0000
1000
0010
2000
0000
0000
0000
3001
0000
0200
0000
,
0000
0320
0000
1030
0000
0001
0010
0100
,
2000
0000
0000
0000
3000
0000
0001
0010
0002
0000
0000
0000
0203
0000
0000
0000
,
0320
0000
1030
0100
0000
1000
0001
0100
,
1001
0000
1001
0000
1001
0000
0000
0000
0000
0000
0101
0000
0000
1000
0100
1000
,
0100
1000
0001
0100
0010
1000
0001
0000
,
0110
0000
0110
0000
0110
0000
0000
0000
0000
0000
1010
0000
0000
0001
0010
0001
,
0010
0001
1000
0010
1000
0001
0100
0000
,
0101
0000
0101
0000
0101
0000
0000
0000
0000
0000
1100
0000
0000
1000
0010
1000
,
0010
0100
0001
1000
0100
0010
0001
0000
,
0011
0000
0011
0000
0011
0000
0000
0000
0000
0000
1010
0000
0000
0001
0100
0001
,
0100
0001
0010
0100
1000
0010
1000
0001
,
0020
0000
0000
0000
,
0100
0100
0100
0130
,
1100
0000
0000
1000
0010
0000
0000
0010
0100
0000
0000
0100
0001
0000
0000
0001
,
0010
0000
0000
0010
0100
0000
0000
0100
1000
0000
0000
1000
0001
0000
0000
0001
,
1000
0000
0000
1000
0100
0000
0000
0100
0010
0000
0000
0010
0001
0000
0000
0001
,
0100
0000
0000
0010
1000
0000
0000
0000
0001
0000
0001
0000
0001
0000
0001
0000
,
1001
0000
0000
1000
0001
0000
0000
0001
0010
0000
0000
0010
0100
0000
0000
0100
,
0010
0000
0000
0010
0001
0000
0000
0001
1000
0000
0000
1000
0100
0000
0000
0100
,
1000
0000
0010
0000
1000
0000
0010
0000
0100
0000
0001
0000
0010
0000
0001
0100
,
0002
0000
0000
0000
0000
0000
0000
0000
1003
0001
0000
1000
0000
0010
0100
0010
,
0200
0000
0000
0000
0301
0000
1000
0100
1000
0000
0010
0000
0100
0000
0001
0000
,
0010
0000
0100
0000
1000
0000
0010
0000
1000
0000
0001
0000
0100
0010
0100
0010
,
0200
0000
0000
0000
0301
0000
1000
0010
1000
0000
0001
0000
0100
0000
0010
0000
,
1000
0000
0001
0000
1000
0000
0100
0000
0010
0000
0001
0000
1000
0100
1000
0100
,
2000
0000
0000
0000
3001
0000
0100
0010
0100
0000
0001
0000
0010
0000
0100
0000
,
1000
0000
0010
0000
1000
0000
0001
0000
0010
0000
0100
0000
1000
0000
0001
0100
,
0002
0000
0000
0000
0013
0000
0001
1000
0001
0000
1000
0000
0010
0000
0100
0000
,
0001
0010
0100
1000
1010
0000
0101
0000
,
0210
0000
0000
0000
0301
0000
1000
0010
1000
0000
0100
0000
0010
0000
0001
0000
,
0100
0000
0001
0000
0010
0000
0100
0000
1000
0000
0010
0000
1000
0001
1000
0001
,
2000
0000
0000
0000
3010
0000
1000
0100
1000
0000
0001
0000
0010
0000
0100
0000
,
0010
0000
0001
0000
0100
0000
0010
0000
1000
0000
0100
0000
0010
0001
0010
0001
,
0010
0001
0100
0001
1000
0100
1000
0010
,
0100
0000
0010
0000
1000
0000
0001
0000
0010
0000
0100
0000
1000
0000
0001
0010
,
0001
0000
1000
0000
0100
0000
0010
0000
0011
0000
0000
0101
0000
0000
0001
1000
,
0001
0000
0000
0101
0000
0000
0110
0000
1010
0000
0000
1001
0000
0000
0001
2000
,
0002
0000
0000
0000
,
0000
0000
0000
0003
,
0020
0000
0000
3000
,
0200
0000
0000
0030
,
0001
0001
0001
0001
,
0001
0000
0000
0001
0000
0000
0301
0000
1000
0010
0000
1000
,
0010
0000
0000
0010
0000
0000
0010
0000
0000
0010
0000
1000
,
0100
0000
0000
0100
0000
0000
0100
1000
0100
1000
0100
1000
,
0002
0000
0000
2003
0000
0000
3002
0000
0000
1003
0010
1000
,
0010
0000
0100
0001
0000
0010
0001
0000
0100
0010
1000
0001
,
0200
0000
0000
0320
0000
0000
0230
0000
0000
0301
1000
0001
,
1000
0000
0010
0100
0000
0001
0010
0000
0100
1000
0010
1000
,
0001
0011
1100
0101
,
1010
0000
0000
0110
0000
0000
0010
0000
1000
0001
0000
0100
,
0001
0000
0001
1000
0000
1000
0001
0000
0011
0000
0101
0000
,
2002
0000
0000
0003
0000
0000
0001
0000
0000
3010
0000
0010
,
2000
0000
0000
3200
0000
0000
0320
0000
0000
0031
0100
0001
,
0100
0000
0010
1000
0000
0001
0010
0000
0100
1000
0010
0100
,
0002
0000
0000
2003
0000
0000
3020
0000
0000
0130
0001
0100
,
0001
0000
0010
0100
0000
1000
0010
0000
1001
0000
1000
0001
,
0100
0000
0001
0010
0000
0200
0000
0000
1300
0010
1000
0001
,
0010
0000
0001
1000
0000
0020
0000
0000
0130
0001
1000
0100
,
2000
0000
0000
3001
0000
0100
0000
0000
0010
2000
0000
0000
,
0002
0000
0000
3003
0000
0000
1000
0100
1000
0001
1000
0100
,
0020
0000
0000
0000
,
0000
0000
0000
0030
;

//---------------dance-single - ----------------
#NOTEDATA:;
#CHARTNAME:;
#STEPSTYPE:dance-single;
#DESCRIPTION:;
#CHARTSTYLE:;
#DIFFICULTY:Medium;
#METER:10;
#RADARVALUES:0.474466,0.573693,0.489251,0.526885,0.141130,353.000000,301.000000,52.000000,56.000000,0.000000,0.000000,0.000000,0.000000,0.000000,0.474466,0.573693,0.489251,0.526885,0.141130,353.000000,301.000000,52.000000,56.000000,0.000000,0.000000,0.000000,0.000000,0.000000;
#CREDIT:;
#DISPLAYBPM:155.000000;
#NOTES:
0000
0000
0000
0000
,
0000
0000
0000
0000
,
0000
0000
0000
0000
,
0000
0000
0000
0000
,
0002
0000
0003
0000
2000
0000
3010
0200
,
0000
0320
0000
1030
0000
1001
0000
0001
,
2000
0000
3000
0010
0200
0000
0302
0000
,
0023
0000
0031
1000
0000
0110
0000
0100
,
0001
0001
0001
0000
0000
2010
0000
0100
,
3100
1000
0001
0000
0100
0010
1000
0000
,
0010
0010
0010
0000
0000
0102
0000
1003
,
0001
1000
0100
0000
0010
0001
1000
0000
,
0010
0001
0100
0000
0010
1000
0100
0000
,
1000
0010
1000
0100
0010
0001
1000
0000
,
0010
1000
0001
0000
0010
0100
1000
0000
,
0010
0100
0001
1000
0100
0010
0001
0000
,
0020
0000
0000
0000
,
0100
0100
0100
0130
,
1100
1001
0011
0110
,
1100
0101
0011
0110
,
1100
1010
0101
1001
,
0011
0000
0101
0000
0001
1000
0001
1000
,
1001
0011
0110
1100
,
1010
1100
0110
0011
,
1000
0001
0010
0100
1000
0010
0100
0001
,
2000
0000
0000
0000
3010
0100
0010
0100
,
0110
0000
1000
0001
0020
0000
0130
2000
,
0000
3002
0000
0023
0000
0031
1000
0010
,
1010
0000
0001
1000
0200
0000
0320
0000
,
0032
0000
1000
2003
0000
3010
0100
0001
,
0101
0000
0001
1000
0010
0000
0100
0001
,
1000
0000
0100
0010
0001
0000
0100
0010
,
0110
0000
1000
0001
1000
0010
0100
0000
,
0101
0000
0001
1000
0100
0000
1100
0000
,
1001
0000
0100
0001
0020
0000
0130
2000
,
0000
3020
0000
0230
0000
0301
1000
0100
,
1100
0000
1000
0001
0020
0000
0230
0000
,
2300
0000
0001
3002
0000
1003
0001
0010
,
0011
0000
1000
0001
0101
0000
0100
0010
,
1010
0000
1000
0100
1100
0000
0010
0001
,
1000
0000
0001
0000
1000
0000
0001
0000
0010
0000
0000
0010
0000
0000
0010
0000
,
0100
0000
0000
0100
0000
0000
0100
0000
1000
0000
0000
0001
0000
0000
2000
0000
,
0002
0000
0000
0000
,
0000
0000
0000
3000
,
0020
0000
0000
0003
,
0200
0000
0000
0300
,
0001
0001
0001
0001
,
0001
0001
0001
0031
,
1000
1000
0001
0001
,
0100
0100
0100
0100
,
0002
2003
3002
2003
,
3010
0000
0000
1000
0000
0001
0000
0000
1000
0001
0000
0000
,
0200
0320
0230
0320
,
1030
0000
0000
0100
0000
0010
0000
0000
0001
0100
0000
0000
,
0011
1001
1010
0110
,
0101
1010
1100
1001
,
0011
0000
0000
1100
0000
0000
0002
0000
0023
0000
0230
0000
,
2000
3300
1001
0110
,
2000
0000
0000
3020
0000
0000
0230
0000
0000
0301
0000
0001
,
0010
0000
0010
0100
0000
0100
1000
0000
1000
0001
0000
0000
,
0200
0000
0000
0302
0000
0000
2003
0000
0000
3010
0000
0010
,
1000
0000
1000
0001
0000
0001
0100
0000
0100
0000
0100
0000
,
0001
0000
0010
0100
0000
2000
0000
0000
0000
0000
3010
0100
,
0010
0000
1000
0001
0000
0200
0000
0000
0000
0000
0301
1000
,
0001
0000
0000
1000
0000
0010
0000
0000
0010
0100
0000
0000
,
0202
0000
0000
0303
0000
0000
0001
1000
0001
1000
0000
0000
,
2020
0000
0000
0000
,
0000
0000
0000
3030
;

//---------------dance-single - ----------------
#NOTEDATA:;
#CHARTNAME:;
#STEPSTYPE:dance-single;
#DESCRIPTION:;
#CHARTSTYLE:;
#DIFFICULTY:Easy;
#METER:7;
#RADARVALUES:0.317206,0.414334,0.206991,0.188173,0.000000,236.000000,214.000000,22.000000,20.000000,0.000000,0.000000,0.000000,0.000000,0.000000,0.317206,0.414334,0.206991,0.188173,0.000000,236.000000,214.000000,22.000000,20.000000,0.000000,0.000000,0.000000,0.000000,0.000000;
#CREDIT:;
#DISPLAYBPM:155.000000;
#NOTES:
0000
0000
0000
0000
,
0000
0000
0000
0000
,
0000
0000
0000
0000
,
0000
0000
0000
0000
,
0002
0003
1000
0001
,
0010
0100
1000
0010
,
2000
3000
0001
1000
,
0100
0010
0100
1000
,
1001
1001
0001
1000
,
0010
1000
0100
0010
,
0110
0110
0100
0010
,
0001
0100
0001
1000
,
0010
0010
0100
0100
,
0001
0001
1000
1000
,
0001
0010
0100
1000
,
0010
0100
0001
1000
,
0020
0000
0000
0000
,
0100
0100
0100
0130
,
1001
0010
1000
0001
,
0010
0100
1000
0010
,
0100
0001
1000
0100
,
0010
0100
1000
1000
,
0110
0001
0100
0010
,
1000
0001
0010
0100
,
1000
0010
1000
0001
,
0200
0000
0010
0310
,
0110
0001
0010
0100
,
1000
0010
1000
0001
,
1001
0100
0001
0010
,
0100
1000
0010
0100
,
0110
0010
1000
0100
,
0010
0001
1000
0001
,
1000
1000
0001
0001
,
1001
0100
0010
0010
,
0110
0100
0001
1000
,
0001
0010
0100
1000
,
1001
0010
1000
0001
,
0100
0001
0010
0100
,
1000
1000
1000
1000
,
0001
0001
0001
0001
,
0100
0100
0010
0010
,
1000
0100
0010
0001
,
2002
0000
0000
0000
,
0000
0000
0000
0003
,
0020
0000
0000
3000
,
0200
0000
0000
0330
,
0220
0000
0000
0000
,
0000
0000
0000
0030
,
0002
0000
0000
0300
,
2000
0000
0000
3003
,
0001
0001
0001
1000
,
0001
0100
0010
1000
,
0100
0100
0100
1000
,
0010
1000
0001
0100
,
0110
0001
1001
1000
,
0110
0010
1001
0100
,
0001
0001
1000
1000
,
2002
3003
0220
0330
,
1000
1000
0001
0001
,
0010
0100
1000
0010
,
0100
0100
0010
0010
,
0100
0001
1000
0001
,
0010
0100
0010
0001
,
0100
0010
1000
0001
,
1000
1000
0001
0001
,
0220
0330
0100
0010
,
2002
0000
0000
0000
,
0000
0000
0000
3003
;

//---------------dance-single - ----------------
#NOTEDATA:;
#CHARTNAME:;
#STEPSTYPE:dance-single;
#DESCRIPTION:;
#CHARTSTYLE:;
#DIFFICULTY:Beginner;
#METER:3;
#RADARVALUES:0.149195,0.186292,0.056452,0.000000,0.000000,111.000000,105.000000,6.000000,0.000000,0.000000,0.000000,0.000000,0.000000,0.000000,0.149195,0.186292,0.056452,0.000000,0.000000,111.000000,105.000000,6.000000,0.000000,0.000000,0.000000,0.000000,0.000000,0.000000;
#CREDIT:;
#DISPLAYBPM:155.000000;
#NOTES:
// measure 0
0000
0000
0000
0000
,  // measure 1
0000
0000
0000
0000
,  // measure 2
0000
0000
0000
0000
,  // measure 3
0000
0000
0000
0000
,  // measure 4
0001
0000
0000
0000
,  // measure 5
0010
0000
0000
0000
,  // measure 6
1000
0000
0000
0000
,  // measure 7
0100
0000
0000
0000
,  // measure 8
0001
0001
0000
0000
,  // measure 9
0010
0000
0010
0000
,  // measure 10
0100
0100
0000
0000
,  // measure 11
1000
0000
1000
0000
,  // measure 12
0001
0000
0001
0000
,  // measure 13
1000
0000
1000
0000
,  // measure 14
0010
0000
0010
0000
,  // measure 15
0100
0000
0100
0000
,  // measure 16
0010
0000
0000
0000
,  // measure 17
0100
0000
0000
0000
,  // measure 18
1001
0000
0001
0000
,  // measure 19
1000
0000
0001
0000
,  // measure 20
0010
0000
0100
0000
,  // measure 21
1000
0000
0001
0001
,  // measure 22
0001
0000
0010
0000
,  // measure 23
0001
0000
1000
0000
,  // measure 24
0010
0000
1000
0000
,  // measure 25
0100
0000
0000
0000
,  // measure 26
1001
0000
0010
0000
,  // measure 27
1000
0000
1000
0000
,  // measure 28
0001
0000
0010
0000
,  // measure 29
0100
0000
0100
0000
,  // measure 30
1000
0000
0010
0000
,  // measure 31
1000
0000
0001
0000
,  // measure 32
0010
0000
0100
0000
,  // measure 33
1000
0000
0001
0000
,  // measure 34
1001
0000
0100
0000
,  // measure 35
0001
0000
0010
0000
,  // measure 36
0001
0000
1000
0000
,  // measure 37
0010
0000
0100
0000
,  // measure 38
0001
0000
0001
0000
,  // measure 39
1000
0000
1000
0000
,  // measure 40
0010
0000
0010
0000
,  // measure 41
0100
0000
0100
0000
,  // measure 42
1001
0000
0000
0000
,  // measure 43
0000
0000
0000
0000
,  // measure 44
0000
0000
0000
0000
,  // measure 45
0000
0000
0000
0000
,  // measure 46
0001
0000
0000
0000
,  // measure 47
0000
0000
0000
0000
,  // measure 48
1000
0000
0000
0000
,  // measure 49
1000
0000
0000
0000
,  // measure 50
0010
0000
0010
0000
,  // measure 51
0010
0000
0010
0000
,  // measure 52
0100
0000
0100
0000
,  // measure 53
0100
0000
0100
0000
,  // measure 54
0001
0000
0001
0000
,  // measure 55
1000
0000
1000
0000
,  // measure 56
0001
0000
1000
0000
,  // measure 57
1001
0000
0000
0000
,  // measure 58
0010
0000
0010
0000
,  // measure 59
0100
0000
0100
0000
,  // measure 60
0001
0000
0001
0000
,  // measure 61
1000
0000
1000
0000
,  // measure 62
0100
0000
1000
0000
,  // measure 63
0010
0000
0100
0000
,  // measure 64
0001
0000
1000
0000
,  // measure 65
0001
0000
0000
0000
,  // measure 66
1001
0000
0000
0000
;
