#TITLE:DALI;
#SUBTITLE:(Haste);
#ARTIST:dj_EXUSIA;
#TITLETRANSLIT:;
#SUBTITLETRANSLIT:;
#ARTISTTRANSLIT:;
#GENRE:;
#CREDIT:;
#BANNER:DALI (Haste)-bn.png;
#BACKGROUND:DALI (Haste)-bg.png;
#LYRICSPATH:;
#CDTITLE:;
#MUSIC:DALI (Haste).ogg;
#OFFSET:0.000000;
#SAMPLESTART:89.649124;
#SAMPLELENGTH:20.000000;
#SELECTABLE:YES;
#DISPLAYBPM:171.000000;
#BPMS:0.000000=171.000000
;
#STOPS:
;
#BGCHANGES:;
#KEYSOUNDS:;
#ATTACKS:;

//---------------dance-single - ----------------
#NOTES:
     dance-single:
     :
     Hard:
     16:
     0.698373,0.846513,0.063488,0.112868,0.462055,693.000000,684.000000,9.000000,16.000000,0.000000,0.000000,0.698373,0.846513,0.063488,0.112868,0.462055,693.000000,684.000000,9.000000,16.000000,0.000000,0.000000:
0000
0000
0000
0000
,
0000
0000
0000
0000
,
0000
0000
0000
0000
,
0000
0000
0000
0000
,
0000
0000
0000
0000
,
0000
0000
0000
0000
,
0000
0000
0000
0000
,
0000
0000
0000
0000
,
0010
0000
0010
0000
,
0010
0000
0010
0000
,
0010
0000
0010
0000
,
0010
0000
0010
0000
,
0010
0010
0010
0010
,
0010
0010
0010
0010
,
0010
1000
0001
0010
0100
1000
0001
0100
,
0001
0010
0001
0010
0100
1000
0100
1000
0001
0100
0001
1000
0100
1000
0000
0000
,
0001
0000
0010
0000
0100
0000
1000
0010
1000
0010
1000
0000
0100
0000
0000
0000
,
0010
0000
0001
0000
1000
0000
0010
0100
0010
0100
0010
0000
1000
0000
0000
0000
,
0100
0000
0010
0000
0001
0000
1000
0001
1000
0001
1000
0000
0100
0000
0000
0000
,
0010
0000
0100
0000
1000
0000
0001
0010
0001
0010
0001
0000
0100
0000
0000
0000
,
0010
0000
0100
0000
0001
0000
1000
0100
1000
0100
1000
0000
0001
0000
0000
0000
,
0010
0000
0100
0000
1000
0000
0001
0100
0001
0100
0001
0000
0010
0000
0000
0000
,
0001
0000
1000
0000
0100
0000
0010
0100
0010
0100
0010
0000
0001
0000
0000
0000
,
0100
0000
0001
0000
0010
0000
0001
1000
0001
1000
0001
0000
0100
0000
0000
0000
,
1001
0000
0010
0000
0100
0000
0000
0001
0010
0001
0010
0000
0100
0000
1000
0010
,
1000
0000
0100
0000
0010
0000
0000
0001
0100
0001
0100
0000
0010
0000
1000
0001
,
1000
0000
0010
0000
0100
0000
0000
0001
1000
0001
1000
0000
0100
0000
0010
0001
,
0010
0000
0100
0000
1000
0000
0000
0010
0100
0010
0100
0000
0001
0000
1000
0001
,
0010
0000
0100
0000
1000
0000
0000
0010
1000
0100
0010
0000
0001
0000
0100
0001
,
1000
0000
0010
0000
0100
0000
0000
0001
0010
0001
1000
0000
0100
0000
1000
0010
,
0100
0000
0001
0000
0010
0000
0000
0100
1000
0010
1000
0000
0001
0000
1000
0001
,
0010
0000
0100
0000
1000
0000
0000
0001
0010
0001
1000
0000
0100
0000
0000
0000
,
1001
0000
0010
0000
0100
0000
0001
0010
0100
1000
0100
0000
1000
0000
0010
0100
,
0001
0000
0010
0000
0001
0000
0100
0010
1000
0001
1000
0000
0010
0000
1000
0001
,
0010
0000
0100
0000
0010
0000
0001
0100
0010
1000
0010
0000
1000
0000
0001
1000
,
0100
0000
0010
0000
0100
0000
1000
0010
0100
0001
0010
0000
0001
0000
0100
0010
,
1000
0000
0001
0000
0010
0000
0001
0100
0010
0100
0001
0000
0010
0000
0100
1000
,
0010
0000
0100
0000
0001
0000
0010
0001
1000
0001
1000
0000
0100
0000
0010
0001
,
0100
0000
0001
0000
1000
0000
0100
1000
0010
0100
0010
0000
1000
0000
0001
0010
,
0001
0000
0100
0000
0010
0000
1000
0100
1000
0001
0100
0000
0010
0000
0000
0000
,
0110
0000
1000
0000
0001
0000
0010
0100
0000
1000
0010
0000
0100
0000
0001
1000
,
0001
0000
0010
0000
0100
0000
1000
0010
0000
1000
0001
0000
0010
0000
0001
0100
,
0001
0000
1000
0000
0010
0000
0100
0001
0000
0010
0100
0000
1000
0000
0010
1000
,
0001
0000
1000
0000
0100
0000
1000
0010
0000
0100
0001
0000
0010
0000
0100
1000
,
0001
0000
0010
0000
0001
0000
0000
1000
0100
0010
0100
0000
1000
0000
0010
1000
,
0001
0000
0010
0000
0001
0000
0000
0100
0010
1000
0001
0000
0010
0000
0100
1000
,
0100
0000
0010
0000
0001
0000
0000
0100
0001
1000
0100
0000
0010
0000
0001
0100
,
0001
0000
0010
0000
0100
0000
0000
1000
0001
1000
0001
0000
0100
0000
0000
0000
,
0110
0000
0001
0000
1000
0000
0000
0010
0000
1000
0100
0000
0010
0000
0001
1000
,
0001
0000
0000
0000
0100
0000
0000
0010
0000
1000
0100
0000
0010
0000
0000
0001
,
0100
0000
0000
0000
0010
0000
0000
1000
0000
0001
1000
0000
0010
0000
0000
0100
,
0001
0000
0000
0000
0010
0000
0000
0001
0000
1000
0100
0000
0010
0000
0000
0000
,
1001
0000
0000
0000
0010
0000
0000
1000
0100
1000
0100
0000
0010
0000
0000
0000
,
0001
0000
0000
0000
1000
0000
0000
0010
0100
0010
0100
0000
0001
0000
0000
0000
,
0010
0000
0000
0000
0100
0000
0000
0010
0001
0010
0001
0000
1000
0000
0000
0000
,
0001
0000
0000
0000
0100
0000
0000
0010
1000
0010
1000
0000
0100
0000
0000
0000
,
0110
0000
0010
0000
,
0010
0000
0010
0000
,
0010
0000
0010
0000
,
0010
0000
0010
0000
,
0010
0010
0010
0010
,
0010
0010
0010
0010
,
0001
0010
0100
1000
0001
0100
0010
1000
,
0010
1000
0010
1000
0100
0010
0100
0010
0001
1000
0001
1000
0001
0000
0100
0000
,
0010
0000
0001
0000
1000
0000
0010
0000
0001
0000
0010
0000
1000
0000
0100
0010
,
0001
0100
1000
0100
0010
0100
1000
0001
,
0020
0000
0000
0032
0000
0100
0100
0000
,
1000
0000
0000
0000
0010
0000
0000
0100
0000
0000
0010
0000
0013
0000
0001
0000
,
1000
0000
0010
0000
0001
0000
0010
0000
0100
0000
0010
0000
0001
0000
0010
1000
,
0100
0010
0001
0010
1000
0010
0100
0001
,
2000
0000
0000
3200
0000
0001
0001
0000
,
1000
0000
0000
0000
0010
0000
0000
0001
0000
0000
1000
0000
1300
0000
0010
0000
,
0001
0000
0010
0000
0100
0000
0010
0000
0001
0000
0010
0000
1000
0000
0100
0001
,
0100
0010
0100
0001
0100
1000
0010
0100
,
0001
0010
0100
2000
0000
0100
0100
0000
,
0001
0000
0000
0000
0100
0000
0000
3001
0000
1000
0010
0000
0100
0000
0001
0000
,
0010
0000
1000
0000
0010
0000
0100
0000
0010
0000
0001
0000
0010
0000
1000
0010
,
0100
1000
0100
0001
0100
0010
0100
1000
,
0001
0010
0100
2000
0000
3010
0100
0002
,
1000
0000
1000
0000
1003
0000
0001
0010
0100
0010
0001
0000
0100
0000
0010
0000
,
1001
0000
0010
0000
1000
0000
0001
0000
0010
0000
0100
0000
1000
0000
0010
1000
,
0001
0010
0001
0100
0010
1000
0100
0010
,
0002
1000
1003
0200
0010
0010
0310
0000
,
0100
1000
0010
1000
0001
0001
0001
0010
,
0001
0000
1000
0000
0100
0000
0010
0000
0100
0000
0010
0000
0001
0000
0100
0010
,
1000
0001
0010
0001
0100
0010
1000
0100
,
2000
0010
3010
0002
1000
1000
1003
0000
,
0001
1000
0100
0010
0100
0100
0100
1000
,
1001
0000
0010
0000
0100
0000
0001
0000
0010
0000
0100
0000
1000
0000
0100
1000
,
0010
0100
0001
1000
0001
0010
0100
1000
,
0020
0100
0130
0002
1000
1000
1003
0000
,
0001
0010
0100
1000
0010
0100
0001
1000
,
0010
0000
0001
0000
0010
0000
1000
0000
0010
0000
0100
0000
0010
0000
1000
0100
,
0001
0100
1000
0010
0100
0001
0010
0100
,
2000
0000
0000
3020
0000
0130
0001
2000
,
0000
0000
0000
3000
,
1001
0000
0000
0000
;

//---------------dance-single - ----------------
#NOTES:
     dance-single:
     :
     Medium:
     12:
     0.478683,0.609489,0.042326,0.141086,0.137558,475.000000,469.000000,6.000000,20.000000,0.000000,0.000000,0.478683,0.609489,0.042326,0.141086,0.137558,475.000000,469.000000,6.000000,20.000000,0.000000,0.000000:
0000
0000
0000
0000
,
0000
0000
0000
0000
,
0000
0000
0000
0000
,
0000
0000
0000
0000
,
0000
0000
0000
0000
,
0000
0000
0000
0000
,
0000
0000
0000
0000
,
0000
0000
0000
0000
,
0010
0000
0010
0000
,
0010
0000
0010
0000
,
0010
0000
0010
0000
,
0010
0000
0010
0000
,
0010
0010
0010
0010
,
0010
0010
0010
0010
,
0010
1000
0100
0000
0010
0001
0100
0000
,
0010
1000
0001
0010
0100
1000
0001
0000
,
0010
0001
0100
0000
0001
1000
0100
0000
,
0010
0100
1000
0000
0010
1000
0001
0000
,
0010
0100
1000
0000
0100
1000
0010
0000
,
0100
0001
1000
0000
0010
1000
0100
0000
,
1000
0010
0001
0000
1000
0100
0010
0000
,
0100
1000
0010
0000
1000
0100
0001
0000
,
0010
0001
1000
0000
0001
1000
0010
0000
,
1000
0100
0010
0000
0001
1000
0010
0000
,
1001
0000
0000
0000
0010
0000
0000
1000
0001
0000
1000
0000
0100
0000
0000
0000
,
0010
0000
0000
0000
0001
0000
0000
0100
0001
0000
1000
0000
0100
0000
0000
0000
,
0010
0000
0000
0000
0100
0000
0000
1000
0010
0000
1000
0000
0001
0000
0000
0000
,
0010
0000
0000
0000
0001
0000
0000
1000
0100
0000
0010
0000
0001
0000
0000
0000
,
0100
0000
0000
0000
0001
0000
0000
0010
0100
0000
1000
0000
0001
0000
0000
0000
,
1000
0000
0000
0000
0100
0000
0000
1000
0010
0000
0100
0000
0001
0000
0000
0000
,
0010
0000
0000
0000
0100
0000
0000
0010
0100
0000
1000
0000
0001
0000
0000
0000
,
1000
0000
0000
0000
0010
0000
0000
0100
0010
0000
0100
0000
0001
0000
0000
0000
,
1001
0000
0100
0000
0001
0000
0000
0010
0001
0000
1000
0000
0100
0000
0000
0000
,
1000
0000
0010
0000
0100
0000
0000
0001
0010
0000
0001
0000
1000
0000
0000
0000
,
0100
0000
1000
0000
0010
0000
0000
0010
0100
0000
0001
0000
1000
0000
0000
0000
,
1000
0000
0010
0000
0100
0000
0000
0001
0010
0000
0001
0000
0100
0000
0000
0000
,
0001
0000
1000
0000
0010
0000
0000
1000
0100
0000
0010
0000
0100
0000
0000
0000
,
0010
0000
0100
0000
1000
0000
0000
0001
0010
0000
0100
0000
1000
0000
0000
0000
,
0001
0000
0100
0000
1000
0000
0000
0010
0100
0000
0010
0000
1000
0000
0000
0000
,
0100
0000
0010
0000
0001
0000
0000
0010
0100
0000
1000
0000
0001
0000
0000
0000
,
1001
0000
0010
0000
1000
0000
0000
0000
0001
0100
0001
0000
0010
0000
0000
0000
,
0100
0000
1000
0000
0010
0000
0000
0000
1000
0001
1000
0000
0100
0000
0000
0000
,
0010
0000
0001
0000
1000
0000
0000
0000
0100
0010
0100
0000
1000
0000
0000
0000
,
0001
0000
0010
0000
0100
0000
0000
0000
0010
0001
0010
0000
1000
0000
0000
0000
,
0010
0000
0000
0000
0001
0000
0000
0000
1000
0100
1000
0000
0010
0000
0000
0000
,
0100
0000
0000
0000
0001
0000
0000
0000
1000
0100
1000
0000
0010
0000
0000
0000
,
1000
0000
0000
0000
0100
0000
0000
0000
0001
0010
0001
0000
1000
0000
0000
0000
,
0010
0000
0000
0000
0100
0000
0000
0000
0001
1000
0001
0000
1000
0000
0000
0000
,
1001
0000
0000
0000
0010
0000
0000
0001
0000
0000
1000
0000
0100
0000
0000
0000
,
1000
0000
0010
0000
0100
0000
0000
0010
0000
0000
1000
0000
0001
0000
0000
0000
,
0010
0000
0000
0000
0100
0000
0000
1000
0000
0000
0001
0000
1000
0000
0000
0000
,
0001
0000
0100
0000
1000
0000
0000
1000
0000
0000
0001
0000
0010
0000
0000
0000
,
0100
0000
0000
0000
0010
0000
0000
0100
0000
0000
1000
0000
0001
0000
0000
0000
,
1000
0000
0001
0000
0010
0000
0000
0100
0000
0000
0010
0000
0100
0000
0000
0000
,
1000
0000
0000
0000
0001
0000
0000
0001
0000
0000
0010
0000
0100
0000
0000
0000
,
1000
0000
0010
0000
0100
0000
0000
0001
0000
0000
1000
0000
0001
0000
0000
0000
,
0110
0000
0010
0000
,
0010
0000
0010
0000
,
0010
0000
0010
0000
,
0010
0000
0010
0000
,
0010
0010
0010
0010
,
0010
0010
0010
0010
,
0010
1000
0001
0000
0010
0100
1000
0000
,
0010
0100
0001
0010
0001
1000
0100
1000
,
0001
0000
0100
0000
0010
0000
1000
0000
0100
0000
0010
0000
0001
0000
1000
0001
,
1000
0010
0100
0010
1000
0100
0010
0001
,
2000
0000
0000
0002
0000
0000
0000
0000
,
0000
0000
0000
0000
0000
0000
3003
0100
,
0010
0000
1000
0000
0100
0000
0001
0000
0100
0000
0010
0000
0001
0000
1000
0100
,
1000
0010
0100
0001
0010
1000
0010
0001
,
0200
0000
0000
0020
0000
0000
0000
0000
,
0000
0000
0000
0000
0000
0000
0330
0001
,
0100
0000
0010
0000
1000
0000
0100
0000
0001
0000
0100
0000
0010
0000
0001
1000
,
0001
1000
0010
0001
0010
0100
0010
1000
,
0002
0000
0000
0200
0000
0000
0000
0000
,
0000
0000
0000
0000
0000
0000
0303
0001
,
0010
0000
0100
0000
0010
0000
0001
0000
0100
0000
0010
0000
1000
0000
0100
1000
,
0100
0001
0100
1000
0010
0100
0010
1000
,
0002
0000
0000
0023
0000
0031
2000
0200
,
0000
0000
0000
0000
0000
0000
3300
0001
,
1000
0000
0010
0000
0100
0000
0001
0000
0010
0000
0100
0000
0010
0000
0001
1000
,
0001
1000
0010
0100
0010
1000
0100
0010
,
0002
0000
0000
2000
0000
0000
0000
0000
,
0000
0000
0000
0000
0000
0000
3003
1000
,
0010
0000
0001
0000
0010
0000
0100
0000
0010
0000
1000
0000
0100
0000
0010
0001
,
0010
1000
0010
0100
0010
0001
1000
0010
,
0200
0000
0000
0020
0000
0000
0000
0000
,
0000
0000
0000
0000
0000
0000
0330
0100
,
0010
0000
0100
0000
0001
0000
0010
0000
1000
0000
0010
0000
0001
0000
0100
0001
,
0100
0010
1000
0100
0001
0100
1000
0010
,
2000
0000
0000
0020
0000
0000
0000
0000
,
0000
0000
0000
0000
0000
0000
3030
1000
,
0100
0010
0001
0000
0010
0100
1000
0000
,
0001
1000
0010
1000
0100
0010
0001
0000
,
0200
0000
0000
0320
0000
1030
0002
0020
,
0000
0000
0000
0033
,
1001
0000
0000
0000
;

//---------------dance-single - ----------------
#NOTES:
     dance-single:
     :
     Easy:
     8:
     0.306357,0.372466,0.049380,0.112868,0.000000,304.000000,297.000000,7.000000,16.000000,0.000000,0.000000,0.306357,0.372466,0.049380,0.112868,0.000000,304.000000,297.000000,7.000000,16.000000,0.000000,0.000000:
0000
0000
0000
0000
,
0000
0000
0000
0000
,
0000
0000
0000
0000
,
0000
0000
0000
0000
,
0000
0000
0000
0000
,
0000
0000
0000
0000
,
0000
0000
0000
0000
,
0000
0000
0000
0000
,
0010
0000
0010
0000
,
0010
0000
0010
0000
,
0010
0000
0010
0000
,
0010
0000
0010
0000
,
0010
0010
0010
0010
,
0010
0010
0010
0010
,
0010
1000
0001
0010
,
0100
1000
0001
0100
,
0001
0100
1000
0010
,
1000
0100
0010
0001
,
0010
1000
0100
0010
,
1000
0010
0001
0100
,
0001
0010
0100
1000
,
0001
0100
0001
0010
,
1000
0100
0010
0001
,
0100
0010
1000
0001
,
1001
0010
1000
0100
,
0010
0001
0100
0010
,
1000
0001
0010
0100
,
0010
0001
0100
1000
,
0001
1000
0100
0001
,
1000
0001
0100
0100
,
0010
0100
0010
1000
,
0001
0010
1000
0100
,
1001
0010
0100
0010
,
0001
0010
0100
1000
,
0100
0001
0100
0010
,
0001
1000
0100
0010
,
1000
0001
1000
1000
,
0010
0100
1000
0010
,
1000
0001
0010
0001
,
0100
1000
0100
0001
,
1001
0010
1000
0100
,
0001
0010
0001
0010
,
0100
1000
0001
0010
,
0001
0100
1000
0100
,
0010
0100
0010
0001
,
0100
0010
1000
0001
,
0010
1000
0100
0010
,
0100
0010
0001
0100
,
1001
0001
0000
0100
,
0000
0010
0000
1000
,
0000
0100
0000
0010
,
0000
0001
0000
0100
,
1001
0100
0000
0010
,
0000
1000
0000
0100
,
0000
0001
0000
1000
,
0000
0001
0000
0100
,
0110
0000
0010
0000
,
0010
0000
0010
0000
,
0010
0000
0010
0000
,
0010
0000
0010
0000
,
0010
0010
0010
0010
,
0010
0010
0010
0010
,
0010
1000
0100
0010
,
0001
0100
0001
1000
,
0001
0000
0100
0000
1000
0001
1000
0000
,
0010
0000
0100
0000
0001
0010
0001
0000
,
2000
0000
0000
0002
0000
0000
0000
0000
,
0000
0000
0000
3003
,
0100
0000
0001
0000
1000
0100
1000
0000
,
0010
0000
1000
0000
0100
0010
0100
0000
,
0200
0000
0000
0020
0000
0000
0000
0000
,
0000
0000
0000
0330
,
0001
0000
0100
0000
1000
0010
1000
0000
,
0100
0000
0010
0000
0100
1000
0100
0000
,
2000
0000
0000
0020
0000
0000
0000
0000
,
0000
0000
0000
3030
,
1000
0000
0100
0000
0010
0001
0010
0000
,
0100
0000
0010
0000
0001
0100
0001
0000
,
1000
0000
0000
0001
0000
0010
0002
0200
,
0000
0000
0000
0303
,
0001
0000
0010
0000
0001
1000
0001
0000
,
0100
0000
0010
0000
0001
1000
0001
0000
,
0200
0000
0000
0020
0000
0000
0000
0000
,
0000
0000
0000
0330
,
0100
0000
0010
0000
1000
0100
1000
0000
,
0001
0000
0010
0000
0100
1000
0100
0000
,
2000
0000
0000
0002
0000
0000
0000
0000
,
0000
0000
0000
3003
,
0010
0000
0001
0000
0100
0001
0100
0000
,
1000
0000
0010
0000
0001
1000
0001
0000
,
2000
0000
0000
0200
0000
0000
0000
0000
,
0000
0000
0000
3300
,
1000
0000
0010
0000
1000
0001
1000
0000
,
0001
0000
0010
0000
0100
0010
0100
0000
,
1000
0000
0000
0010
0000
0100
0002
0020
,
0000
0000
0000
0033
,
1001
0000
0000
0000
;

//---------------dance-single - ----------------
#NOTES:
     dance-single:
     :
     Beginner:
     5:
     0.197520,0.304745,0.021163,0.056434,0.000000,196.000000,193.000000,3.000000,8.000000,0.000000,0.000000,0.197520,0.304745,0.021163,0.056434,0.000000,196.000000,193.000000,3.000000,8.000000,0.000000,0.000000:
// measure 0
0000
0000
0000
0000
,  // measure 1
0000
0000
0000
0000
,  // measure 2
0000
0000
0000
0000
,  // measure 3
0000
0000
0000
0000
,  // measure 4
0000
0000
0000
0000
,  // measure 5
0000
0000
0000
0000
,  // measure 6
0000
0000
0000
0000
,  // measure 7
0000
0000
0000
0000
,  // measure 8
0010
0000
0010
0000
,  // measure 9
0010
0000
0010
0000
,  // measure 10
0010
0000
0010
0000
,  // measure 11
0010
0000
0010
0000
,  // measure 12
0010
0010
0010
0010
,  // measure 13
0010
0010
0010
0010
,  // measure 14
0010
0010
0010
0010
,  // measure 15
0010
0010
0010
0010
,  // measure 16
0010
0000
0001
0000
,  // measure 17
1000
0000
0010
0000
,  // measure 18
1000
0000
0100
0000
,  // measure 19
0010
0000
0001
0000
,  // measure 20
0100
0000
0001
0000
,  // measure 21
1000
0000
0100
0000
,  // measure 22
0010
0000
0100
0000
,  // measure 23
0010
0000
0001
0000
,  // measure 24
0100
0000
0100
0000
,  // measure 25
0001
0000
0010
0000
,  // measure 26
1000
0000
0010
0000
,  // measure 27
0001
0000
0001
0000
,  // measure 28
1000
0000
0010
0000
,  // measure 29
0100
0000
0010
0000
,  // measure 30
0100
0000
0001
0000
,  // measure 31
0010
0000
1000
0000
,  // measure 32
0001
0001
0001
0000
,  // measure 33
1000
1000
1000
0000
,  // measure 34
0010
0010
0010
0000
,  // measure 35
0100
0100
0100
0000
,  // measure 36
0001
0001
0001
0000
,  // measure 37
1000
1000
1000
0000
,  // measure 38
0100
0100
0100
0000
,  // measure 39
0010
0010
0010
0000
,  // measure 40
0001
0010
0001
0000
,  // measure 41
1000
0010
1000
0000
,  // measure 42
0001
0100
0001
0000
,  // measure 43
1000
0100
1000
0000
,  // measure 44
0010
0100
0010
0000
,  // measure 45
0100
0010
0100
0000
,  // measure 46
0001
1000
0001
0000
,  // measure 47
1000
0001
1000
0000
,  // measure 48
1001
0000
0000
0000
,  // measure 49
0010
0000
0000
0000
,  // measure 50
1000
0000
0000
0000
,  // measure 51
0100
0000
0000
0000
,  // measure 52
0110
0000
0000
0000
,  // measure 53
0010
0000
0000
0000
,  // measure 54
0001
0000
0000
0000
,  // measure 55
1000
0000
0000
0000
,  // measure 56
0010
0000
0010
0000
,  // measure 57
0010
0000
0010
0000
,  // measure 58
0010
0000
0010
0000
,  // measure 59
0010
0000
0010
0000
,  // measure 60
0010
0010
0010
0010
,  // measure 61
0010
0010
0010
0010
,  // measure 62
0010
0010
0010
0010
,  // measure 63
0010
0010
0010
0010
,  // measure 64
0010
0000
1000
0000
,  // measure 65
0100
0100
0100
0000
,  // measure 66
2000
0000
0000
0000
,  // measure 67
0000
0000
3000
0000
,  // measure 68
0001
0000
0010
0000
,  // measure 69
0001
0001
0001
0000
,  // measure 70
0200
0000
0000
0000
,  // measure 71
0000
0000
0300
0000
,  // measure 72
0010
0000
0100
0000
,  // measure 73
0010
0010
0010
0000
,  // measure 74
0002
0000
0000
0000
,  // measure 75
0000
0000
0003
0000
,  // measure 76
1000
0000
0100
0000
,  // measure 77
1000
1000
1000
0000
,  // measure 78
0010
0000
0100
0000
,  // measure 79
0020
0000
0030
0000
,  // measure 80
0001
0001
0001
0000
,  // measure 81
1000
0100
1000
0000
,  // measure 82
0020
0000
0000
0000
,  // measure 83
0000
0000
0030
0000
,  // measure 84
1000
1000
1000
0000
,  // measure 85
0100
1000
0001
0000
,  // measure 86
2000
0000
0000
0000
,  // measure 87
0000
0000
3000
0000
,  // measure 88
1000
1000
1000
0000
,  // measure 89
0010
0100
0001
0000
,  // measure 90
0200
0000
0000
0000
,  // measure 91
0000
0000
0300
0000
,  // measure 92
0010
0010
0010
0000
,  // measure 93
1000
0001
0010
0000
,  // measure 94
0001
0000
1000
0000
,  // measure 95
0002
0000
0003
0000
,  // measure 96
1001
0000
0000
0000
;
