#VERSION:0.83;
#TITLE:Crystalia;
#SUBTITLE:;
#ARTIST:DJ TOTTO;
#TITLETRANSLIT:;
#SUBTITLETRANSLIT:;
#ARTISTTRANSLIT:;
#GENRE:;
#ORIGIN:;
#CREDIT:;
#BANNER:Crystalia-bn.png;
#BACKGROUND:Crystalia-bg.png;
#PREVIEWVID:;
#JACKET:Crystalia-jacket.png;
#CDIMAGE:;
#DISCIMAGE:;
#LYRICSPATH:;
#CDTITLE:;
#MUSIC:Crystalia.ogg;
#OFFSET:0.750000;
#SAMPLESTART:91.472000;
#SAMPLELENGTH:20.000000;
#SELECTABLE:YES;
#DISPLAYBPM:135.000000;
#BPMS:0.000=135.000;
#STOPS:;
#DELAYS:;
#WARPS:;
#TIMESIGNATURES:0.000=4=4;
#TICKCOUNTS:0.000=4;
#COMBOS:0.000=1;
#SPEEDS:0.000=1.000=0.000=0;
#SCROLLS:0.000=1.000;
#FAKES:;
#LABELS:0.000=Song Start;
#BGCHANGES:;
#KEYSOUNDS:;
#ATTACKS:
;

//---------------dance-single - ----------------
#NOTEDATA:;
#CHARTNAME:;
#STEPSTYPE:dance-single;
#DESCRIPTION:;
#CHARTSTYLE:;
#DIFFICULTY:Hard;
#METER:17;
#RADARVALUES:0.701448,0.926306,0.519502,0.544639,0.766685,586.000000,524.000000,62.000000,65.000000,0.000000,0.000000,0.000000,0.000000,0.000000,0.701448,0.926306,0.519502,0.544639,0.766685,586.000000,524.000000,62.000000,65.000000,0.000000,0.000000,0.000000,0.000000,0.000000;
#CREDIT:;
#DISPLAYBPM:135.000000;
#NOTES:
0000
0000
0000
0000
,
0000
0000
0000
0000
,
0000
0000
0000
0000
,
0000
0000
0000
0000
,
0000
0000
0000
0000
,
0000
0000
0000
0000
,
0000
0000
0000
0000
,
0022
0000
0000
0000
0000
0033
2002
0000
,
3003
0202
0000
0303
2020
0000
3030
2200
,
0000
0000
0000
0000
3300
1000
0001
0100
,
0220
0000
0000
0000
0000
0330
2020
0000
,
3030
0202
0000
0303
0022
0000
0000
0000
,
0000
0033
2200
0000
0000
0000
0000
3300
,
2001
0000
0000
0001
0000
0000
3002
0000
0000
0100
0000
0000
0203
0000
0000
0010
,
0000
0000
0320
0000
0000
1000
0000
0000
2030
0000
0000
0100
0000
0000
3200
0000
,
0000
0010
0000
0000
0320
0000
0000
0001
0000
0000
0032
0000
0000
1000
0000
0000
,
1003
0000
0010
0100
0010
0000
1000
0000
0100
0010
0100
0000
1000
0000
0001
0010
,
0001
0000
0011
0000
0110
0000
1100
0000
0100
0000
0010
0001
0010
0000
0100
0000
,
1000
0010
1000
0000
0100
0000
1000
0001
1000
0000
1010
0000
1001
0000
0101
0000
,
0001
0000
0010
0100
0010
0000
0001
0000
1000
0100
1000
0000
0001
0000
1000
0010
,
1000
0000
1100
0000
1010
0000
0110
0000
0010
0000
1000
0001
1000
0000
0010
0000
,
0100
0001
0100
0000
0010
0000
1000
0001
0010
0100
0010
0001
0100
0010
1000
0000
,
1001
0000
0001
0010
0100
0000
1100
0000
1000
0001
0100
0000
0101
0000
0100
0010
,
1000
0000
1010
0000
1100
0000
0110
0000
0011
0000
0001
1000
0100
0000
1100
0000
,
1000
0010
0100
0000
0110
0000
0100
0001
0010
0000
0011
0000
1100
0000
0101
0000
,
1001
0000
0100
0001
1000
0000
1010
0000
0001
0010
0100
0000
1100
0000
0010
1000
,
0001
0000
1001
0000
0110
0000
1010
0000
0101
0000
0001
0010
0100
0000
1100
0000
,
1000
0001
0010
0000
0011
0000
0100
0010
1000
0100
0010
0001
1000
0001
0100
0000
,
0001
0010
1000
0010
0001
0000
0001
0100
1000
0100
0001
0000
0001
0010
1000
0010
,
0001
0000
0001
0010
0100
1000
0010
0100
0001
0100
1000
0100
0001
0000
0001
0010
,
1000
0010
0001
0000
0001
0100
1000
0100
0001
0000
0001
0100
0010
0100
0001
0010
,
1000
0010
0001
0010
1000
0000
1000
0010
0001
0010
1000
0000
1000
0010
0001
0010
,
1000
0000
1000
0010
0001
0010
0001
0100
1000
0100
0001
0100
1000
0000
1000
0100
,
0001
0100
1000
0000
1000
0100
0001
0100
1000
0000
0001
1000
0010
1000
0100
0010
,
0100
1000
0010
1000
0100
0010
0001
0100
1000
0100
0001
0000
0010
0100
0010
0001
,
0100
0010
1000
0100
0001
0100
1000
0000
0010
0100
0001
0010
0100
1000
0010
1000
,
0001
0010
0100
0000
0010
0100
0010
0001
0100
0010
1000
0100
0001
0100
1000
0000
,
0001
1000
0010
0100
0010
1000
0100
0010
0001
0100
0001
0000
0010
0100
1000
0100
,
1000
0010
0100
0001
1000
0001
0100
0000
0010
1000
0010
1000
0010
1000
0001
0100
,
0001
0100
0001
0100
0001
0010
0001
0010
0001
0010
0100
1000
0100
1000
0100
1000
,
0002
0000
0000
0020
0000
0003
0200
0000
,
0030
2000
0000
0300
0020
0000
0000
0000
,
0000
3000
0200
0000
0000
0000
0000
0030
,
0020
0000
0300
2000
0000
0030
0002
0000
,
3000
0200
0000
0003
0002
0000
0000
0000
,
0000
0300
2000
0000
0000
0000
0000
3003
,
2002
0000
3003
0022
0000
0033
0202
0000
,
0303
2200
0000
3300
2020
0000
0000
0000
,
0000
3030
0002
0000
2003
0000
3010
0100
,
0220
0000
0000
0330
0010
1000
2200
0000
,
0000
3300
1000
0001
0022
0000
0000
0000
,
0000
0000
0033
0000
2002
0000
0000
0000
3003
0000
0001
0000
0000
0000
0001
1000
,
0001
0010
1000
0010
0001
0000
1000
0010
0001
0010
1000
0000
0001
0010
1000
0010
,
0001
0100
1000
0100
0001
1000
0100
0010
0001
0100
1000
0100
0001
0000
0010
0000
,
0001
0100
0010
1000
0100
0000
1100
0000
0110
0000
0011
0000
0001
0000
1000
0001
,
1000
0100
0001
0100
1000
0000
0001
0100
1000
0100
0001
0000
1000
0010
0001
0010
,
1000
0100
0001
0100
1000
0010
0100
0001
0020
0000
0001
0000
1000
0000
0032
0000
,
0100
0000
1003
0001
0010
0000
0011
0000
0101
0000
1001
0000
1010
0000
1100
0000
,
1000
0010
0001
0010
1000
0000
0100
1000
0100
0001
0100
0000
0010
0001
0010
1000
,
0010
0001
0100
1000
0100
0010
0100
1000
0100
0001
0010
0100
1000
0001
0100
0000
,
0010
0100
0010
1000
0001
0000
0011
0000
1001
0000
0120
0000
0000
0000
1030
0010
,
0100
0001
0010
0001
0100
0001
0010
0001
0010
1000
0010
0001
1000
0100
0001
0100
,
1000
0010
0100
0010
0001
0010
0100
0001
1000
0010
0001
1000
0100
0001
1000
0010
,
0001
1000
0100
0001
1000
0010
0100
0001
0010
0100
1000
0001
0100
0001
1000
0010
,
0100
0000
2020
0000
,
0000
0000
0000
0000
,
0000
0000
0000
0000
,
3030
0000
0000
0000
;

//---------------dance-single - ----------------
#NOTEDATA:;
#CHARTNAME:;
#STEPSTYPE:dance-single;
#DESCRIPTION:;
#CHARTSTYLE:;
#DIFFICULTY:Medium;
#METER:12;
#RADARVALUES:0.463243,0.729817,0.226235,0.418953,0.163392,387.000000,360.000000,27.000000,50.000000,0.000000,0.000000,0.000000,0.000000,0.000000,0.463243,0.729817,0.226235,0.418953,0.163392,387.000000,360.000000,27.000000,50.000000,0.000000,0.000000,0.000000,0.000000,0.000000;
#CREDIT:;
#DISPLAYBPM:135.000000;
#NOTES:
0000
0000
0000
0000
,
0000
0000
0000
0000
,
0000
0000
0000
0000
,
0000
0000
0000
0000
,
0000
0000
0000
0000
,
0000
0000
0000
0000
,
0000
0000
0000
0000
,
2002
0000
0000
0000
0000
3003
0002
0000
,
0000
2003
0000
0000
3020
0000
0000
0200
,
0000
0000
0000
0000
0330
0010
1000
0100
,
0220
0000
0000
0000
0000
0330
0020
0000
,
0000
0032
0000
0000
2003
0000
0000
0000
,
0000
0000
3200
0000
0000
0000
0000
0300
,
2001
0000
0000
3002
0000
0000
0023
0000
,
0000
0230
0000
0000
2300
0000
0000
3020
,
0000
0000
0230
0000
0000
0302
0000
0000
,
1003
0001
0010
0100
1000
0010
0100
0001
,
1000
0001
0100
0001
0010
0100
0010
0001
,
0100
0010
1000
0001
1000
0100
1000
0001
,
0010
0100
1000
0010
1000
0001
1000
0100
,
0010
0100
1000
0010
0100
0001
0010
0100
,
0010
0100
1000
0001
1000
0001
0010
0001
,
0010
0001
1000
0100
0010
0100
0010
0100
,
1000
0001
1000
0001
1000
0010
0100
0001
,
1000
0100
0010
0001
1000
0010
0100
0001
,
0010
0001
0100
0010
1000
0001
1000
0100
,
0010
0100
0010
0001
1000
0010
0100
0010
,
1000
0100
1000
0100
0010
0001
1000
0010
,
1000
0010
0000
1000
0010
0000
0100
0000
0001
0000
1000
0000
0100
0010
0000
0100
,
0010
0000
0001
0000
0100
0000
0010
0000
1000
0001
0000
1000
0001
0000
0010
0000
,
0100
0000
1000
0000
0001
0100
0000
0001
0100
0000
0001
1000
0000
1000
0100
0000
,
0010
0001
0000
0010
0001
0000
0100
0000
0001
0000
1000
0000
0100
1000
0000
0100
,
1000
0000
0010
0000
1000
0000
0001
0000
1000
0001
0000
1000
0001
0000
0010
0000
,
0001
0000
0100
0000
0010
0100
0000
0010
0100
0000
0001
0000
0010
0000
0100
0000
,
1000
0010
0000
0010
0100
0000
0010
0000
1000
0000
0001
0000
0010
0001
0000
0001
,
0100
0000
0010
0000
0100
0000
0001
0000
0010
0100
0000
0100
1000
0000
0001
0000
,
1000
0000
0010
0000
0100
0001
0000
0001
1000
0000
0010
0100
0000
0010
0100
0000
,
0010
1000
0000
1000
0001
0000
1000
0000
0010
0000
0100
0000
0001
0010
0000
0010
,
0100
0000
0010
0000
0001
0000
1000
0000
0100
1000
0000
1000
0010
0000
1000
0000
,
0001
0000
0010
0000
0100
1000
0000
1000
0001
0000
1000
0000
0010
0000
0100
0000
,
0002
0000
0000
0023
0000
0000
0230
0000
,
0000
2300
0000
0000
3020
0000
0000
0000
,
0000
0230
0000
0000
,
0320
0000
0000
2030
0000
0000
3002
0000
,
0000
0203
0000
0000
0302
0000
0000
0000
,
0000
0000
2003
0000
0000
0000
0000
3000
,
2001
0000
0000
3200
0000
0000
0320
0000
,
0000
0032
0000
0000
2003
0000
0000
0000
,
0000
0000
3020
0000
0230
0000
0001
0301
,
0202
0000
0000
0300
1000
1003
2200
0000
,
0000
0300
0010
3010
2020
0000
0000
0000
,
0000
0000
0030
0000
0002
0000
0000
0000
3003
0000
1001
0000
0000
0000
0001
1000
,
0001
0010
0100
0010
0001
0100
0010
1000
,
0001
1000
0100
0010
0100
1000
0001
0010
,
0001
0000
0100
0000
0001
0000
0010
0000
0100
0000
2000
0000
0000
0000
3001
1000
,
0001
0100
0010
1000
0100
1000
0100
0010
,
0100
1000
0010
0100
0001
1000
0001
0010
,
0100
1000
1100
1100
1100
0101
0101
0101
,
0001
1000
0100
0010
0100
1000
0010
1000
,
0001
0010
0001
0100
0001
1000
0010
0100
,
0010
0000
1000
0000
0100
0000
0010
0000
0001
0000
2000
0000
0000
0000
3001
1000
,
0001
0010
0001
0011
0110
1100
1000
0010
,
1000
1010
1001
0101
0001
1000
0001
0010
,
0100
1000
1010
1010
1010
0101
0101
0101
,
0000
0000
2200
0000
,
0000
0000
0000
0000
,
0000
0000
0000
0000
,
3300
0000
0000
0000
;

//---------------dance-single - ----------------
#NOTEDATA:;
#CHARTNAME:;
#STEPSTYPE:dance-single;
#DESCRIPTION:;
#CHARTSTYLE:;
#DIFFICULTY:Easy;
#METER:9;
#RADARVALUES:0.338754,0.505258,0.201098,0.268130,0.000000,283.000000,259.000000,24.000000,32.000000,0.000000,0.000000,0.000000,0.000000,0.000000,0.338754,0.505258,0.201098,0.268130,0.000000,283.000000,259.000000,24.000000,32.000000,0.000000,0.000000,0.000000,0.000000,0.000000;
#CREDIT:;
#DISPLAYBPM:135.000000;
#NOTES:
0000
0000
0000
0000
,
0000
0000
0000
0000
,
0000
0000
0000
0000
,
0000
0000
0000
0000
,
0000
0000
0000
0000
,
0000
0000
0000
0000
,
0000
0000
0000
0000
,
1010
0000
0000
0002
,
0000
2003
0000
0000
3020
0000
0000
0200
,
0000
0000
0030
0000
0000
0301
0000
0000
,
0101
0000
0000
2000
,
0000
3200
0000
0000
0320
0000
0000
0000
,
0000
0032
0000
0000
,
0103
0000
0000
0010
,
0000
0000
1000
0000
,
0000
0000
0001
0000
0000
1001
0000
0000
,
1000
1000
0000
0001
0001
0000
0010
0010
,
0000
0100
1000
0001
0100
0100
0000
0010
,
0010
0000
1000
1000
0000
0010
1000
0001
,
0010
0010
0000
0001
0001
0000
0100
0100
,
0000
0001
0010
0100
1000
1000
0000
0010
,
0010
0000
0100
0100
0000
0001
1000
0001
,
1000
1100
0000
0001
0101
0000
0100
0110
,
0000
0010
1000
0100
0010
0011
0000
0001
,
1001
0000
1000
1010
0000
0100
1000
0001
,
0100
0101
0000
0001
0011
0000
0010
0110
,
0000
0100
1000
0100
1000
1010
0000
0010
,
0110
0000
0100
0101
0000
0001
0010
0100
,
1000
0000
0000
1000
0100
0010
0001
0000
,
0000
0001
0010
0100
1000
0000
0000
0010
,
0100
0001
1000
0000
0000
1000
0010
0100
,
0001
0000
0000
0001
0100
0010
1000
0000
,
0000
0001
1000
0010
0100
0000
0000
0010
,
0100
0010
0100
0000
0000
0001
1000
0001
,
1000
0000
1000
0001
0100
0010
1000
0000
,
1000
0100
0010
0100
0010
0000
0010
0001
,
0100
0001
1000
0000
1000
0001
0010
0001
,
0100
0000
0100
0010
0100
0001
0010
0000
,
0010
0100
1000
0100
0010
0000
0010
0100
,
0010
0001
0100
0000
0100
0001
0010
0100
,
2000
0000
0000
3002
,
0000
0000
0203
0000
,
0000
0320
0000
0000
,
2030
0000
0000
3200
,
0000
0000
0320
0000
,
0000
0032
0000
0003
,
0022
0000
0033
2020
,
0000
3030
2200
0000
,
3300
1000
0001
0100
,
2002
0000
3003
0220
,
0000
0330
0202
0000
,
0303
0000
2000
0000
0000
0002
0000
3003
,
1000
0010
0000
0010
0100
0000
0100
0001
,
0000
0001
1000
0100
0010
0100
0000
1000
,
0001
0000
1000
0010
0100
0001
0000
0000
,
0010
0001
0000
0001
1000
0000
1000
0010
,
0000
0010
1000
0100
0010
0000
0001
0100
,
0000
0010
0100
0010
1000
0100
0010
0001
,
1000
0001
0100
0001
1000
0100
1000
0010
,
0100
0001
1000
0000
0001
0010
0100
1000
,
0010
0100
0001
1000
0100
1000
0000
0000
,
0010
0100
0001
1000
1001
0000
0001
0010
,
0100
1000
1100
0000
1000
0010
1000
0100
,
0010
0001
0100
0001
1000
0010
0100
0010
,
0000
0000
0220
0000
,
0000
0000
0000
0000
,
0000
0000
0000
0000
,
0330
0000
0000
0000
;

//---------------dance-single - ----------------
#NOTEDATA:;
#CHARTNAME:;
#STEPSTYPE:dance-single;
#DESCRIPTION:;
#CHARTSTYLE:;
#DIFFICULTY:Beginner;
#METER:4;
#RADARVALUES:0.116110,0.168419,0.058653,0.016758,0.000000,97.000000,90.000000,7.000000,2.000000,0.000000,0.000000,0.000000,0.000000,0.000000,0.116110,0.168419,0.058653,0.016758,0.000000,97.000000,90.000000,7.000000,2.000000,0.000000,0.000000,0.000000,0.000000,0.000000;
#CREDIT:;
#DISPLAYBPM:135.000000;
#NOTES:
// measure 0
0000
0000
0000
0000
,  // measure 1
0000
0000
0000
0000
,  // measure 2
0000
0000
0000
0000
,  // measure 3
0000
0000
0000
0000
,  // measure 4
0000
0000
0000
0000
,  // measure 5
0000
0000
0000
0000
,  // measure 6
0000
0000
0000
0000
,  // measure 7
0100
0000
0000
1000
,  // measure 8
0000
0000
0001
0000
,  // measure 9
0000
0000
0000
0000
,  // measure 10
0100
0000
0000
0010
,  // measure 11
0000
0000
1000
0000
,  // measure 12
0000
0001
0000
0000
,  // measure 13
1001
0000
0000
0000
,  // measure 14
0000
0000
0010
0000
,  // measure 15
0000
0000
0000
0000
,  // measure 16
1000
0000
0000
0001
,  // measure 17
0000
0000
0010
0000
,  // measure 18
0000
0100
0000
0000
,  // measure 19
1000
0000
0000
0010
,  // measure 20
0000
0000
0100
0000
,  // measure 21
0000
0001
0000
0000
,  // measure 22
1000
0000
0000
1000
0000
0000
1000
0000
,  // measure 23
0000
0000
0000
0000
0100
0000
0000
0100
,  // measure 24
0000
0100
0000
0000
,  // measure 25
0010
0000
0000
0010
0000
0000
0010
0000
,  // measure 26
0000
0000
0000
0000
0001
0000
0000
0001
,  // measure 27
0000
0001
0000
0000
,  // measure 28
0100
0000
0000
0010
,  // measure 29
0000
0000
1000
0000
,  // measure 30
0000
0001
0000
0000
,  // measure 31
0010
0000
0000
0001
,  // measure 32
0000
0000
1000
0000
,  // measure 33
0000
0100
0000
0000
,  // measure 34
1000
0000
0000
0010
,  // measure 35
0000
0000
0100
0000
,  // measure 36
0000
0001
0000
0000
,  // measure 37
0100
0000
0000
0010
,  // measure 38
0000
0000
1000
0000
,  // measure 39
0000
0001
0000
0000
,  // measure 40
1001
0000
0000
0000
,  // measure 41
0000
0000
0001
0000
,  // measure 42
0000
0000
0000
0000
,  // measure 43
0100
0000
0000
0000
,  // measure 44
0000
0000
0010
0000
,  // measure 45
0000
0000
0000
0000
,  // measure 46
1000
0000
0000
0100
,  // measure 47
0000
0000
0010
0000
,  // measure 48
0000
0001
0000
0000
,  // measure 49
1001
0000
0000
0110
,  // measure 50
0000
0000
1001
0000
,  // measure 51
0000
0110
0000
0000
,  // measure 52
0001
0000
0000
0001
0000
0000
0001
0000
,  // measure 53
0000
1000
0000
0000
0010
0000
0000
0100
,  // measure 54
0000
0000
0010
0000
0000
1000
0000
0000
,  // measure 55
0100
0000
0000
0010
0000
0000
0001
0000
,  // measure 56
0000
0100
0000
0000
0010
0000
0000
0010
,  // measure 57
0000
0000
1000
0000
0000
0001
0000
0000
,  // measure 58
1000
0000
0000
0100
0000
0000
0010
0000
,  // measure 59
0000
0001
0000
0000
0100
0000
0000
0010
,  // measure 60
0000
0000
1000
0000
0000
0001
0000
0000
,  // measure 61
0010
0000
0000
0010
0000
0000
0100
0000
,  // measure 62
0000
0100
0000
0000
1000
0000
0000
0001
,  // measure 63
0000
0000
1000
0000
0000
0001
0000
0000
,  // measure 64
0000
0000
2002
0000
,  // measure 65
0000
0000
0000
0000
,  // measure 66
0000
0000
0000
0000
,  // measure 67
3003
0000
0000
0000
;
