#TITLE:Crvzy;
#SUBTITLE:;
#ARTIST:Ness Heads;
#TITLETRANSLIT:;
#SUBTITLETRANSLIT:;
#ARTISTTRANSLIT:;
#GENRE:;
#CREDIT:;
#BANNER:Crvzy-bn.png;
#BACKGROUND:Crvzy-bg.png;
#LYRICSPATH:;
#CDTITLE:;
#MUSIC:Crvzy.ogg;
#OFFSET:0.000000;
#SAMPLESTART:13.241000;
#SAMPLELENGTH:20.000000;
#SELECTABLE:YES;
#DISPLAYBPM:145.000000;
#BPMS:0.000000=145.000000
;
#STOPS:
;
#BGCHANGES:;
#KEYSOUNDS:;
#ATTACKS:;

//---------------dance-single - ----------------
#NOTES:
     dance-single:
     :
     Hard:
     12:
     0.499638,0.500705,0.416205,0.416205,0.000000,521.000000,459.000000,62.000000,62.000000,0.000000,0.000000,0.499638,0.500705,0.416205,0.416205,0.000000,521.000000,459.000000,62.000000,62.000000,0.000000,0.000000:
0000
0000
0000
0000
,
0000
0000
0000
0000
,
0000
0000
0000
0000
,
0000
0000
0000
0000
,
0000
0000
0000
0000
,
0000
0000
0000
0000
,
0000
0000
0000
0000
,
0000
0000
0000
0000
,
0001
0010
1000
0010
0100
0001
0100
1000
,
0020
0130
1010
0101
,
0010
0001
0010
0100
0001
0100
1000
0001
,
0200
0310
0110
1001
,
0001
0010
0100
0001
0100
1000
0010
0100
,
0002
1003
1100
0011
,
0100
0010
0100
1000
0100
0001
0010
0100
,
2000
3010
1010
0011
,
0200
0000
0310
1000
0100
0010
0001
0000
,
2001
0100
3100
0000
1000
0001
0010
0001
,
2000
0000
3100
1000
0010
0100
0001
0000
,
0021
0100
0130
0000
0010
0001
1000
0001
,
0020
0000
0031
0100
1000
0100
0010
0000
,
2010
0001
3001
0000
1000
0100
0010
0100
,
0020
0000
0130
1000
0010
0100
0001
1000
,
0002
1000
1003
0000
0011
0100
0001
0000
,
0200
0000
0310
0100
0001
0010
1000
0000
,
0210
1000
1300
0000
0001
0010
0001
0100
,
0002
0000
0013
0001
0100
0010
1000
0100
,
0020
0001
0031
0000
1000
0100
1000
0010
,
2001
0000
3100
0010
0001
0100
0010
1000
,
0200
0001
0301
0000
0100
1000
0010
1000
,
2100
0000
3001
0010
0001
0100
0010
1000
,
0002
0010
0013
0000
0101
1000
0001
0000
,
0020
0000
0031
0100
1000
0000
1010
0000
,
0001
0010
0100
0000
1000
0010
0001
0000
,
0200
0320
2030
3002
,
0013
0001
0100
0010
1000
0001
0011
0000
,
0200
0000
0301
0010
1000
0000
1100
0000
,
1000
0010
0100
0000
0001
0010
1000
0000
,
0200
0000
0320
0000
0032
0000
1003
0001
,
0010
0001
0100
0010
1000
0001
2001
0000
,
3010
1000
0100
0001
0100
0010
0001
0100
,
0020
1030
1100
0011
,
0100
1000
0100
0010
0100
0001
1000
0010
,
0200
0301
0011
1010
,
1000
0010
0100
0010
0001
0010
1000
0001
,
2000
3100
1001
0110
,
0100
0001
0010
0100
0001
0100
1000
0010
,
0200
0301
0101
1100
,
0010
1000
0010
0001
0010
0100
0001
1000
,
0200
0010
0310
0000
0002
1000
1003
0000
,
0010
0001
0010
0100
0001
0010
0100
1000
,
0002
0100
0103
0000
0020
1000
1030
0000
,
0100
1000
0010
0100
1000
0100
0001
0010
,
0002
1000
1003
0000
0200
0010
0310
0000
,
0100
0001
0100
0010
1000
0010
0001
0100
,
0020
1000
1030
0000
0002
0100
0103
0000
,
2002
0000
0000
3000
,
0200
0300
1000
0103
,
0220
0000
0000
0030
,
2000
3000
0001
0310
,
2000
0000
0000
3001
0101
0000
0101
0000
,
0000
0010
1010
0000
0000
0100
1100
0000
,
0002
0000
0000
1003
1010
0000
1010
0000
,
0000
0001
0011
0000
0000
1000
1100
0000
,
0010
0000
1000
0001
0011
0000
1001
0000
,
0100
0010
2000
0000
3100
0010
0001
0100
,
0020
0000
1030
0001
0020
0000
0031
0200
,
0000
0301
1000
0001
0010
0100
1000
0000
,
0101
0000
1000
0001
0010
0000
0100
2000
,
0000
3001
1010
0000
0001
0100
0010
1000
,
0100
0000
1000
0001
0010
0000
0010
0200
,
0000
1300
0001
0000
1000
0010
0100
0001
,
0010
0000
0001
0100
0010
1000
0100
0000
,
0010
0001
1000
0001
0100
1000
0100
0010
,
1000
0000
0100
0010
0001
1000
0010
0200
,
0000
0301
0100
0010
1000
0100
0001
0000
,
0011
0000
0010
0001
1000
0010
0100
0002
,
0000
1003
0110
0000
0100
0001
0010
0000
,
1100
0000
1000
0010
0100
0001
0010
0100
,
0000
1000
0101
0000
0010
0100
0001
1000
,
0200
0000
0000
0310
0011
0000
0011
0000
,
0000
1000
1001
0000
0000
0001
0101
0000
,
2000
0000
0000
3100
0110
0000
0110
0000
,
0000
0010
1100
0000
0000
0100
0011
0000
,
0002
0000
0000
1003
1010
0000
1010
0000
,
0000
0100
1001
0000
0000
0010
0110
0000
,
0020
0000
0000
0130
0101
0000
0101
0000
,
0000
1000
0011
0000
0000
0001
0110
0000
;

//---------------dance-single - ----------------
#NOTES:
     dance-single:
     :
     Medium:
     8:
     0.360583,0.412345,0.483335,0.443057,0.000000,376.000000,304.000000,72.000000,66.000000,0.000000,0.000000,0.360583,0.412345,0.483335,0.443057,0.000000,376.000000,304.000000,72.000000,66.000000,0.000000,0.000000:
0000
0000
0000
0000
,
0000
0000
0000
0000
,
0000
0000
0000
0000
,
0000
0000
0000
0000
,
0000
0000
0000
0000
,
0000
0000
0000
0000
,
0000
0000
0000
0000
,
0000
0000
0000
0000
,
0001
0010
1000
0100
,
0010
0001
0101
0101
,
1000
0010
0100
0001
,
0010
1000
1100
1100
,
0001
0010
1000
0100
,
1000
0001
0011
0011
,
0010
0100
1000
0001
,
0100
0010
1010
1010
,
0002
0000
0203
0000
0301
0010
1000
0000
,
2002
0000
3003
0000
0010
0100
0010
0000
,
2000
0000
3020
0000
1030
0001
0100
0000
,
0220
0000
0330
0000
0001
1000
0001
0000
,
0020
0000
0230
0000
1300
0001
0100
0000
,
0220
0000
0330
0000
1000
0100
1000
0000
,
0002
0000
2003
0000
3100
0010
0001
0000
,
2002
0000
3003
0000
0010
1000
0010
0000
,
2000
0000
3200
0000
0310
0001
0100
0000
,
0202
0000
0303
0000
0001
0010
1000
0000
,
0002
0000
0023
0000
0031
0100
1000
0000
,
2020
0000
3030
0000
0010
0100
0001
0000
,
0020
0000
0032
0000
1003
0010
0100
0000
,
2002
0000
3003
0000
0001
0010
0100
0000
,
2000
0000
3020
0000
0130
0001
1000
0000
,
2200
0000
3300
0000
0001
0100
0010
0000
,
0002
0103
2000
3010
,
0001
0100
0010
0000
1000
0100
0001
0000
,
0020
0230
2300
3020
,
0230
0302
0023
0230
,
2300
3001
0200
0310
,
1000
0010
0100
0000
0001
0010
1000
0000
,
0200
0320
0032
2003
,
3002
0023
0230
2300
,
3001
0100
1000
0010
,
0100
0001
0011
0011
,
0100
1000
0010
0100
,
0001
1000
1100
1100
,
0001
1000
0010
0100
,
0010
1000
1010
1010
,
1000
0100
0010
0001
,
1000
0001
0101
0101
,
0001
0010
1000
0100
,
0110
0110
1001
1001
,
0010
1000
0100
0001
,
0011
0011
1100
1100
,
0001
0100
1000
0010
,
1010
1010
0101
0101
,
1000
0001
0010
0100
,
1100
0110
0011
1001
,
0200
0000
0000
0300
,
0020
0030
2000
3000
,
0200
0000
0000
0300
,
0020
0030
0002
0003
,
0100
0000
0110
0110
,
0000
0101
0000
1100
,
0001
0000
1001
1001
,
0000
0011
0000
1010
,
0002
0000
0010
0103
,
0001
0010
0100
0000
1000
0001
0100
0000
,
2000
0000
0001
3010
,
0100
1100
0001
0101
,
0020
0000
0001
1030
,
0100
0011
0010
1100
,
0200
0000
0010
1300
,
0001
0000
1000
0000
0001
0100
0010
1000
,
0200
0000
0001
0310
,
1000
0100
0001
0000
1000
0010
0100
0000
,
0020
0000
0001
0130
,
1000
0011
0001
0101
,
2000
0000
0010
3001
,
0100
0110
0010
0101
,
0002
0000
0100
1003
,
0010
0000
0100
0000
0001
1000
0100
0010
,
0001
0000
0101
0101
,
0000
1010
0000
1100
,
1000
0000
1010
1010
,
0000
0110
0000
1001
,
0010
0000
1100
1100
,
0000
0101
0000
1010
,
0100
0000
0011
0011
,
0000
1100
0000
0110
;

//---------------dance-single - ----------------
#NOTES:
     dance-single:
     :
     Easy:
     6:
     0.227283,0.294532,0.174538,0.241668,0.000000,237.000000,211.000000,26.000000,36.000000,0.000000,0.000000,0.227283,0.294532,0.174538,0.241668,0.000000,237.000000,211.000000,26.000000,36.000000,0.000000,0.000000:
0000
0000
0000
0000
,
0000
0000
0000
0000
,
0000
0000
0000
0000
,
0000
0000
0000
0000
,
0000
0000
0000
0000
,
0000
0000
0000
0000
,
0000
0000
0000
0000
,
0000
0000
0000
0000
,
0002
0000
0000
0003
,
1000
0010
0100
0001
,
0020
0000
0000
0030
,
0001
0010
1000
0100
,
2000
0000
0000
3000
,
0100
1000
0001
0010
,
0200
0000
0000
0300
,
1000
0010
0100
0001
,
0010
1000
0100
0001
,
1001
0000
0110
0000
,
1000
0100
0010
0001
,
0101
0000
1100
0000
,
0001
1000
0010
0100
,
1010
0000
0011
0000
,
0100
0001
0010
0100
,
1100
0000
0101
0000
,
0001
1000
0010
0100
,
0110
0000
1001
0000
,
0100
0001
0010
1000
,
1010
0000
0011
0000
,
1000
0010
0100
0001
,
0011
0000
0101
0000
,
1000
0100
0001
0010
,
1100
0000
1010
0000
,
2000
3000
0002
0003
,
0010
0001
0100
1000
,
0020
0030
0200
0300
,
0001
0010
0100
1000
,
0020
0030
2000
3000
,
0100
0010
0001
1000
,
0002
0003
0200
0300
,
0001
0010
1000
0100
,
2000
0000
0000
3000
,
0010
0100
0001
1000
,
0200
0000
0000
0300
,
1000
0001
0010
0100
,
0020
0000
0000
0030
,
0001
0100
1000
0010
,
0002
0000
0000
0003
,
0010
0001
0100
1000
,
0010
0000
0010
0000
,
1000
0100
0010
0001
,
0100
0000
0100
0000
,
0001
1000
0010
0100
,
0001
0000
0001
0000
,
0010
0001
1000
0100
,
1000
0000
1000
0000
,
0001
0100
0010
1000
,
2002
0000
0000
0000
,
0000
0000
0000
3003
,
0220
0000
0000
0000
,
0000
0000
0000
0330
,
2000
0000
0000
0000
,
0020
0030
0200
3300
,
0002
0000
0000
0000
,
0200
0300
0020
0033
,
0000
0000
1000
1000
,
0001
0010
0001
0100
,
0110
0000
0010
0010
,
1000
0001
1000
0100
,
1100
0000
0001
0100
,
0001
0010
1000
0100
,
0011
0000
0100
0010
,
1000
0001
1000
0100
,
1010
0000
0001
0010
,
0001
0100
0010
1000
,
0101
0000
0010
0010
,
1000
0001
1000
0100
,
1001
0000
0010
1000
,
0100
0010
0001
0100
,
0110
0000
0010
1000
,
0100
0100
1000
0001
,
1001
0000
0000
0000
,
0002
0003
2000
3000
,
0010
0000
0000
0000
,
0020
0030
0200
0300
,
0002
0000
0000
0000
,
0200
0300
0020
0033
,
2000
0000
0000
0000
,
0200
0300
0020
3030
;

//---------------dance-single - ----------------
#NOTES:
     dance-single:
     :
     Beginner:
     1:
     0.074802,0.133421,0.000000,0.000000,0.000000,78.000000,78.000000,0.000000,0.000000,0.000000,0.000000,0.074802,0.133421,0.000000,0.000000,0.000000,78.000000,78.000000,0.000000,0.000000,0.000000,0.000000:
// measure 0
0000
0000
0000
0000
,  // measure 1
0000
0000
0000
0000
,  // measure 2
0000
0000
0000
0000
,  // measure 3
0000
0000
0000
0000
,  // measure 4
0000
0000
0000
0000
,  // measure 5
0000
0000
0000
0000
,  // measure 6
0000
0000
0000
0000
,  // measure 7
0000
0000
0000
0000
,  // measure 8
0001
0000
0000
0000
,  // measure 9
0000
0000
0000
0000
,  // measure 10
0010
0000
0000
0000
,  // measure 11
0000
0000
0000
0000
,  // measure 12
1000
0000
0000
0000
,  // measure 13
0000
0000
0000
0000
,  // measure 14
0100
0000
0000
0000
,  // measure 15
0000
0000
0000
0000
,  // measure 16
0001
0000
0001
0000
,  // measure 17
0001
0000
0000
0000
,  // measure 18
1000
0000
1000
0000
,  // measure 19
1000
0000
0000
0000
,  // measure 20
0010
0000
0010
0000
,  // measure 21
0010
0000
0000
0000
,  // measure 22
0100
0000
0100
0000
,  // measure 23
0100
0000
0000
0000
,  // measure 24
0001
0000
0000
0000
,  // measure 25
0100
0000
0000
0000
,  // measure 26
0010
0000
0000
0000
,  // measure 27
1000
0000
0000
0000
,  // measure 28
0100
0000
0000
0000
,  // measure 29
0010
0000
0000
0000
,  // measure 30
0001
0000
0000
0000
,  // measure 31
1000
0000
0000
0000
,  // measure 32
0010
0000
0000
0000
,  // measure 33
0000
0000
0000
0000
,  // measure 34
0100
0000
0000
0000
,  // measure 35
0000
0000
0000
0000
,  // measure 36
0001
0000
0000
0000
,  // measure 37
0000
0000
0000
0000
,  // measure 38
1000
0000
0000
0000
,  // measure 39
0000
0000
0000
0000
,  // measure 40
0100
0000
0000
0000
,  // measure 41
1000
0000
0001
0000
,  // measure 42
1000
0000
0000
0000
,  // measure 43
0010
0000
0100
0000
,  // measure 44
0010
0000
0000
0000
,  // measure 45
0001
0000
1000
0000
,  // measure 46
0001
0000
0000
0000
,  // measure 47
0100
0000
0010
0000
,  // measure 48
0100
0000
0000
0000
,  // measure 49
0000
0000
0000
0000
,  // measure 50
0010
0000
0000
0000
,  // measure 51
0000
0000
0000
0000
,  // measure 52
1000
0000
0000
0000
,  // measure 53
0000
0000
0000
0000
,  // measure 54
0001
0000
0000
0000
,  // measure 55
0000
0000
0000
0000
,  // measure 56
0010
0000
0000
0000
,  // measure 57
0001
0000
0001
0000
,  // measure 58
0001
0000
0000
0000
,  // measure 59
1000
0000
1000
0000
,  // measure 60
1000
0000
0000
0000
,  // measure 61
0100
0000
0100
0000
,  // measure 62
0100
0000
0000
0000
,  // measure 63
0010
0000
0010
0000
,  // measure 64
0001
0000
0001
0000
,  // measure 65
0100
0000
0100
0000
,  // measure 66
0010
0000
0010
0000
,  // measure 67
1000
0000
1000
0000
,  // measure 68
0001
0000
0001
0000
,  // measure 69
0010
0000
0010
0000
,  // measure 70
0100
0000
0100
0000
,  // measure 71
1000
0000
1000
0000
,  // measure 72
1000
0000
0000
0000
,  // measure 73
0000
0000
0000
0000
,  // measure 74
0010
0000
0000
0000
,  // measure 75
0000
0000
0000
0000
,  // measure 76
0100
0000
0000
0000
,  // measure 77
0000
0000
0000
0000
,  // measure 78
0001
0000
0000
0000
,  // measure 79
0100
0000
0010
0000
;
