#TITLE:Crazy Train;
#SUBTITLE:;
#ARTIST:Ozzy Osbourne;
#TITLETRANSLIT:;
#SUBTITLETRANSLIT:;
#ARTISTTRANSLIT:;
#GENRE:;
#CREDIT:;
#BANNER:Crazy Train-bn.png;
#BACKGROUND:Crazy Train-bg.png;
#LYRICSPATH:;
#CDTITLE:;
#MUSIC:Crazy Train.ogg;
#OFFSET:0.000000;
#SAMPLESTART:49.150002;
#SAMPLELENGTH:20.000000;
#SELECTABLE:YES;
#DISPLAYBPM:134.000000:143.000000;
#BPMS:0.000000=136.000000
,16.000000=135.000000
,32.000000=137.000000
,40.000000=136.479996
,44.000000=135.750000
,56.000000=134.949997
,60.000000=137.000000
,63.000000=142.000000
,64.000000=137.332993
,71.000000=140.000000
,72.000000=139.125000
,80.000000=135.000000
,88.000000=136.750000
,94.000000=134.000000
,96.000000=136.000000
,98.000000=140.000000
,100.000000=138.000000
,108.000000=141.000000
,112.000000=137.000000
,126.000000=139.500000
,128.000000=138.100006
,144.000000=137.750000
,152.000000=137.998993
,163.500000=140.000000
,172.000000=136.666672
,176.000000=138.000000
,184.000000=139.000000
,191.000000=137.300003
,200.000000=139.350006
,216.000000=138.750000
,228.000000=137.998993
,252.000000=139.600006
,258.000000=138.000000
,262.000000=142.000000
,263.000000=143.000000
,263.500000=135.000000
;
#STOPS:
;
#BGCHANGES:;
#KEYSOUNDS:;
#ATTACKS:;

//---------------dance-single - x scale 3----------------
#NOTES:
     dance-single:
     :
     Beginner:
     3:
     0.146207,0.216152,0.163752,0.008188,0.000000,125.000000,105.000000,20.000000,1.000000,0.000000,0.000000,0.146207,0.216152,0.163752,0.008188,0.000000,125.000000,105.000000,20.000000,1.000000,0.000000,0.000000:
0000
0000
0000
0000
,
0000
0000
0000
0000
,
0000
0000
0000
0000
,
0000
0000
0000
0000
,
0001
0000
0000
0000
,
1000
0000
0001
0000
,
1000
0000
0000
0000
,
1001
0000
0110
0000
,
0000
0010
0000
0000
,
1000
0000
0001
0000
,
0000
0100
0000
0000
,
0001
0000
1000
0000
,
1001
0000
0000
0000
,
0000
0000
0100
0000
,
0010
0000
0000
0000
,
1000
0000
0001
0000
,
0100
0100
0100
0000
,
0000
0000
0001
0000
,
0010
0010
0010
0000
,
0100
0000
0010
0000
,
0110
0000
0000
0000
,
0000
0000
0010
0000
,
1000
0000
0000
0000
,
0001
0000
0100
0000
,
0001
0001
0001
0000
,
0000
0000
0100
0000
,
1000
1000
1000
0000
,
0010
0000
0100
0000
,
0001
0001
0000
0000
,
0110
0000
1001
0000
,
0100
0100
0000
0000
,
0110
0000
0000
0000
,
1001
0000
0000
0000
,
0100
0000
0100
0000
,
1001
0000
0000
0000
,
0000
0000
0000
0000
,
0110
0000
0000
0000
,
0010
0000
0010
0000
,
1000
1000
0000
0000
,
1001
0000
0110
0000
,
0010
0010
0000
0000
,
0110
0000
1001
0000
,
0010
0000
0000
0000
,
1000
0000
1000
0000
,
0100
0000
0000
0000
,
0001
0000
0001
0000
,
1000
0000
0000
0000
,
0100
0000
0100
0000
,
0001
0000
0000
0000
,
0010
0000
0010
0000
,
0100
0000
0000
0000
,
1000
0000
0000
0000
,
0010
0000
0010
0000
,
0200
0000
0300
0000
,
0010
0000
0110
0000
,
0010
0000
1001
0000
,
0001
0001
0001
0000
,
1000
1000
1000
0000
,
1001
0000
0000
0000
,
0110
0000
0000
0000
,
0100
0000
0100
0000
,
0110
0000
0000
0010
,
0010
0000
0100
0000
,
0001
0000
1000
0000
,
0000
0100
0100
0100
,
0100
0000
0010
0000
,
1001
0000
0000
0000
;

//---------------dance-single - x scale 7----------------
#NOTES:
     dance-single:
     :
     Easy:
     7:
     0.298262,0.351913,0.294753,0.335691,0.000000,255.000000,219.000000,36.000000,41.000000,0.000000,0.000000,0.298262,0.351913,0.294753,0.335691,0.000000,255.000000,219.000000,36.000000,41.000000,0.000000,0.000000:
0000
0000
0000
0000
,
0000
0000
0000
0000
,
0000
0000
0000
0000
,
0000
0000
0000
0000
,
0001
0001
0000
0000
0000
0000
0000
0000
,
1000
1000
0000
0000
0001
0001
0000
0000
,
1000
1000
0000
0000
0000
0000
0000
0000
,
2002
3003
0220
0330
,
0001
0000
1000
0000
0000
0010
0000
0000
,
1000
0000
0000
0001
0000
0000
0100
0010
,
0100
0000
0010
0000
0000
1000
0000
0000
,
0010
0000
0000
0100
0000
0001
1000
0001
,
1000
0000
0010
0000
0000
0100
0000
0000
,
0010
0000
0000
0100
0000
0000
0001
1000
,
0010
0000
1000
0000
0000
0100
0000
0000
,
0001
0000
0000
0100
0000
0000
1000
0001
,
0010
0000
0001
0000
0000
1000
0000
0000
,
0001
0000
0000
0010
0000
0000
1000
0100
,
0000
1000
0001
1000
0001
0000
0000
0000
,
0100
0000
0000
0100
0000
0200
0000
0000
,
0310
0000
1000
0000
0000
0100
0000
0000
,
0001
0000
0000
1000
0000
0000
0001
0010
,
0001
0000
0010
0000
0000
0100
0000
0000
,
0001
0000
0000
1000
0000
0000
0010
1000
,
0100
0000
1000
0000
0000
0010
0000
0000
,
0001
0000
0000
0010
0000
0000
0100
0001
,
0000
0100
0010
0100
0010
0000
0000
0000
,
1000
0000
0000
0100
0000
0001
0010
0000
,
0100
0100
0100
0000
0000
1100
0000
0022
,
0000
0033
0220
0330
,
0010
0010
0010
0000
0000
1100
0000
0022
,
0000
0000
0033
0000
0100
0010
0100
0000
,
1001
0002
0000
2003
0000
3020
0000
0230
,
0000
0000
0310
0000
1000
0001
0000
0100
,
0000
0010
1000
0001
,
1000
0001
0020
0030
,
1100
2000
0000
3200
0000
0320
0000
0032
,
0000
0000
0103
0000
0010
1000
0000
0001
,
0010
0010
0010
0000
0000
0000
0000
0022
,
0000
0033
0000
0100
0000
0100
0010
0000
,
0100
0100
0100
0000
0000
0000
0000
0220
,
0000
0330
0000
2002
0000
0000
3003
0000
,
0011
0100
0100
0100
,
1001
0100
0110
0100
,
1100
0100
0100
0100
,
1001
0100
0011
0100
,
0110
0100
0100
0100
,
1100
0100
0011
0100
,
1100
0100
0100
0100
,
2002
3003
0220
0330
,
1000
0001
0100
0100
,
0001
1000
0010
0010
,
1000
0100
0010
0001
,
0110
0000
0001
2002
0000
0000
3003
0000
,
0100
0010
2200
3300
,
1000
0001
0022
0033
,
0001
0010
0100
1000
,
0000
0000
0010
0000
1000
0000
0001
0100
,
1000
1000
1000
1100
,
0001
0001
0001
0011
,
0110
0100
1001
0010
,
1000
0200
0300
1000
,
0011
1001
0110
1100
,
2000
0000
0002
3003
,
0000
0100
0010
1000
,
0020
0000
0000
0200
0000
0000
0330
0000
,
0001
0001
0000
0000
0000
0000
0000
0000
;

//---------------dance-single - x scale 10----------------
#NOTES:
     dance-single:
     :
     Medium:
     10:
     0.402362,0.433124,0.294753,0.589507,0.024563,344.000000,308.000000,36.000000,72.000000,0.000000,0.000000,0.402362,0.433124,0.294753,0.589507,0.024563,344.000000,308.000000,36.000000,72.000000,0.000000,0.000000:
0000
0000
0000
0000
,
0000
0000
0000
0000
,
0000
0000
0000
0000
,
0000
0000
0000
0000
,
0001
0001
0100
0000
0100
0000
0100
0000
,
1000
1000
0100
0000
0001
0001
0100
0000
,
1000
1000
0100
0000
0100
0000
0100
0000
,
2002
3003
0220
0330
,
0001
0000
0001
0100
0000
0100
0010
0000
,
0010
1000
0000
1000
0100
0000
1000
0001
,
1000
0000
1000
0100
0000
0100
0010
0000
,
0010
0001
0000
0001
0000
0100
0010
0000
,
1010
1000
0001
0000
0100
0010
0000
0010
,
1000
0001
0000
0100
0010
0000
1000
0002
,
0000
0000
0103
0001
0000
0001
1000
0000
,
1000
0010
0000
0010
0000
0100
0010
0000
,
1000
0100
1000
0020
0000
0230
0000
0000
,
0301
0100
0000
0101
0000
0100
0010
2000
,
0000
3001
1000
0001
1000
0000
0000
0000
,
0100
0010
0000
1000
0000
0010
0100
0000
,
0011
0010
0100
0000
0001
1000
0000
1000
,
0010
0100
0000
0001
1000
0000
0010
0200
,
0000
0000
0310
0100
0000
0100
0001
0000
,
0001
1000
0000
1000
0000
0010
1000
0100
,
1000
0001
0100
0020
0000
1030
0010
0000
,
0100
0000
0001
0010
0001
1000
0010
2000
,
0000
3100
0010
1000
0002
0000
0003
0000
,
1000
0001
0000
1100
0000
0100
0001
1000
,
0010
0010
0110
0000
0000
1100
0000
0102
,
0000
1003
1000
0001
2002
0000
3003
0000
,
0001
0001
0011
0000
0000
1020
0000
2030
,
0000
0100
3100
0000
1000
0100
0010
0001
,
0100
0010
0000
1100
0000
0011
0000
0220
,
0330
0000
0001
0010
0100
1000
0000
0100
,
0000
0100
0010
0100
0010
1000
0001
1000
,
0001
1000
0100
0010
0002
0000
1003
0100
,
0001
1000
0000
1001
0000
1010
0000
0202
,
0303
0000
0001
0010
0100
1000
0000
0100
,
0010
0010
1010
0000
0000
1000
0100
1100
,
0000
0010
0001
0011
0000
0100
0100
0000
,
0001
0001
0101
0000
0000
1000
1000
2002
,
0000
3003
0000
0220
0000
0000
0330
0000
,
0102
0203
0320
2030
,
3002
0023
0230
1300
,
2001
0000
3100
1100
0000
0000
0000
0000
,
2000
3001
0200
0310
,
1020
2030
3002
0203
,
0320
0230
0302
2003
,
3002
0103
0020
1030
,
0220
0330
0022
0033
,
1000
0100
0010
0001
0010
0100
1000
0000
,
0001
0010
0100
1000
0100
0010
0001
0000
,
1000
0100
0010
0100
1000
0000
0001
0010
,
0021
0000
0031
0202
0000
0000
0303
0000
,
0010
0000
0000
0010
0000
0000
0010
0000
2002
0000
0000
0000
3003
0000
0000
0000
,
0100
0000
0000
0100
0000
0000
0100
0000
2020
0000
0000
0000
3030
0000
0000
0000
,
0001
0010
0001
0000
1000
0010
1000
0000
,
0100
0010
0100
0000
0100
0000
0001
1000
,
0010
0000
0000
0010
0000
0000
0010
0000
1000
0000
1000
0000
0000
1000
0000
0000
,
0001
0000
0000
0001
0000
0000
0001
0000
0100
0000
0100
0000
0000
0100
0000
0000
,
0020
0230
0302
2003
,
3002
0000
1003
0020
0000
1030
0001
0000
,
0200
0320
2030
3001
,
2200
3300
0220
0330
,
0001
0000
0100
0010
1000
0010
0100
0001
,
2000
0000
0000
0002
0000
0000
3003
0000
,
0100
0010
0000
0000
0000
0000
0000
0000
;

//---------------dance-single - ----------------
#NOTES:
     dance-single:
     :
     Hard:
     12:
     0.535703,0.568475,0.294753,0.229253,0.131002,458.000000,422.000000,36.000000,28.000000,0.000000,0.000000,0.535703,0.568475,0.294753,0.229253,0.131002,458.000000,422.000000,36.000000,28.000000,0.000000,0.000000:
// measure 0
0000
0000
0000
0000
,  // measure 1
0000
0000
0000
0000
,  // measure 2
0000
0000
0000
0000
,  // measure 3
0000
0000
0000
0000
,  // measure 4
0001
0001
0100
0010
1000
0100
1000
0010
,  // measure 5
1000
1000
0100
0010
0001
0001
0010
0100
,  // measure 6
1000
1000
0010
0001
0100
0010
0100
0001
,  // measure 7
0100
0010
0000
0100
0010
0000
1000
0001
1000
0000
0010
0000
0100
0001
1000
0001
,  // measure 8
0100
0000
0001
0010
0001
0100
0000
0010
,  // measure 9
1000
0001
1000
0010
0000
1000
0001
0100
,  // measure 10
0010
0000
1000
0100
1000
0010
0000
1000
,  // measure 11
0001
0100
0001
1000
0000
0001
0100
0000
,  // measure 12
1001
0001
1000
0100
1000
0001
0000
0010
,  // measure 13
0100
0010
0000
1000
0100
0010
0100
2000
,  // measure 14
0000
3010
0100
0001
0100
0010
0000
1000
,  // measure 15
0001
0010
0001
1000
0000
1000
0100
0000
,  // measure 16
1100
1000
0001
0201
0000
0310
0100
0000
,  // measure 17
1000
0001
0100
0020
0000
0130
1000
0002
,  // measure 18
0000
1003
0001
1000
0010
0100
0000
0100
,  // measure 19
0001
1000
0001
0010
0000
0010
0100
0000
,  // measure 20
0110
0010
0100
1000
0100
0010
0000
0001
,  // measure 21
1000
0001
0000
0100
0010
1000
0010
0200
,  // measure 22
0000
0301
1000
0010
0100
0010
0000
1000
,  // measure 23
0100
0001
1000
0010
0000
0100
0001
0010
,  // measure 24
0011
0001
1000
1020
0000
0130
0010
0000
,  // measure 25
1000
0100
0001
0100
0010
0001
0010
2000
,  // measure 26
0000
3010
1000
0100
0002
1000
0003
0001
,  // measure 27
0100
0000
0010
0000
1000
0000
0001
0000
0000
0000
0001
1000
0001
1000
0001
1000
,  // measure 28
0001
0001
0011
0000
1000
0100
0000
1200
,  // measure 29
0000
1300
0001
0010
0120
0100
0130
0000
,  // measure 30
0010
0010
2010
0000
3001
0101
0000
1002
,  // measure 31
0000
1000
1003
0000
0010
0100
0001
1000
,  // measure 32
1010
1000
0001
0100
0000
0011
0000
0101
,  // measure 33
0010
0000
1000
0100
1000
0001
0100
0001
,  // measure 34
0000
1000
0010
0001
0010
1000
0100
0001
,  // measure 35
0100
1000
0010
0001
0010
0100
0001
1000
,  // measure 36
1100
1000
0001
0010
0000
1001
0000
0110
,  // measure 37
1000
0000
0010
0001
0100
0001
0100
0010
,  // measure 38
1000
1000
0110
0000
0001
0100
0010
0012
,  // measure 39
0000
1003
0100
2100
0000
0100
3100
0000
,  // measure 40
0010
0010
1001
0000
1000
0100
0001
0201
,  // measure 41
0000
0310
0100
1020
0000
0001
0031
0000
,  // measure 42
2000
0000
0000
0000
3001
0100
0000
0000
0100
0010
0000
0000
0010
1000
0000
0000
,  // measure 43
0100
0010
0000
0000
0010
1000
0000
0000
1000
0001
0000
0000
0001
1000
0000
0000
,  // measure 44
0020
0000
1030
0100
0001
0100
1000
0000
,  // measure 45
0001
0000
0001
0100
0010
0000
0010
0100
,  // measure 46
0002
0000
0000
0000
1003
0100
0000
0000
0100
0010
0000
0000
0010
0001
0000
0000
,  // measure 47
1000
0001
0000
0000
0001
0100
0000
0000
0100
0010
0000
0000
0010
1000
0000
0000
,  // measure 48
0200
0000
0301
0010
1000
0010
0001
0000
,  // measure 49
1000
0001
1000
0001
0100
0010
0100
0010
,  // measure 50
1000
0010
0100
0010
1000
0010
0100
0010
,  // measure 51
0001
0100
0010
0100
0001
0100
0010
0100
,  // measure 52
0001
0010
0100
1000
0001
0010
0100
1000
,  // measure 53
1200
0000
1300
2010
0000
3001
1001
0000
,  // measure 54
0010
0000
0000
0010
0000
0000
0010
0000
0002
0000
0100
0000
0103
0000
0000
0000
,  // measure 55
0100
0000
0000
0100
0000
0000
0100
0000
0020
0000
1000
0000
1030
0000
0000
0000
,  // measure 56
1000
0100
0010
0001
0010
0100
1000
0101
,  // measure 57
0000
0001
1000
0100
1000
0000
0011
0001
,  // measure 58
0100
0000
0000
0100
0000
0000
0100
0000
0010
0000
1000
0000
0000
1000
0000
0000
,  // measure 59
0001
0000
0000
0001
0000
0000
0001
0000
1000
0000
0010
0000
0000
0010
0000
0000
,  // measure 60
1000
0100
0010
0001
1000
0100
0010
0001
,  // measure 61
0110
0000
1000
0101
0000
0001
1000
0001
,  // measure 62
1100
0000
0000
0100
0010
0000
0000
0010
1000
0000
0000
1000
0100
0000
0000
0100
,  // measure 63
2000
3200
0320
0032
,  // measure 64
0013
0010
1000
1000
0100
0100
0001
0001
,  // measure 65
0011
0000
0010
1010
0000
0001
1000
0000
,  // measure 66
1001
0110
0000
0000
0000
0000
0000
0000
;
