#TITLE:Citta' del sole;
#SUBTITLE:;
#ARTIST:Q-Mex;
#TITLETRANSLIT:;
#SUBTITLETRANSLIT:;
#ARTISTTRANSLIT:;
#GENRE:;
#CREDIT:;
#BANNER:Citta' del sole-bn.png;
#BACKGROUND:Citta' del sole-bg.png;
#LYRICSPATH:;
#CDTITLE:;
#MUSIC:Citta' del sole.ogg;
#OFFSET:0.000000;
#SAMPLESTART:0.000000;
#SAMPLELENGTH:20.000000;
#SELECTABLE:YES;
#DISPLAYBPM:140.000000;
#BPMS:0.000000=140.000000
;
#STOPS:
;
#BGCHANGES:;
#KEYSOUNDS:;
#ATTACKS:;

//---------------dance-single - ----------------
#NOTES:
     dance-single:
     :
     Hard:
     14:
     0.749097,0.773251,0.728556,0.623107,0.397830,547.000000,471.000000,76.000000,65.000000,0.000000,0.000000,0.749097,0.773251,0.728556,0.623107,0.397830,547.000000,471.000000,76.000000,65.000000,0.000000,0.000000:
0000
0000
0000
0000
,
0000
0000
0000
0000
,
0000
0000
0000
0000
,
0000
0000
0000
0000
0000
0000
0000
0000
0000
0000
0000
0000
1000
0010
1000
0010
,
0200
0000
0000
0301
1000
0000
1100
0000
0000
0000
0011
0000
0000
0010
0001
1000
,
0100
0010
0010
0010
0001
0100
0010
1000
,
0110
0001
0001
0001
0010
0100
1000
0010
,
0100
0010
0100
0010
1000
0001
0200
0000
0000
0000
0001
0000
0301
1000
0010
0100
,
0002
0000
1000
0000
1000
0000
1000
0000
0010
0000
0100
0000
0103
0000
0001
0010
,
0002
0000
0000
0000
1003
0010
0100
0010
1000
0000
0001
0000
0010
0000
0100
0000
,
2000
0000
0100
0000
0100
0000
3100
0000
0010
0000
0001
0100
0001
1000
0100
0010
,
0100
0000
1000
0000
1000
0000
1000
0000
0001
0000
0010
0000
0100
0010
0001
0100
,
0020
0000
0000
1030
0100
0000
0010
0000
0001
0000
0101
0000
1000
0000
0010
0100
,
0001
0000
1000
0000
1000
0000
0010
0000
0100
0000
0001
0010
1000
0000
0000
0000
,
1100
1000
0010
0201
0000
0001
0301
1000
,
2020
0000
0000
0000
3030
0000
1000
0100
0001
0000
0022
0000
0000
0033
0000
0000
,
0001
0100
0001
0100
0010
0000
1002
0000
0000
0000
1000
0000
1003
0000
0100
0000
,
0010
0001
0010
0100
1000
0000
1020
0000
0000
0000
0100
0000
0130
0001
1000
0000
,
0100
0010
0100
1000
0001
0000
0201
0000
0000
0000
0010
0000
0310
0000
1000
0000
,
0100
1000
0001
1000
0100
0000
0120
0000
0000
0000
0001
0000
0031
0100
0010
0000
,
1000
0100
0010
0001
0100
0010
2000
0000
0000
0000
0000
0000
3000
0000
0000
0000
,
0001
0010
0100
1000
0010
0100
0002
0000
0000
0000
0000
0000
0003
0000
0000
0000
,
0001
1000
0001
0010
0100
0000
2100
0000
0000
0000
0100
0000
3100
0000
1000
0000
,
0010
1000
0001
0010
0001
0000
0021
0000
0000
0000
0100
0000
0130
1000
0001
0000
,
0100
0010
0100
0010
1000
0000
1002
0000
0000
0000
0010
0000
0013
0000
0001
0000
,
0010
0100
1000
0010
0100
0000
0102
0000
0000
0000
0010
0000
0013
0001
1000
0000
,
0010
0100
0100
0001
0011
0110
1100
0000
,
0010
1000
1000
0100
0110
0011
1001
0000
,
0001
0010
0010
0100
1100
1001
0101
0000
,
0001
1000
1000
0001
0011
1100
0101
0000
,
0010
0100
0100
0001
1001
1010
1100
0000
,
1000
0100
0100
0001
0011
0101
0110
0000
,
1010
0000
0000
1100
0000
0000
0012
0000
0000
0000
1003
0000
0010
0000
0100
0000
,
0101
0000
0000
1100
0000
0000
0021
0000
0000
0000
0031
0000
1000
0000
0010
0000
,
0110
0000
0000
1001
0000
0000
1100
0000
0000
0000
0010
0001
0010
0100
0010
1000
,
0010
0000
0000
0101
0000
0000
2200
0000
0000
0000
0000
0000
3300
0000
0000
0000
,
1002
0000
0010
0000
0010
0000
0100
0000
1000
0000
0100
0000
0103
0000
0001
0010
,
2000
0000
0000
0000
3100
1000
0001
1000
0010
0000
0100
0000
0001
0000
1000
0000
,
1020
0000
0001
0000
0001
0000
1000
0000
1000
0000
0230
0000
0000
0301
0010
0100
,
1000
0000
0010
0000
0010
0000
0100
0000
0001
0000
0001
0000
0010
0100
1000
0001
,
2000
0000
0000
3010
0100
0000
0110
0000
0000
0000
2001
0000
0000
0000
3010
1000
,
0100
1000
1000
0001
0001
0010
0100
0010
,
0011
1000
1000
0001
0001
0100
0010
1000
,
0100
0001
0100
1000
0010
0100
0002
0000
0000
0000
1003
0000
0001
0100
0001
0010
,
0100
0000
2000
0000
3002
0000
2003
0000
3020
0000
0230
0000
0302
0000
0013
0100
,
1000
0000
0020
0000
0230
0000
0301
1000
0100
0000
0010
0000
0001
0000
1000
0000
,
1010
0000
1001
0000
0110
0000
0100
0000
0001
0000
0010
0000
0100
0000
1000
0001
,
0010
0100
2000
0000
3020
0000
0230
0000
0302
0000
0023
0000
0230
0000
1300
0010
,
0001
0000
1000
0000
1000
0000
1000
0000
0010
0000
0010
0000
0100
0000
0001
0100
,
0010
0000
2000
0000
3002
0000
0023
0000
0032
0000
0203
0000
0320
0000
1030
0001
,
0100
0000
0010
0000
0010
0000
0010
0000
1000
0000
1000
0000
0001
0000
0010
0001
,
0100
0000
0002
0000
0023
0000
0230
0000
0320
0000
0230
0000
1300
0001
1000
0001
,
0100
0110
0110
0010
1010
1000
1100
0001
,
0010
0000
0011
0000
0011
0000
0100
0000
1100
0000
1000
0000
1001
0000
0010
0100
,
0001
0000
0101
0000
0101
0000
1000
0000
1010
0000
0010
0000
1001
0000
0100
0010
,
0100
0002
2003
3200
0320
0032
0203
0320
,
1030
1001
1001
0010
0101
0100
0110
0001
,
0100
1010
1010
0001
1001
0100
0110
0010
,
1000
0000
1100
0000
1100
0000
0001
0000
0011
0000
0100
0000
1000
0010
0100
0001
,
0020
0000
0000
0030
;

//---------------dance-single - ----------------
#NOTES:
     dance-single:
     :
     Medium:
     12:
     0.517658,0.630057,0.306760,0.623107,0.273208,378.000000,346.000000,32.000000,65.000000,0.000000,0.000000,0.517658,0.630057,0.306760,0.623107,0.273208,378.000000,346.000000,32.000000,65.000000,0.000000,0.000000:
0000
0000
0000
0000
,
0000
0000
0000
0000
,
0000
0000
0000
0000
,
0000
0000
0000
0000
0000
0000
0000
0000
0000
0000
0000
0000
1000
0001
1000
0001
,
2000
0000
0000
0000
3000
0000
1100
0000
0000
0000
0022
0000
0033
0000
0100
0010
,
0200
0000
0000
0000
0000
0000
0000
0000
0000
0000
0301
0100
0001
0000
1000
0000
,
0200
0000
0000
0000
0000
0000
0000
1300
,
0001
0010
0001
0010
0001
0010
0002
0000
0000
0000
1003
0000
0100
0010
0100
0010
,
0200
0000
0000
0000
0000
0000
0000
0000
0000
0000
0000
0000
0000
0000
0310
0001
,
0020
0000
0000
0000
0000
0031
1000
0001
1000
0000
0100
0000
0010
0000
0001
0000
,
0200
0000
0000
0000
0000
0000
0000
0000
0000
0000
0301
1000
0001
1000
0001
1000
,
0002
0000
0000
0000
0000
0000
0000
0000
0000
0000
1000
0000
1003
0100
1000
0100
,
2000
0000
0000
0000
0000
0000
0000
0000
3000
0000
0220
0000
0330
0000
0001
0100
,
0002
0000
0000
0000
0000
0000
0000
0000
0000
0000
1003
0010
2000
0000
3000
0000
,
1002
0000
0100
0203
0000
0310
1000
0001
,
0202
0000
0000
0000
0303
0000
1000
0100
1000
0000
2020
0000
0000
3030
0000
0000
,
0110
0000
0000
0001
0100
0000
1002
0000
0000
0000
1000
0000
1000
0000
1003
0000
,
0001
0010
0001
0010
0001
0000
2100
0000
0000
0000
0100
0000
3100
1000
0100
0000
,
1001
0000
0000
0010
0100
0000
0201
0000
0000
0000
0001
0000
0001
0000
0301
0000
,
0100
0010
0100
0010
0100
0000
1020
0000
0000
0000
1000
0000
1030
0000
0001
0000
,
0100
0000
0010
0000
1000
0001
2000
0000
0000
0000
0000
0000
3000
0000
0000
0000
,
0010
0000
0100
0000
0001
1000
0002
0000
0000
0000
0000
0000
0003
0000
0000
0000
,
0011
0000
0000
0100
0001
0000
2100
0000
0000
0000
0010
0000
0010
0000
3010
0000
,
1000
0001
1000
0001
1000
0000
0102
0000
0000
0000
0100
0000
0103
0010
0100
0000
,
0110
0000
0000
0001
1000
0000
2010
0000
0000
0000
0100
0000
0100
0000
3100
0000
,
1000
0010
1000
0010
1000
0000
0210
0000
0000
0000
0001
0000
0301
0000
0010
0000
,
0200
0000
0000
0000
0000
0000
1300
0001
,
0020
0000
0000
0000
0000
0130
0001
1000
,
0002
0000
0000
0023
0000
0000
0230
0000
0000
0000
1300
0000
0001
0000
1000
0000
,
0020
0000
0000
0000
0130
0000
0002
0000
0000
0000
2000
0000
0000
3003
0000
0000
,
2020
0000
0000
0000
3030
1000
0100
0010
,
0022
0000
0000
0000
0033
0001
1000
0010
,
0200
0000
0000
0320
0000
0000
0230
0000
0000
0000
0301
0000
0010
0000
1000
0000
,
0200
0000
0000
2300
0000
0000
3002
0000
0000
0000
0013
0000
0100
0000
1000
0000
,
1100
0000
0000
1100
0000
0000
2100
0000
0000
0000
0001
0000
3001
0000
1000
0000
,
0101
0000
0000
0101
0000
0000
0202
0000
0000
0000
0000
0000
0303
0000
0000
0000
,
2002
0000
0000
0000
0000
0000
0000
0000
0000
0000
0000
0000
3003
0000
0001
0010
,
0002
0000
0000
0000
0000
1003
0010
1000
0010
0000
0100
0000
0001
0000
1000
0000
,
0200
0000
0000
0000
0000
0000
0000
0000
0000
0000
0320
0000
0000
0031
1000
0001
,
2000
0000
0000
0000
0000
0000
0000
0000
0000
0000
0000
0000
3010
0100
0010
0100
,
0020
0000
0000
0000
0030
0000
1010
0000
0000
0000
0202
0000
0303
0000
1000
0100
,
2000
0000
0000
0000
0000
0000
0000
0000
0000
0000
3001
0100
0001
0000
0010
0000
,
0200
0000
0000
0000
0000
0000
0000
1300
,
0001
0100
0001
0100
0001
0100
0002
0000
0000
0000
0000
0000
1003
0100
1000
0100
,
1000
0001
0001
1000
0010
0100
0010
1000
,
0000
0100
0100
0010
0001
1000
0001
0100
,
0000
0010
0010
0100
0001
1000
0100
1000
,
0000
1000
1000
0001
0010
0100
0010
0001
,
0000
0010
0010
0100
0010
0001
1000
0100
,
0000
1000
1000
0001
0010
0001
0100
0010
,
0000
0100
0100
0001
1000
0100
0010
0001
,
0000
0001
0001
0010
0100
1000
0100
1000
,
0000
1000
1000
0010
0100
0001
1000
0100
,
0000
0001
0001
0010
0001
1000
0010
0100
,
0000
0100
0100
0001
1000
0001
1000
0010
,
0000
0010
0010
1000
0100
0010
0001
0100
,
0000
0110
1000
0001
1000
0010
0100
0001
,
0000
0011
0100
1000
0001
0100
0010
1000
,
0000
0000
1100
0000
0001
0000
0010
0000
0001
0000
0100
0000
0010
1000
0010
1000
,
0020
0000
0000
0030
;

//---------------dance-single - ----------------
#NOTES:
     dance-single:
     :
     Easy:
     8:
     0.369756,0.429584,0.306760,0.345105,0.000000,270.000000,238.000000,32.000000,36.000000,0.000000,0.000000,0.369756,0.429584,0.306760,0.345105,0.000000,270.000000,238.000000,32.000000,36.000000,0.000000,0.000000:
0000
0000
0000
0000
,
0000
0000
0000
0000
,
0000
0000
0000
0000
,
0000
0000
0000
0000
0000
0000
1000
0010
,
2000
0010
0100
3001
,
0010
0100
1000
0010
,
1000
0001
1000
0100
,
0010
0100
0010
0200
0000
0000
1300
0001
,
2000
0010
0100
3001
,
0020
0130
2000
3002
,
0023
0100
1000
0031
,
0200
0001
1000
0310
,
0002
0010
1000
0103
,
2000
0010
0100
3001
,
1002
0103
0020
1030
,
0220
0000
0000
0000
0330
0000
1000
0000
0002
0000
2000
0000
0000
3003
0000
0000
,
0010
0000
0000
1010
0000
0001
1000
0100
,
0010
0000
0000
0011
0000
0001
0100
1000
,
0001
0000
0000
0101
0000
1000
0100
0010
,
0100
0000
0000
1100
0000
0010
0001
1000
,
0001
0100
0001
0200
0000
0000
0300
0000
,
1000
0010
1000
0020
0000
0000
0030
0000
,
1000
0000
0000
0101
0000
0010
0100
0001
,
1000
0000
0000
1010
0000
0100
0001
0010
,
0001
0000
0000
1100
0000
1000
0010
0100
,
0001
0000
0000
0011
0000
1000
0010
0100
,
0001
0010
1000
0100
,
1000
0010
0100
0001
,
0010
0100
0010
0001
,
0100
1000
0001
0010
,
0100
0100
1000
0001
,
0010
0001
0100
1000
,
0010
1000
0100
0001
,
0010
0001
0010
1000
,
0100
0000
0000
0110
0000
0000
0001
1000
,
0001
0000
0000
2002
0000
0000
3003
0000
,
2000
0001
0010
3100
,
0020
0031
0200
0320
,
2030
0001
0010
3100
,
0002
0000
0010
0000
1003
0000
0010
0100
,
0010
1000
0100
0001
,
0200
1000
0010
0301
,
2000
0001
0100
3010
,
1000
0001
1000
0002
0000
0000
0103
0010
,
0200
1000
0010
0301
,
2000
3001
2000
3020
,
0130
0100
0200
0000
0001
0000
0310
0000
,
1000
0001
0020
0000
1000
0000
0031
0100
,
0001
1000
1100
0101
,
0010
0100
1010
0011
,
0001
0010
0110
1001
,
1000
0010
0101
1010
,
0100
1000
1001
0110
,
0001
0010
0011
1100
,
1000
0001
0101
0011
,
0100
1000
1010
1100
,
0001
0100
0110
1001
,
1000
0001
0101
1100
,
0001
0000
0010
0000
1000
0000
0100
0001
,
0020
0000
0000
0030
;

//---------------dance-single - ----------------
#NOTES:
     dance-single:
     :
     Beginner:
     3:
     0.161597,0.226236,0.134208,0.000000,0.000000,118.000000,104.000000,14.000000,0.000000,0.000000,0.000000,0.161597,0.226236,0.134208,0.000000,0.000000,118.000000,104.000000,14.000000,0.000000,0.000000,0.000000:
0000
0000
0000
0000
,
0000
0000
0000
0000
,
0000
0000
0000
0000
,
0000
0000
0000
0000
,
1000
0000
0001
0000
,
0110
0000
0000
0000
,
0001
0000
0000
0000
,
1000
1000
0000
0000
,
1001
0000
0000
0000
,
0010
0000
1000
0000
,
0100
0000
0000
0001
,
0001
0000
0000
0000
,
0010
0000
0000
0100
,
0100
0000
0000
1000
,
1000
0000
0001
0000
,
1001
0000
0110
0000
,
1000
0000
0001
0000
,
1000
0000
0010
0000
,
0100
0000
0001
0000
,
0100
0000
0010
0000
,
0100
0100
0000
0000
,
0010
0010
0000
0000
,
1000
0000
1001
0000
,
0001
0000
1001
0000
,
0100
0000
0110
0000
,
0010
0000
0110
0000
,
1000
0000
0000
0000
,
0001
0000
0000
0000
,
0010
0000
0010
0000
,
0100
0000
0100
0000
,
0010
0000
0000
0001
,
0001
0000
0000
1000
,
1000
0000
0010
0000
,
1000
0000
0100
0000
,
1001
0000
0000
0000
,
0110
0000
0000
0000
,
0001
0000
0000
0000
,
0100
0000
0010
0000
,
1000
0000
0000
0010
,
0010
0000
0000
0100
,
0100
0000
0001
0000
,
0110
0000
0000
1000
,
1000
0000
0000
0000
,
0001
0001
0000
0000
,
1001
0000
0000
0000
,
0100
0000
0001
0000
,
1000
1000
0000
0010
,
0010
0000
0000
0001
,
0001
0000
0000
0100
,
0100
0000
0010
0000
,
0110
0000
0000
0010
,
0010
0000
0000
1000
,
1000
0000
0001
0000
,
0100
0000
0010
0000
,
0010
0000
0000
0100
,
0100
0000
0001
0000
,
1001
0000
1000
1000
,
0000
0001
0001
0001
,
0000
0010
0010
0010
,
0010
0000
0000
0000
;

//---------------dance-single - ----------------
#NOTES:
     dance-single:
     :
     Challenge:
     17:
     0.831265,0.773251,0.460140,0.747728,0.695004,607.000000,559.000000,48.000000,78.000000,0.000000,0.000000,0.831265,0.773251,0.460140,0.747728,0.695004,607.000000,559.000000,48.000000,78.000000,0.000000,0.000000:
// measure 0
0000
0000
0000
0000
,  // measure 1
0000
0000
0000
0000
,  // measure 2
0000
0000
0000
0000
,  // measure 3
0000
0000
0000
0000
0000
0000
0000
0000
0000
0000
0000
0000
1000
0010
0001
0100
,  // measure 4
1000
0000
0010
0100
0001
0000
0011
0000
1000
0000
1100
0000
0010
0000
0100
0001
,  // measure 5
1000
0000
0010
0000
0010
0000
0100
0000
0100
0000
0001
0010
1000
0000
0001
0000
,  // measure 6
0110
0001
0001
1000
0010
0010
1000
0100
,  // measure 7
1000
0001
0010
1000
0010
0001
0100
0000
0000
0010
0001
0010
1000
0001
1000
0100
,  // measure 8
0001
0000
1000
0000
1000
0000
0001
0000
0010
0000
0010
0000
0010
0100
1000
0100
,  // measure 9
0010
0000
0001
0000
0001
0100
0010
1000
0100
0000
0001
0000
0010
0000
0100
0000
,  // measure 10
0011
0000
0001
0000
0001
0000
1000
0000
1000
0000
0010
0001
0010
1000
0100
0010
,  // measure 11
0001
0000
0100
0000
0100
0000
0010
0000
1000
0000
1000
0000
0001
0010
1000
0100
,  // measure 12
0010
0000
0001
0000
1000
0100
1000
0000
0001
0010
0001
0000
0100
0000
0010
1000
,  // measure 13
0001
0000
0100
0000
0010
0100
1000
0000
0001
0000
1000
0100
0001
0000
0000
0000
,  // measure 14
1001
0010
1010
0202
0303
1100
0110
0011
,  // measure 15
2002
0000
0000
0000
0000
0000
0000
0000
0000
0000
0000
0000
3003
0000
0000
0000
0000
0000
0001
0000
0000
0100
0000
0000
1000
0000
0000
0000
0000
0000
0220
0000
0000
0000
0000
0000
0000
0000
0000
0330
0000
0000
0010
0000
0100
0000
0010
0000
,  // measure 16
0100
0001
0010
1000
0001
0000
0022
0000
0033
0000
1001
0000
0100
0001
1000
0000
,  // measure 17
0010
1000
0001
0010
0100
0000
2200
0000
3300
0000
0110
0000
0001
0100
1000
0000
,  // measure 18
0010
0000
0000
0100
0000
0000
0001
0000
1000
0000
0001
0000
1000
0000
0000
0000
0000
0000
0202
0000
0000
0000
0000
0000
0303
0000
0000
0000
0000
0000
1010
0000
0000
0000
0000
0000
1000
0000
0000
0001
0000
0000
0010
0000
0000
0000
0000
0000
,  // measure 19
0100
0001
0100
0010
0001
0000
2020
0000
3030
0000
0011
0000
1000
0100
1000
0000
,  // measure 20
0010
0001
0010
0100
0010
1000
0020
0000
0000
0000
0100
0000
1030
0000
0001
0000
,  // measure 21
0010
1000
0010
0100
0010
0001
0020
0000
0000
0000
0001
0000
0130
1000
0010
0000
,  // measure 22
1000
0000
0000
0001
0000
0000
0010
0000
0100
0000
0010
0000
0100
0000
0000
0000
0000
0000
2002
0000
0000
0000
0000
0000
3003
0000
0000
0000
0000
0000
0101
0000
0000
0000
0000
0000
0001
0000
0000
1000
0000
0000
0100
0000
0000
0000
0000
0000
,  // measure 23
0010
0001
0100
1000
0001
0000
0220
0000
0330
0000
1010
0000
1000
0100
0001
0000
,  // measure 24
1000
0000
0000
0010
0000
0000
0100
0000
0001
0000
0100
0000
0001
0000
0000
0000
0000
0000
0022
0000
0000
0000
0000
0000
0033
0000
0000
0000
0000
0000
1100
0000
0000
0000
0000
0000
0001
0000
0000
0010
0000
0000
1000
0000
0000
0000
0000
0000
,  // measure 25
0100
1000
0001
1000
0010
0000
0202
0000
0303
0000
1001
0000
0010
1000
0100
0000
,  // measure 26
0002
0100
0100
0010
1000
1000
0023
0230
,  // measure 27
2300
0001
0001
0010
0010
3200
0320
0032
,  // measure 28
0203
0010
0302
2003
0010
3002
0203
0320
,  // measure 29
2030
0001
3200
0320
1000
0032
0010
1000
,  // measure 30
0203
1000
1000
0010
0010
0302
0023
0230
,  // measure 31
2300
0001
0001
0010
0010
3200
2300
3001
,  // measure 32
0022
0000
0000
0033
0000
0000
2002
0000
0000
3003
0000
0000
2200
0000
0000
0000
3300
0000
0000
0000
2000
0000
0000
0000
3020
0000
0000
0000
0130
0000
0000
0000
,  // measure 33
0220
0000
0000
0330
0000
0000
0202
0000
0000
0303
0000
0000
2020
0000
0000
0000
3030
0000
0000
0000
0002
0000
0000
0000
0203
0000
0000
0000
0310
0000
0000
0000
,  // measure 34
2020
0000
0000
3030
0000
0000
0202
0000
0000
0303
0000
0000
2200
0000
0000
0000
3300
0000
0000
0000
1000
0000
0010
0000
0100
0000
0001
0000
0010
0000
0100
0000
,  // measure 35
2002
0000
0000
0000
0000
0000
0000
0000
0000
0000
0000
0000
0000
0000
0000
0000
0000
0000
3003
0000
0000
0000
0000
0000
0000
0000
0000
0000
0000
0000
0000
0000
0000
0000
0000
0000
0202
0000
0000
0000
0000
0000
0000
0000
0000
0000
0000
0000
0000
0000
0000
0000
0000
0000
0303
0000
0000
0000
0000
0000
0000
0000
0000
0000
0000
0000
0000
0000
0000
0000
0000
0000
0220
0000
0000
0000
0000
0000
0000
0000
0000
0000
0000
0000
0000
0000
0000
0000
0000
0000
0000
0000
0000
0000
0000
0000
0000
0000
0000
0000
0000
0000
0000
0000
0000
0000
0000
0000
0000
0000
0000
0000
0000
0000
0000
0000
0000
0000
0000
0000
0330
0000
0000
0000
0000
0000
0000
0000
0000
0000
0000
0000
0000
0000
0000
0000
0000
0000
0000
0000
0000
0000
0000
0000
1000
0000
0000
0000
0000
0000
0000
0000
0100
0000
0000
0000
0000
0000
0000
0000
0010
0000
0000
0000
0000
0000
0000
0000
0001
0000
0000
0000
0000
0000
0000
0000
0100
0000
0000
0000
0000
0000
0000
0000
0010
0000
0000
0000
0000
0000
0000
0000
,  // measure 36
1000
0000
0001
0000
0100
0010
1000
0000
0100
0010
0001
0000
1000
0000
0001
0010
,  // measure 37
0100
0000
0010
0000
0001
0100
0010
1000
0100
0010
0001
0000
0010
1000
0100
0000
,  // measure 38
0001
0000
1000
0000
0001
0100
0010
0000
1000
0001
0010
0000
0100
1000
0001
0100
,  // measure 39
0010
0000
1000
0100
0001
0000
0010
0100
1000
0000
0001
0000
0010
0001
0100
1000
,  // measure 40
0001
0000
0100
0000
0010
0000
1010
0000
1000
0000
0101
0000
0010
0000
1000
0100
,  // measure 41
0001
0000
0010
0000
0001
0100
1000
0000
0010
1000
0100
0000
1000
0000
0001
0000
,  // measure 42
0010
0000
0100
0000
0010
0001
0100
0000
0001
1000
0100
0000
0010
0000
0001
0000
,  // measure 43
0100
1000
0100
0001
0010
1000
0001
0000
0100
0010
0001
0010
1000
0001
0010
1000
,  // measure 44
0100
0000
1000
0000
0010
0100
0001
0000
0010
0100
0001
0000
0010
0100
0001
0000
,  // measure 45
0010
0000
0100
0000
1000
0001
0100
0000
1000
0001
0100
0000
1000
0001
0100
0000
,  // measure 46
0001
0000
0010
0000
1000
0100
0010
0000
1000
0100
0010
0000
1000
0100
0010
0000
,  // measure 47
0001
0000
1000
0000
0010
1000
0001
0000
0010
1000
0001
0000
0010
1000
0001
0000
,  // measure 48
0010
0000
0100
0000
1000
0010
0100
0000
1000
0100
0010
0000
1000
0010
0100
0000
,  // measure 49
0001
0000
1000
0000
0001
0010
1000
0000
0001
1000
0010
0000
0001
0010
1000
0000
,  // measure 50
0100
0000
0001
0000
0010
0001
0100
0000
0010
0100
0001
0000
0010
0001
0100
0000
,  // measure 51
1000
0000
0010
0000
0100
0001
1000
0000
0100
1000
0001
0000
0100
0001
1000
0000
,  // measure 52
0010
0000
0001
0000
1000
0100
0001
0000
0001
0100
1000
0000
1000
0100
0001
0000
,  // measure 53
0010
0000
0100
0000
1000
0001
0010
0000
0010
0001
1000
0000
1000
0001
0010
0000
,  // measure 54
0100
0000
0010
0000
0001
0100
0010
0000
0010
0100
0001
0000
0001
0100
0010
0000
,  // measure 55
1000
0000
0100
0000
0010
0100
1000
0000
1000
0100
0010
0000
0010
0100
1000
0000
,  // measure 56
1001
0000
0100
0000
0010
0100
0001
0000
1000
0100
0001
0000
0010
0100
1000
0000
,  // measure 57
0001
0000
0100
0000
0010
1000
0001
0000
0100
0010
0100
0000
0001
1000
0001
0000
,  // measure 58
0010
0000
0110
0000
1100
0000
0011
0000
0101
0000
1010
0000
0001
0010
1000
0002
,  // measure 59
0020
0000
0000
0033
;
