#VERSION:0.83;
#TITLE:Chronos;
#SUBTITLE:;
#ARTIST:TAG;
#TITLETRANSLIT:;
#SUBTITLETRANSLIT:;
#ARTISTTRANSLIT:;
#GENRE:;
#ORIGIN:;
#CREDIT:;
#BANNER:Chronos-bn.png;
#BACKGROUND:Chronos-bg.png;
#PREVIEWVID:;
#JACKET:Chronos-jacket.png;
#CDIMAGE:;
#DISCIMAGE:;
#LYRICSPATH:;
#CDTITLE:;
#MUSIC:Chronos.ogg;
#OFFSET:0.000000;
#SAMPLESTART:43.139999;
#SAMPLELENGTH:20.000000;
#SELECTABLE:YES;
#DISPLAYBPM:128.000000;
#BPMS:0.000=128.114,
4.000=128.001;
#STOPS:;
#DELAYS:;
#WARPS:;
#TIMESIGNATURES:0.000=4=4;
#TICKCOUNTS:0.000=4;
#COMBOS:0.000=1;
#SPEEDS:0.000=1.000=0.000=0;
#SCROLLS:0.000=1.000;
#FAKES:;
#LABELS:0.000=Song Start;
#BGCHANGES:;
#KEYSOUNDS:;
#ATTACKS:
;

//---------------dance-single - ----------------
#NOTEDATA:;
#CHARTNAME:;
#STEPSTYPE:dance-single;
#DESCRIPTION:;
#CHARTSTYLE:;
#DIFFICULTY:Beginner;
#METER:1;
#RADARVALUES:0.081110,0.102801,0.008603,0.146244,0.004301,66.000000,65.000000,1.000000,17.000000,0.000000,0.000000,0.000000,0.000000,0.000000,0.081110,0.102801,0.008603,0.146244,0.004301,66.000000,65.000000,1.000000,17.000000,0.000000,0.000000,0.000000,0.000000,0.000000;
#CREDIT:;
#DISPLAYBPM:128.000000;
#NOTES:
0000
0000
0000
0000
,
0000
0000
0000
0000
,
0000
0000
0000
0000
,
0000
0000
0000
0001
,
0000
0000
0001
0000
,
0000
1000
0000
0000
,
1000
0000
0000
0200
,
0000
0000
0000
0300
,
0000
0020
0000
0000
,
0000
0030
0000
1000
,
0000
0000
1000
0000
,
0000
0001
0000
0000
,
0001
0000
0000
1000
,
0000
0000
1000
0000
,
0000
0001
0000
0000
,
1000
0000
0000
0100
,
0000
0000
0100
0000
,
0000
0100
0000
0000
0000
0000
0000
0100
,
0000
0000
0100
0000
,
0000
0100
0000
0000
,
1000
0000
0000
0100
,
0000
0000
0001
0000
,
0000
0000
0000
0000
,
0001
0000
0000
0010
,
0000
0000
0001
0000
,
0000
0001
0000
0000
,
1000
0000
0000
0100
,
0000
0000
1000
0000
,
0000
1000
0000
0000
,
0020
0000
0000
0000
0030
0000
0000
0020
,
0000
0000
0000
0030
0000
0000
0020
0000
,
0000
0000
0030
0000
0000
0100
0000
0000
,
0000
0000
0000
0020
0000
0000
0000
0030
,
0000
0020
0000
0030
,
0000
0020
0000
0000
0000
0030
0000
0000
,
0100
0000
0000
0010
,
0000
0000
1000
0000
,
0000
1000
0000
0000
,
0001
0000
0000
0001
,
0000
0000
0100
0000
,
0000
0100
0000
0000
,
0010
0000
0000
0200
,
0000
0300
0000
0000
0000
0000
0000
0000
,
0000
0000
0000
0000
,
0000
0000
0000
0000
,
0000
0000
0001
0000
,
0000
0010
0000
0000
,
0100
0000
0000
1000
,
0000
0000
0020
0000
,
0030
0000
0000
0020
0000
0000
0000
0030
,
0000
0020
0000
0030
,
0000
0100
0000
0000
0000
0000
0000
0020
,
0000
0000
0000
0030
0000
0000
0020
0000
,
0000
0000
0030
0000
0000
0020
0000
0000
,
0000
0030
0000
0000
1000
0000
0000
0000
,
0000
0100
0000
0000
,
0001
0000
0000
0010
,
0000
0000
0100
0000
,
0000
0000
0000
0000
0000
0000
0000
0000
0000
0000
0000
0000
0000
2002
0000
0000
,
0000
0000
0000
3003
,
;

//---------------dance-single - ----------------
#NOTEDATA:;
#CHARTNAME:;
#STEPSTYPE:dance-single;
#DESCRIPTION:;
#CHARTSTYLE:;
#DIFFICULTY:Easy;
#METER:4;
#RADARVALUES:0.173281,0.282703,0.197860,0.283886,0.004301,141.000000,118.000000,23.000000,33.000000,0.000000,0.000000,0.000000,0.000000,0.000000,0.173281,0.282703,0.197860,0.283886,0.004301,141.000000,118.000000,23.000000,33.000000,0.000000,0.000000,0.000000,0.000000,0.000000;
#CREDIT:;
#DISPLAYBPM:128.000000;
#NOTES:
0000
0000
0000
0000
,
0000
0000
0000
0000
,
0000
0000
0000
0000
,
0000
0000
0000
0001
,
0000
0001
0000
0000
1000
0000
0000
1000
,
0000
0001
0000
0000
,
0100
0000
0000
0010
0000
0000
0020
0000
,
0000
0000
0000
0000
0000
0000
0000
0030
,
0000
2002
0000
0000
,
0000
0000
3003
1000
,
0000
1000
0000
0000
1000
0000
0000
0000
,
0000
0000
0001
0000
0000
0001
0000
0000
,
0001
0000
0000
0100
,
0000
0100
0000
0000
0100
0000
0000
0000
,
0000
0000
0010
0000
0000
0010
0000
0000
,
0020
0000
0000
0030
0000
0000
0100
0000
,
0000
0001
0000
0000
0100
0000
0000
0010
,
0000
0100
0000
0000
1000
0000
0000
0100
,
0000
0000
0010
0000
0100
0000
0000
0001
,
0000
0000
1000
0000
0000
0010
0000
0000
,
0200
0000
0300
0002
,
0000
0003
2000
0000
,
3000
2002
0000
3003
,
0002
0000
0000
1003
0000
0000
0020
0000
,
0000
0130
0000
0000
0001
0000
0000
0010
,
0000
0000
0100
0000
0000
1000
0000
0000
,
0002
0000
0000
0103
0000
0000
2000
0000
,
0000
3010
0000
0000
0100
0000
0000
0110
,
0000
0000
1000
0000
0000
1001
0000
0000
,
0002
0000
0000
0000
0000
0013
0000
0002
,
0000
0000
1003
0002
,
0000
0000
0000
0103
0000
0001
0000
0000
,
1001
0000
0000
2000
0000
0000
0000
0000
,
3010
0000
2000
0000
0000
0000
0000
3001
,
0000
2000
0000
0000
0000
0000
3100
0000
,
1000
0000
0000
0100
0000
0000
0010
0000
,
0000
0001
0000
0000
0100
0000
0000
0001
,
0000
0000
0010
0000
0000
1000
0000
0000
,
0100
0000
0000
0001
0000
0000
1000
0000
,
0000
1001
0000
0000
0010
0000
0000
1000
,
0000
0000
0100
0000
0000
0001
0000
0000
,
1001
0000
0000
0010
0000
0000
0220
0000
,
0000
0000
0330
0000
,
0000
0000
0000
0000
,
0000
0000
0000
0000
,
0000
0000
0000
0000
0002
0000
0003
0020
,
0000
0030
0200
0000
0300
2000
0000
3000
,
0001
0000
0000
0010
0000
0000
1001
0000
,
0000
0110
0000
0000
1002
0000
0000
0000
,
0000
0013
0000
1002
0000
0000
0000
0000
,
1003
0000
1002
0000
0000
0000
0000
0103
,
0000
0001
0000
0000
1001
0000
0000
2001
,
0000
0000
3010
2001
,
0000
0000
0000
3001
0000
2001
0000
0000
,
0000
0000
3100
0000
1000
0000
0000
0100
,
0000
0000
0001
0000
0000
0010
0000
0000
,
0110
0000
0000
1010
0000
0000
0110
0000
,
0000
0101
0000
0000
1001
0000
0000
0000
,
0000
0000
0000
0000
0000
0000
0000
0000
0000
0000
0000
0000
0000
2002
0000
0000
,
0000
0000
0000
3003
;

//---------------dance-single - ----------------
#NOTEDATA:;
#CHARTNAME:;
#STEPSTYPE:dance-single;
#DESCRIPTION:;
#CHARTSTYLE:;
#DIFFICULTY:Medium;
#METER:8;
#RADARVALUES:0.291259,0.385504,0.068821,0.258078,0.107532,237.000000,229.000000,8.000000,30.000000,0.000000,0.000000,0.000000,0.000000,0.000000,0.291259,0.385504,0.068821,0.258078,0.107532,237.000000,229.000000,8.000000,30.000000,0.000000,0.000000,0.000000,0.000000,0.000000;
#CREDIT:;
#DISPLAYBPM:128.000000;
#NOTES:
0000
0000
0000
0000
,
0000
0000
0000
0000
,
0000
0000
0000
0000
,
0000
0000
0000
0010
,
0010
0100
0000
0100
0001
0000
0001
1000
,
0000
1000
0001
0000
0001
0010
0100
0010
,
0001
0000
1000
0100
0010
0100
2000
0000
,
0000
0000
0000
0000
0000
0000
0000
3000
,
0000
0001
2002
0000
0000
0000
0000
0000
,
0000
0000
3003
1000
,
1000
0100
0000
0010
0001
0000
0000
1000
,
0100
1000
0001
0000
0001
0100
0000
0010
,
1000
0000
0000
0001
0100
0001
1000
0000
,
1000
0010
0000
0100
0001
0000
0000
1000
,
0000
0000
0000
0000
0010
0000
0000
0010
0000
0000
1000
0000
0000
1000
0000
0000
,
0001
0010
0100
1000
0000
0000
0000
0100
,
0100
0000
0010
0010
0000
0001
0001
0100
,
0010
0000
1000
1000
0000
0001
0001
0000
,
0010
0010
0001
1000
0000
0001
0001
0000
,
0100
0100
0000
0010
0010
1000
0001
1000
,
0002
0000
0000
0100
0000
0000
0020
0000
,
0000
0033
0000
0000
2100
0000
0000
0002
,
0000
0000
3003
0000
0000
0010
0000
0010
0000
0010
0100
0000
0000
0000
0000
0000
,
0002
0000
0000
0013
0000
1000
0002
0000
,
0000
0103
0000
1000
0001
0000
0001
0100
,
0000
0100
1000
0000
1000
0100
0000
0100
,
0002
0000
0000
0013
0000
1000
0002
0000
,
0000
0000
1003
0000
0000
0000
0010
0000
0001
0000
0000
0001
0000
0000
0100
0000
,
0000
0100
0000
0000
0010
0000
0000
0010
0000
0000
1000
0000
0001
0000
1000
0000
,
0002
0000
0000
0000
0000
0013
0010
0002
,
0000
0000
0000
0000
1003
1000
0002
0000
,
0000
0000
0000
0000
0000
0000
0103
0000
0100
0000
0010
0000
0000
0010
0000
0000
,
0100
0000
0000
0100
0000
0000
2000
0000
0000
0000
0000
0000
0000
0000
0000
0000
,
3010
0010
2000
0000
0000
0000
0000
3001
,
0001
2000
0000
0000
0000
0000
3100
0100
,
0010
0000
0000
0010
0000
0000
0100
0000
0000
0100
0000
0000
1000
0000
0000
1000
,
0000
0000
0001
0000
0000
0001
0000
0000
1001
0000
0000
0000
0000
0000
0001
0000
,
0010
0100
1000
0000
1000
0010
0000
0100
,
0010
0000
0000
0100
0000
0000
0001
1000
,
0100
0010
0000
0000
1001
0000
0000
1000
,
0001
0100
0010
0000
0000
1000
0100
0010
,
0001
0000
0000
0011
0000
0000
0001
0010
,
0100
2000
0000
0000
3000
0000
0000
0000
,
0000
0000
0000
0000
,
0000
0000
0000
0000
,
0000
0000
0000
0000
0002
0000
0000
0023
,
0000
0000
0230
0000
0000
2300
0000
0000
,
3001
0000
0001
0010
0000
0010
0100
0000
,
0100
1000
1000
1000
0002
0000
0000
0000
,
0000
0013
0100
2000
0000
0000
0000
0000
,
3010
0100
0002
0000
0000
0000
0000
0103
,
0010
0000
1000
0000
0000
1000
0000
0000
0001
0000
0000
0001
0000
0000
2000
0000
,
0000
0000
0000
0000
3010
0100
0002
0000
,
0000
0000
0000
0013
0100
2000
0000
0000
,
0000
0000
0000
0000
3100
0000
0010
0000
0001
0000
0000
0001
0000
0000
0100
0000
,
0000
0100
0000
0000
0010
0000
0000
0010
0000
0000
1000
0000
0000
1000
0000
0000
,
0001
0000
0000
0011
0000
0000
0100
0000
0000
1100
0000
0000
1000
0000
0100
0000
,
0010
0001
0010
0100
1000
0000
0000
0000
,
0000
0000
0000
0000
0000
0010
0000
0010
0000
0000
0000
0000
0000
2002
0000
0000
,
0000
0000
0000
3003
;

//---------------dance-single - ----------------
#NOTEDATA:;
#CHARTNAME:;
#STEPSTYPE:dance-single;
#DESCRIPTION:;
#CHARTSTYLE:;
#DIFFICULTY:Hard;
#METER:12;
#RADARVALUES:0.529674,0.591106,0.593579,0.232270,0.288187,431.000000,362.000000,69.000000,27.000000,0.000000,0.000000,0.000000,0.000000,0.000000,0.529674,0.591106,0.593579,0.232270,0.288187,431.000000,362.000000,69.000000,27.000000,0.000000,0.000000,0.000000,0.000000,0.000000;
#CREDIT:;
#DISPLAYBPM:128.000000;
#NOTES:
0000
0000
0000
0000
,
0000
0000
0000
0000
,
0000
0000
0000
0000
,
0000
0000
0000
0000
0000
0000
0001
0001
,
0010
1000
1000
0010
0001
0001
0100
1000
,
1000
0100
0001
0010
0100
1000
0100
0010
,
0001
0000
0000
1000
0000
0000
0010
0000
0100
0000
0010
0000
2000
0000
0000
0010
,
0000
0000
3010
0000
1000
0000
0010
0000
0200
0000
0000
0001
0000
0000
0001
0000
,
0301
0000
0000
0000
0002
0000
0000
0010
0000
0000
0013
0000
0001
0000
0010
0000
,
0200
0000
0000
1000
0000
0000
1300
0000
0010
0000
0100
0000
0001
0000
1000
0000
,
0100
0000
0001
0000
0100
0000
1000
0000
0001
0000
0000
0010
0000
0000
0002
0000
,
0100
0103
0001
1000
0100
0001
0100
1000
,
0001
0000
0000
0010
0000
0000
0200
0000
1000
0000
1300
0000
0001
0000
1000
0000
,
0010
0000
0001
0000
0010
0000
1000
0000
0001
0000
0000
0001
0000
0000
1000
0000
,
0000
1000
0000
0000
0010
0000
0000
0010
0000
0000
0100
0000
0000
0100
0000
0000
,
0001
0010
0100
1001
0000
0000
0000
1000
,
1100
0000
0001
0101
0000
1000
1001
0100
,
0010
0000
0010
0101
0000
0010
1100
0000
,
0010
0101
1000
0001
0000
1000
0110
0000
,
0001
0110
0000
1000
0110
0001
0110
1000
,
0020
0000
0000
0000
0000
0000
1030
0000
0001
0000
0100
0010
0200
0000
0000
0000
,
0000
0000
0000
0000
0300
0000
0001
1000
0002
0000
0000
0000
0000
0000
1003
0000
,
0100
0000
0010
0000
0000
0110
0000
0110
0000
0010
0100
0000
1000
0000
0001
0000
,
1001
1000
0100
0010
0001
0010
1001
1000
,
0100
0010
0001
0010
1001
1000
0010
0001
,
0001
0010
1000
1000
0100
0001
0001
0100
,
0110
0001
0010
0100
1000
0100
1001
1000
,
0100
0000
0010
0000
0010
0000
0010
0000
1001
0000
1000
0001
0000
0001
0100
0000
,
0100
0010
0000
0010
1000
0000
1000
0100
0000
0100
0010
0000
0010
0000
0010
0000
,
0011
0000
0010
0001
0000
0010
0001
0000
0010
0000
0001
0000
1000
0000
1001
0000
,
1000
0001
0000
1000
0001
0000
1000
0000
0001
0000
0100
0000
0101
0000
0001
0100
,
0000
0001
0100
0000
0001
0000
1000
0000
0010
0000
0100
0000
0000
1010
0000
0000
,
0100
0000
0000
0011
0000
0000
1001
0000
0001
1000
0000
0001
1000
0000
0001
0000
,
0010
0000
0100
0000
1100
0000
1000
0100
0000
1000
0100
0000
1000
0000
0001
0000
,
1000
0000
0110
0000
0010
0100
0000
0010
0100
0000
0010
0000
1000
0000
0001
0000
,
0010
0000
0000
1100
0000
0000
0010
0000
0000
0101
0000
0000
1010
0000
0000
1001
,
0000
0000
0011
0000
0000
0110
0000
0000
2001
0000
0000
0001
0000
0000
3100
0000
,
0010
0001
1000
0100
0001
0100
1000
0001
,
0002
0000
0000
0100
0000
0000
1003
0000
0100
0000
1000
0000
0001
0000
0010
0000
,
0100
0000
0220
0000
0000
0000
0330
0000
2000
0000
0000
0100
0000
0000
3010
0000
,
0010
0000
0100
0000
0002
0000
0000
0010
0000
0000
1003
0000
0100
0000
0010
0000
,
0110
0000
0000
1001
0000
0000
0010
0010
,
0010
0220
0000
0000
0330
0000
0000
0000
,
0000
0000
0000
0000
,
0000
0000
0000
0000
,
0000
0000
0000
0000
0022
0000
0033
0220
,
0000
0330
2200
0000
3300
2002
0000
3003
,
0001
0010
0011
0100
0010
0110
1000
0100
,
1100
0000
0001
0000
1000
0000
1001
0000
1010
0000
0010
1000
0000
0010
1000
0000
,
0010
0000
1000
0000
0001
0000
1001
0000
0001
1000
0000
0001
1000
0000
0001
0000
,
1000
0000
0100
0000
1100
0000
1000
0100
0000
1000
0100
0000
1000
0000
0001
0000
,
0010
0000
0100
0000
0000
0011
0000
0000
0100
0000
0000
1010
0000
0000
1001
0000
,
0010
0001
0000
1000
0001
0000
0100
0000
0010
0000
1000
0000
0101
0000
0010
1000
,
0000
0001
1000
0000
0100
0000
1000
0000
0001
0000
0110
0000
0010
0001
0000
0010
,
0100
0000
0010
0000
0001
0000
1000
0000
0010
0000
0000
0101
0000
0000
0010
0000
,
0000
1100
0000
0000
0011
0000
0000
1001
0000
0000
1010
0000
0000
0110
0000
0000
,
0011
0000
0000
0101
0000
0000
1100
0000
0000
1010
0000
0000
1001
0000
0100
0000
,
0010
0001
0010
0100
1001
0000
0000
0000
,
0000
0000
0000
0000
0000
0110
0000
0110
0000
0000
0000
0000
0000
2002
0000
0000
,
0000
0000
0000
3003
;

//---------------dance-single - ----------------
#NOTEDATA:;
#CHARTNAME:;
#STEPSTYPE:dance-single;
#DESCRIPTION:;
#CHARTSTYLE:;
#DIFFICULTY:Challenge;
#METER:15;
#RADARVALUES:0.755799,0.848108,0.714015,0.309693,0.748426,615.000000,532.000000,83.000000,36.000000,0.000000,0.000000,0.000000,0.000000,0.000000,0.755799,0.848108,0.714015,0.309693,0.748426,615.000000,532.000000,83.000000,36.000000,0.000000,0.000000,0.000000,0.000000,0.000000;
#CREDIT:;
#DISPLAYBPM:128.000000;
#NOTES:
0000
0000
0000
0000
,
0000
0000
0000
0000
,
0000
0000
0000
0000
,
0000
0000
0000
0000
0000
0000
0000
0000
0000
0000
0000
0000
0101
0000
0001
0100
,
0010
0000
1010
0000
0010
1000
0100
0000
1100
0000
0100
0010
0001
0000
0011
0000
,
0001
0100
0010
0000
1000
0100
1000
0100
0010
0001
0010
0000
0100
0000
1000
0000
,
1001
0000
0001
0100
0000
0100
0010
0000
1000
0000
0100
0000
1001
0000
1000
0001
,
0000
0001
1000
0000
1000
0000
0001
0000
0101
0000
0010
1000
0000
1000
0010
0000
,
1010
0000
0000
0000
1001
0000
0001
1000
0000
1000
0001
0000
0001
0000
1000
0000
,
1100
0000
0010
0001
0000
0001
0010
0000
0010
0000
0001
0000
1000
0100
1000
0100
,
0010
0001
0010
0000
0001
0000
1000
0010
0100
0000
0100
0010
0000
0010
0100
0000
,
0001
0000
0101
0000
1000
0100
1000
0100
0010
0001
0010
0000
0001
0000
1000
0001
,
0100
0000
0100
0010
0000
0010
1000
0000
0001
0000
1001
0000
1000
0100
1000
0100
,
0010
0001
0010
0000
0100
0000
1000
0001
1000
0000
1000
0100
0000
0100
0001
0000
,
0001
0000
0100
0000
0010
0000
0000
1001
0000
0000
0100
0000
0000
0110
0000
0000
,
1000
0100
0010
0001
0010
0100
1000
0000
0000
0000
0000
0000
0000
0000
0012
0000
,
0103
0000
0001
0000
2100
0000
3010
0000
1000
0000
0102
0000
0013
0000
0001
1000
,
0100
0010
0000
0000
2100
0000
3010
0000
1000
0000
0102
0000
0013
0000
0001
0000
,
2100
0000
3010
0000
0100
0001
1000
0010
0000
0000
0102
0000
0013
0000
0100
0000
,
2010
0000
3100
0000
0010
0000
0201
0000
0310
0000
0010
0100
0010
1000
0100
0010
,
0001
0000
0001
0000
0101
0000
0100
0000
0010
1000
0001
0000
0010
0000
0010
0000
,
0011
0000
0100
0000
1000
0010
0100
0000
0001
0000
0001
0000
1001
0000
0100
0010
,
0001
1000
0100
0010
0000
0110
0000
0110
0000
0010
0001
0010
0100
1000
0001
0000
,
1001
0000
0010
0100
1000
0100
0020
0000
0001
0000
0130
0000
1100
0000
1000
0100
,
0010
0001
0200
0000
0001
0000
0310
0000
1010
0000
1000
0010
0100
0000
0101
0000
,
0100
0001
0010
0000
0011
0000
0010
0100
1000
0000
1100
0000
1000
0010
0100
0000
,
0110
0000
1000
0100
0010
0001
0020
0000
0001
0000
0130
0000
1000
0010
1000
0100
,
0010
0001
0100
0000
0101
0000
1001
0000
0010
1000
0010
0100
0000
0100
0010
0001
,
0010
0100
0000
0100
0001
1000
0001
0010
0000
0010
0100
0000
0110
0000
1001
0000
,
1100
0000
0100
0010
0100
1000
0100
0010
0001
0000
0021
0000
0032
0000
2003
0000
,
3100
0010
0100
1000
0100
0010
0001
0000
0021
0000
0032
0000
2003
0000
3100
0010
,
0100
1000
0100
0010
0001
0000
0021
0000
0032
0000
0103
0000
0001
0010
0000
0000
,
1000
0000
0100
0001
0000
0000
1100
0000
0100
0010
0100
1000
0100
0010
0001
0000
,
0011
0000
1001
0000
1100
0000
0100
0010
0100
1000
0100
0010
0001
0000
0011
0000
,
1001
0000
1100
0000
0100
0010
0100
1000
0100
0010
0001
0000
0011
0000
1001
0000
,
1010
0000
0010
1000
0000
1000
0001
0000
0001
0100
0000
0000
0110
0000
0000
1001
,
0000
0000
0001
0010
0100
0010
0100
1000
0002
0000
0000
0100
0000
0103
0010
0000
,
1000
0000
0100
0000
0010
0001
0010
0000
0100
0000
1000
0010
1000
0000
0001
0000
,
2000
0000
0000
0100
0000
3100
0010
0000
0001
0000
0100
0000
0010
0100
0010
1000
,
0100
0010
0002
0000
0000
0000
1003
0000
0020
0000
0000
0100
0000
0130
0001
0000
,
1000
0000
0010
0000
0200
0000
0000
0010
0000
0310
1000
0000
0001
0000
1000
0000
,
1100
0000
0000
0000
0000
0000
0011
0000
0000
0000
0000
0000
0010
1000
0010
0100
,
0010
0001
0020
0000
0000
0000
0000
0000
0130
0000
0000
0000
0000
0000
0000
0000
,
0000
0000
0000
0000
,
0000
0000
0000
0000
,
0000
0000
0000
0000
0000
0000
0000
0000
1001
0000
0100
1000
0100
0010
0001
0000
,
0010
0000
0100
0000
0010
0100
1000
0100
0010
0001
0100
0000
0001
0000
1000
0000
,
1010
0101
1010
0011
1100
0011
1001
0110
,
1001
0000
0010
0100
1000
0100
0010
0001
1001
0000
0100
0010
0100
1000
0100
0010
,
0001
0000
0021
0000
0032
0000
2003
0000
3100
0010
0100
1000
0100
0010
0001
0000
,
0021
0000
0032
0000
2003
0000
3100
0010
0100
1000
0100
0010
0001
0000
0021
0000
,
0032
0000
0103
0000
0010
1000
0000
0000
0100
0000
0001
0010
0000
0000
1100
0000
,
0100
0010
0100
1000
0100
0010
0001
0000
0011
0000
1001
0000
1100
0000
0001
0010
,
0001
0100
0010
1000
0001
0010
0100
1000
0001
0000
1100
0000
0100
0010
0100
1000
,
0100
0010
0001
0000
0011
0000
1001
0000
1010
0000
0010
1000
0000
1000
0001
0000
,
0000
1001
0000
0000
0010
0001
0100
0010
1000
0100
0001
0100
1000
0001
0010
1000
,
0010
0100
1000
0010
0100
0001
1000
0010
0001
1000
0100
0001
1000
0100
0010
0001
,
0010
0100
1000
0000
0001
0000
0010
0100
0010
0000
0000
0000
0000
0000
0000
0000
,
0000
0000
0000
0000
0000
0011
0000
1100
0000
0000
0000
0000
0000
2002
0000
0000
,
0000
0000
0000
3003
;

//---------------dance-double - ----------------
#NOTEDATA:;
#CHARTNAME:;
#STEPSTYPE:dance-double;
#DESCRIPTION:;
#CHARTSTYLE:;
#DIFFICULTY:Easy;
#METER:4;
#RADARVALUES:0.159762,0.231302,0.077423,0.283886,0.004301,130.000000,121.000000,9.000000,33.000000,0.000000,0.000000,0.000000,0.000000,0.000000,0.159762,0.231302,0.077423,0.283886,0.004301,130.000000,121.000000,9.000000,33.000000,0.000000,0.000000,0.000000,0.000000,0.000000;
#CREDIT:;
#DISPLAYBPM:128.000000;
#NOTES:
00000000
00000000
00000000
00000000
,
00000000
00000000
00000000
00000000
,
00000000
00000000
00000000
00000000
,
00000000
00000000
00000000
00000001
,
00000000
00000010
00000000
00000000
00000100
00000000
00000000
00001000
,
00000000
00000001
00000000
00000000
,
00000100
00000000
00000000
00001000
00000000
00000000
00020000
00000000
,
00000000
00000000
00000000
00000000
00000000
00000000
00000000
00030000
,
00000000
00022000
00000000
00000000
,
00000000
00000000
00033000
00100000
,
00000000
00100000
00000000
00000000
00010000
00000000
00000000
00000000
,
00000000
00000000
10000000
00000000
00000000
10000000
00000000
00000000
,
01000000
00000000
00000000
01000000
,
00000000
01000000
00000000
00000000
00100000
00000000
00000000
00100000
,
00000000
00000000
00001000
00000000
00000000
00010000
00000000
00000000
,
00002000
00000000
00000000
00003000
00000000
00000000
00010000
00000000
,
00000000
00000100
00000000
00000000
00001000
00000000
00000000
00000010
,
00000000
00000100
00000000
00000000
00001000
00000000
00000000
00010000
,
00000000
00000000
00001000
00000000
01000000
00000000
00000000
00010000
,
00000000
00000000
00100000
00000000
00000000
00010000
00000000
00000000
,
20000000
00000000
00000000
31000000
00000000
00000000
00200000
00000000
,
00000000
00300000
00000000
00000000
00002000
00000000
00000000
00013000
,
00000000
00022000
00000000
00033000
,
00020000
00000000
00000000
00031000
00000000
00000000
00002000
00000000
,
00000000
00003100
00000000
00000000
00000001
00000000
00000000
00000010
,
00000000
00000000
00000100
00000000
00000000
00001000
00000000
00000000
,
00020000
00000000
00000000
00031000
00000000
00000000
00200000
00000000
,
00000000
00310000
00000000
00000000
00010000
00000000
00000000
00100000
,
00000000
00000000
01000000
00000000
00000000
10000000
00000000
00000000
,
00020000
00000000
00000000
00000000
00000000
01030000
00000000
00020000
,
00000000
00000000
10030000
00020000
,
00000000
00000000
00000000
00130000
00000000
00001000
00000000
00000000
,
00011000
00000000
00000000
00002000
00000000
00000000
00000000
00000000
,
00003100
00000000
00002000
00000000
00000000
00000000
00000000
00003001
,
00000000
00002000
00000000
00000000
00000000
00000000
00003010
00000000
,
00001000
00000000
00000000
00000100
00000000
00000000
00000010
00000000
,
00000000
00000100
00000000
00000000
00000010
00000000
00000000
00000001
,
00000000
00000000
00000100
00000000
00000000
00001000
00000000
00000000
,
00010000
00000000
00000000
00001000
00000000
00000000
00100000
00000000
,
00000000
00010000
00000000
00000000
00100000
00000000
00000000
10000000
,
00000000
00000000
01000000
00000000
00000000
00010000
00000000
00000000
,
00001000
00000000
00000000
00010000
00000000
00000000
00022000
00000000
,
00000000
00000000
00033000
00000000
,
00000000
00000000
00000000
00000000
,
00000000
00000000
00000000
00000000
,
00000000
00000000
00000000
00000000
00000001
00000000
00000000
00000010
,
00000000
00000000
00000100
00000000
00000000
00001000
00000000
00000000
,
00020000
00000000
00030000
00200000
00000000
00300000
02000000
00000000
,
03000000
20000000
00000000
30000000
00020000
00000000
00000000
00000000
,
00000000
01030000
00000000
00020000
00000000
00000000
00000000
00000000
,
10030000
00000000
00020000
00000000
00000000
00000000
00000000
00130000
,
00000000
00001000
00000000
00000000
00011000
00000000
00000000
00002000
,
00000000
00000000
00003100
00002000
,
00000000
00000000
00000000
00003001
00000000
00002000
00000000
00000000
,
00000000
00000000
00003010
00000000
00010000
00000000
00000000
00001000
,
00000000
00000000
00000010
00000000
00000000
00000100
00000000
00000000
,
00001001
00000000
00000000
00000110
00000000
00000000
00001000
00000000
,
00000000
00010000
00000000
00000000
00011000
00000000
00000000
00000000
,
00000000
00000000
00000000
00000000
00000000
00000000
00000000
00000000
00000000
00000000
00000000
00000000
00000000
20020000
00000000
00000000
,
00000000
00000000
00000000
30030000
,
;

//---------------dance-double - ----------------
#NOTEDATA:;
#CHARTNAME:;
#STEPSTYPE:dance-double;
#DESCRIPTION:;
#CHARTSTYLE:;
#DIFFICULTY:Medium;
#METER:8;
#RADARVALUES:0.299862,0.359803,0.051616,0.301091,0.120436,244.000000,238.000000,6.000000,35.000000,0.000000,0.000000,0.000000,0.000000,0.000000,0.299862,0.359803,0.051616,0.301091,0.120436,244.000000,238.000000,6.000000,35.000000,0.000000,0.000000,0.000000,0.000000,0.000000;
#CREDIT:;
#DISPLAYBPM:128.000000;
#NOTES:
00000000
00000000
00000000
00000000
,
00000000
00000000
00000000
00000000
,
00000000
00000000
00000000
00000000
,
00000000
00000000
00000000
00000001
,
00000001
00000010
00000000
00000010
00000100
00000000
00000100
00001000
,
00000000
00001000
00000001
00000000
00000001
00000100
00000000
00000000
,
00001000
00000000
00001000
00010000
00001000
00100000
02000000
00000000
,
00000000
00000000
00000000
00000000
00000000
00000000
00000000
03000000
,
00000000
10000000
20020000
00000000
00000000
00000000
00000000
00000000
,
00000000
00000000
00000000
00000000
30030000
00000000
10000000
01000000
,
00100000
01000000
00000000
00000000
10000000
00000000
00000000
00010000
,
00000000
00000000
00100000
00001000
00010000
00001000
00000000
00000000
,
00010000
00000000
00000000
00000100
00000000
00000000
00001000
00000100
,
00000010
00000100
00000000
00000000
00001000
00000000
00000000
00000001
,
00000000
00000000
00000000
00000000
00000010
00000000
00000000
00000010
00000000
00000000
00000100
00000000
00000000
00000100
00000000
00000000
,
00001000
00010000
00001000
01000000
00000000
00000000
00000000
10000000
,
00100000
00000000
10000000
01000000
00000000
10000000
00100000
00010000
,
00001000
00000000
00010000
00000010
00000000
00010000
00000100
00000000
,
00010000
00001000
00000010
00000001
00000000
00000010
00000100
00000000
,
00001000
00000001
00000000
00000100
00000010
00010000
00001000
00100000
,
02000000
00000000
00000000
10000000
00000000
00000000
03200000
00000000
,
00000000
10000000
00000000
00000000
02300000
00000000
00000000
00010000
,
00000000
00000000
00000000
00000000
03000000
10000000
00000000
10000000
00000000
10000000
01000000
00000000
00010000
00000000
00001000
00000000
,
00020000
00000000
00000000
00030100
00001000
00000100
00000020
00000000
,
00000000
00000031
00000100
00000001
00000010
00000000
00000010
00000100
,
00000000
00000100
00010000
00000000
00010000
00001000
00100000
01000000
,
20000000
00000000
00000000
31000000
00100000
01000000
00020000
00000000
,
00000000
00000000
00031000
00000000
00010000
00000000
00001000
00000000
00010000
00000000
00000000
00010000
00000000
00000000
00000100
00000000
,
00000000
00000100
00000000
00000000
00000010
00000000
00000000
00000010
00000000
00000000
00000001
00000000
00000001
00000000
00000001
00000000
,
00000200
00000000
00000000
00000000
00000000
00000310
00000010
00000200
,
00000000
00000000
00000000
00000000
00000310
00000010
00000200
00000000
,
00000000
00000000
00000000
00000000
00000000
00000000
00000310
00000000
00000100
00000000
00000010
00000000
00000000
00001000
00000000
00000000
,
00010000
00000000
00000000
00100000
00000000
00000000
02000000
00000000
00000000
00000000
00000000
00000000
00000000
00000000
00000000
00000000
,
03100000
00100000
02000000
00000000
00000000
00000000
00000000
03100000
,
00100000
02000000
00000000
00000000
00000000
00000000
03100000
01000000
,
10000000
00000000
00000000
10000000
00000000
00000000
01000000
00000000
00000000
01000000
00000000
00000000
00010000
00000000
00000000
00001000
,
00000000
00000000
00000010
00000000
00000000
00000100
00000000
00000000
00000020
00000000
00000000
00000000
00000000
00000000
00000031
00000000
,
00000100
00000010
00002000
00000000
00000000
00003100
00000000
00000000
,
00020000
00000000
00000000
00031000
01000000
00100000
01000000
00000000
,
00000000
10010000
00000000
00000000
02000000
00000000
00000000
03100000
,
00001000
00010000
00000200
00000000
00000000
00000310
00000001
00001000
,
00000100
00000000
00000000
00000011
00000000
00000000
00000100
00001000
,
00010000
00022000
00000000
00000000
00033000
00000000
00000000
00000000
,
00000000
00000000
00000000
00000000
,
00000000
00000000
00000000
00000000
,
00000000
00000000
00000000
00000000
00000002
00000000
00000000
00000023
,
00000000
00000000
00000230
00000000
00000000
00002300
00000000
00000000
,
00013000
00010000
00010000
00100000
00100000
00100000
01000000
01000000
,
01000000
10000000
10000000
10000000
02000000
00000000
00000000
00000000
,
00000000
03100000
00010000
02000000
00000000
00000000
00000000
00000000
,
03100000
10000000
02000000
00000000
00000000
00000000
00000000
03010000
,
00001000
00000000
00010000
00000000
00000000
00010000
00000000
00000000
00000010
00000000
00000000
00000010
00000000
00000000
00000200
00000000
,
00000000
00000010
00000000
00000000
00000010
00000000
00000000
00000000
00000310
00000000
00001000
00000000
00000200
00000000
00000000
00000010
,
00000000
00000000
00000010
00000000
00000000
00000000
00000310
00000000
00000001
00000000
00000200
00000000
00000000
00000010
00000000
00000000
,
00000010
00000000
00000000
00000000
00000310
00000000
00000100
00000000
00001000
00000000
00000000
00001000
00000000
00000000
00010000
00000000
,
00000000
00010000
00000000
00000000
00100000
00000000
00000000
10000000
00000000
00000000
01000000
00000000
00000000
00010000
00000000
00000000
,
00000010
00000000
00000000
00000100
00000000
00000000
00001000
00000000
00000000
00010000
00000000
00000000
00001000
00000000
00010000
00000000
,
00001000
00100000
01000000
10000000
10010000
00000000
00000000
00000000
,
00000000
00000000
00000000
00000000
00000000
00100000
00000000
00100000
00000000
00000000
00000000
00000000
00000000
00022000
00000000
00000000
,
00000000
00000000
00000000
00033000
,
;

//---------------dance-double - ----------------
#NOTEDATA:;
#CHARTNAME:;
#STEPSTYPE:dance-double;
#DESCRIPTION:;
#CHARTSTYLE:;
#DIFFICULTY:Hard;
#METER:12;
#RADARVALUES:0.500179,0.591106,0.318296,0.206462,0.279584,407.000000,370.000000,37.000000,24.000000,0.000000,0.000000,0.000000,0.000000,0.000000,0.500179,0.591106,0.318296,0.206462,0.279584,407.000000,370.000000,37.000000,24.000000,0.000000,0.000000,0.000000,0.000000,0.000000;
#CREDIT:;
#DISPLAYBPM:128.000000;
#NOTES:
00000000
00000000
00000000
00000000
,
00000000
00000000
00000000
00000000
,
00000000
00000000
00000000
00000000
,
00000000
00000000
00000000
00000000
00000000
00000000
00000001
00000001
,
00000100
00000010
00000010
00010000
00001000
00001000
01000000
00100000
,
00100000
10000000
01000000
00010000
00001000
00000010
00001000
00010000
,
01000000
00000000
00000000
00100000
00000000
00000000
01000000
00000000
00010000
00000000
00001000
00000000
00002000
00000000
00000000
00010000
,
00000000
00000000
00010000
00000000
00013000
00000000
00000100
00000000
00000020
00000000
00000000
00000001
00000000
00000000
00000001
00000000
,
00000031
00000000
00000000
00000000
00000200
00000000
00000000
00000001
00000000
00000000
00000301
00000000
00000100
00000000
00001000
00000000
,
00020000
00000000
00000000
00001000
00000000
00000000
00031000
00000000
00010000
00000000
00100000
00000000
01000000
00000000
00010000
00000000
,
00100000
00000000
01000000
00000000
10000000
00000000
00100000
00000000
01000000
00000000
00000000
00100000
00000000
00000000
01000000
00000000
,
00100000
00100000
10000000
01000000
00010000
00001000
00000100
00001000
,
00010000
00000000
00000000
00001000
00000000
00000000
00010000
00000000
00000010
00000000
00000010
00000000
00001000
00000000
00000100
00000000
,
00000010
00000000
00000001
00000000
00000010
00000000
00000100
00000000
00001000
00000000
00000000
00001000
00000000
00000000
00000001
00000000
,
00000000
00000001
00000000
00000000
00000010
00000000
00000000
00000010
00000000
00000000
00000100
00000000
00000000
00000100
00000000
00000000
,
00000010
00001000
00010000
01000000
00000000
00000000
00000000
10000000
,
10000000
01000000
00010000
00010000
01000000
10000000
10000000
01000000
,
00010000
00000000
00001000
00001000
01000000
00010000
00010000
00100000
,
00001000
00001000
00010000
00000010
00000000
00001000
00001000
00000100
,
00000001
00000001
00000100
00000010
00000010
00000001
00000010
00000100
,
00002000
00000000
00000100
00003200
00000000
00010000
00020300
00000000
,
00001000
00031000
00010000
00100000
20000000
00000000
01000000
31000000
,
00100000
00000000
00010000
00100000
00000000
00110000
00000000
00101000
00000000
00100000
00001000
00000000
00010000
00000000
00001000
00000000
,
00011000
00010000
00100000
10000000
00100000
00010000
00011000
00001000
,
00000100
00000001
00000010
00000100
00001001
00000001
00000100
00000010
,
00000010
00010000
00001000
00001000
01000000
00100000
00100000
10000000
,
11000000
00010000
00100000
01000000
00100000
00010000
00001000
00000100
,
00000010
00000000
00000100
00000000
00001000
00000000
00001000
00000000
00001001
00000000
00000001
00000010
00000000
00000010
00001000
00000000
,
00001000
00010000
00000000
00010000
00100000
00000000
00100000
10000000
00000000
10000000
00010000
00000000
10000000
00000000
00010000
00000000
,
10010000
00000000
10000000
01000000
00000000
10000000
01000000
00000000
10000000
00000000
00010000
00000000
00100000
00000000
00001000
00000000
,
00010000
00000100
00000000
00010000
00000100
00000000
00001000
00000000
00000100
00000000
00000010
00000000
00000001
00000000
00000010
00000001
,
00000000
00000010
00000001
00000000
00001000
00000000
00000100
00000000
00000010
00000000
00000100
00000000
00000000
00001001
00000000
00000000
,
00000100
00000000
00000000
00011000
00000000
00000000
00100000
00000000
00010000
10000000
00000000
00010000
10000000
00000000
00010000
00000000
,
10000000
00000000
01000000
00000000
00100000
00000000
00001000
00100000
00000000
00001000
00100000
00000000
00001000
00000000
00010000
00000000
,
00000010
00000000
00001000
00000000
00000001
00000100
00000000
00000001
00000100
00000000
00000001
00000000
00001000
00000000
00000001
00000000
,
00000100
00000000
00000000
00000110
00000000
00000000
00001000
00000000
00000000
00010000
00000000
00000000
00100000
00000000
00000000
01100000
,
00000000
00000000
10000000
00000000
01000000
00000000
00010000
00000000
00002000
00000000
00000000
00100000
00000000
00000000
01003000
00000000
,
00100000
10000000
01000000
00000000
00100000
00001000
00000000
00001000
,
00020000
00000000
00000000
00000100
00000000
00000000
00030010
00000000
00001000
00000000
00000001
00000000
00000100
00000000
00000000
00000000
,
00000010
00000000
00000110
00000000
00000000
00000000
00001000
00000000
00000020
00000000
00000000
00000001
00000000
00000000
00000130
00000000
,
00001000
00000000
00010000
00000000
00200000
00000000
00000000
10000000
00000000
00000000
01300000
00000000
00010000
00000000
10000000
00000000
,
10010000
00000000
00000000
01100000
00000000
00000000
00010000
00001000
,
00010000
00022000
00000000
00000000
00033000
00000000
00000000
00000000
,
00000000
00000000
00000000
00000000
,
00000000
00000000
00000000
00000000
,
00000000
00000000
00000000
00000000
00000220
00000000
00000330
00022000
,
00000000
00033000
02200000
00000000
03300000
00022000
00000000
00033000
,
00000010
00000100
00000110
00001000
00010000
00011000
00100000
01000000
,
01100000
00000000
00010000
00000000
00001000
00000000
00011000
00000000
00000010
00000000
00000100
00000001
00000000
00000100
00000001
00000000
,
00000001
00000000
00000100
00000000
00001000
00000000
00010000
00000000
00001000
00100000
00000000
00001000
00100000
00000000
00100000
00000000
,
00010000
00000000
01000000
00000000
00100000
00000000
10000000
01000000
00000000
10000000
01000000
00000000
01000000
00000000
00100000
00000000
,
00010000
00000000
00100000
00000000
00000000
10010000
00000000
00000000
00100000
00000000
00000000
00011000
00000000
00000000
00000100
00000000
,
00001000
00000001
00000000
00001000
00000100
00000000
00000010
00000000
00000001
00000000
00000100
00000000
00001000
00000000
00010000
00000100
,
00000000
00010000
00001000
00000000
00100000
00000000
00010000
00000000
01000000
00000000
00100000
00000000
10000000
00010000
00000000
01000000
,
00001000
00000000
00100000
00000000
00010000
00000000
01000000
00000000
00100000
00000000
00000000
11000000
00000000
00000000
00100000
00000000
,
00000000
01010000
00000000
00000000
00001000
00000000
00000000
00011000
00000000
00000000
00000010
00000000
00000000
00000110
00000000
00000000
,
00000001
00000000
00000000
00000101
00000000
00000000
00001010
00000000
00000000
00001001
00000000
00000000
00001000
00000000
00000001
00000000
,
00000100
00001000
00010000
01000000
10010000
00000000
00000000
00000000
,
00000000
00000000
00000000
00000000
00000000
00101000
00000000
00101000
00000000
00000000
00000000
00000000
00000000
00022000
00000000
00000000
,
00000000
00000000
00000000
00033000
,
;

//---------------dance-double - ----------------
#NOTEDATA:;
#CHARTNAME:;
#STEPSTYPE:dance-double;
#DESCRIPTION:;
#CHARTSTYLE:;
#DIFFICULTY:Challenge;
#METER:15;
#RADARVALUES:0.728763,0.848108,0.438732,0.421527,0.800041,593.000000,542.000000,51.000000,49.000000,0.000000,0.000000,0.000000,0.000000,0.000000,0.728763,0.848108,0.438732,0.421527,0.800041,593.000000,542.000000,51.000000,49.000000,0.000000,0.000000,0.000000,0.000000,0.000000;
#CREDIT:;
#DISPLAYBPM:128.000000;
#NOTES:
00000000
00000000
00000000
00000000
,
00000000
00000000
00000000
00000000
,
00000000
00000000
00000000
00000000
,
00000000
00000000
00000000
00000000
00000000
00000000
00000000
00000000
00000000
00000000
00000000
00000000
00000001
00000010
00000001
00000010
,
00000100
00000000
00001000
00000100
00001000
00000100
00010000
00000000
00001000
00100000
00001000
00100000
00010000
00000000
10000000
00010000
,
10000000
00010000
01000000
00000000
00010000
10000000
01000000
00100000
00010000
00100000
01000000
00000000
10000000
00000000
00010000
00000000
,
10010000
00000000
10000000
01000000
00000000
01000000
00100000
00000000
00001000
00000000
00010000
00000000
00011000
00000000
00010000
00000100
,
00000000
00000100
00000010
00000000
00000010
00000000
00000011
00000000
00000001
00000000
00000001
00000100
00000000
00000100
00001000
00000000
,
00010000
00000000
00000000
00000000
00011000
00000000
00001000
01000000
00000000
01000000
00100000
00000000
00100000
00000000
10100000
00000000
,
10000000
00000000
10000000
01000000
00000000
01000000
00010000
00000000
00001000
00000000
00010000
00000000
01000000
10000000
01000000
00100000
,
00010000
00100000
00010000
00000000
10000000
00000000
00010000
00100000
00010000
00000000
00010000
00100000
00000000
00100000
01000000
00000000
,
00100000
00000000
00110000
00000000
00010000
01000000
00001000
00010000
00001000
00010000
00000010
00000000
00010000
00000000
00001000
00010000
,
00000100
00000000
00000100
00000010
00000000
00000010
00000100
00000000
00001000
00000000
00001100
00000000
00000100
00001000
00000100
00000010
,
00000001
00000010
00000001
00000000
00001000
00000000
00000001
00000100
00000001
00000000
00000001
00000100
00000000
00000100
00000010
00000000
,
00000010
00000000
00001000
00000000
00001001
00000000
00000000
00000100
00000000
00000000
00010010
00000000
00000000
00001000
00000000
00000000
,
00010000
00001000
00100000
00010000
01000000
00100000
10000000
00000000
00000000
00000000
00000000
00000000
00000000
00000000
20100000
00000000
,
31000000
00000000
00100000
00000000
02010000
00000000
03100000
00000000
00010000
00000000
00201000
00000000
00310000
00000000
10000000
01000000
,
00100000
00010000
00000000
00000000
00102000
00000000
00013000
00000000
00000100
00000000
00021000
00000000
00030010
00000000
00001000
00000000
,
00000120
00000000
00001030
00000000
00000100
00010000
00001000
00000010
00000000
00000000
00000012
00000000
00001003
00000000
00000100
00000000
,
00000021
00000000
00000130
00000000
00001000
00000000
00020010
00000000
00031000
00000000
00010000
00001000
00100000
00010000
01000000
00100000
,
10000000
00000000
10000000
01000000
00100000
00000000
00100000
00000000
00100000
00001000
00010000
00000000
00010000
00000000
00010000
00000100
,
00000010
00000000
00000010
00000000
00000010
00000001
00000100
00000000
00000100
00000000
00000100
00001000
00010000
00000000
00010000
00001000
,
00100000
00010000
01000000
00100000
00000000
01100000
00000000
01100000
00000000
00100000
01000000
00010000
00100000
01000000
10000000
00000000
,
10010000
00000000
00100000
01000000
10000000
01000000
00200000
00000000
00010000
00000000
01300000
00000000
00101000
00000000
00100000
00001000
,
00010000
00000100
00002000
00000000
00000100
00000000
00003001
00000000
00000001
00000100
00000001
00000100
00000010
00000000
00001000
00000010
,
00001000
00000010
00010000
00000000
00001000
01000000
00001000
01000000
00010000
00000000
10000000
00010000
10000000
00010000
00100000
00000000
,
01100000
00000000
10000000
01000000
00100000
00010000
00200000
00000000
00010000
00000000
01300000
00000000
00100000
00010000
00100000
00001000
,
00010000
00000100
00001000
00000000
00001100
00000000
00001001
00000000
00000001
00000100
00000001
00000010
00000000
00000010
00000100
00010000
,
00001000
00010000
00000000
00010000
00001000
00100000
01000000
00100000
00000000
00100000
01000000
00000000
01100000
00000000
10010000
00000000
,
11000000
00000000
01000000
10000000
01000000
00100000
00010000
00100000
00001000
00000000
00020000
00000000
00032000
00000000
00203000
00000000
,
01300000
10000000
01000000
00100000
00010000
00100000
00001000
00000000
00020000
00000000
00032000
00000000
00203000
00000000
01300000
10000000
,
01000000
00100000
00010000
00100000
00001000
00000000
00020000
00000000
00032000
00000000
00013000
00000000
00000000
00010100
00000000
00000000
,
00000010
00000000
00000000
00001001
00000000
00000000
00000110
00000000
00000100
00010000
00000100
00001000
00000001
00000010
00000100
00000000
,
00000020
00000000
00000000
00000000
00000000
00000000
00000000
00000000
00000000
00000000
00000000
00000000
00000000
00000000
00000000
00000000
00000000
00000000
00000000
00000000
00000000
00000000
00000000
00000000
00000230
00000000
00000000
00000000
00000000
00000000
00000000
00000000
00000000
00000000
00000000
00000000
00000000
00000000
00000000
00000000
00000000
00000000
00000000
00000000
00000000
00000000
00000000
00000000
00000320
00000000
00000000
00000000
00000000
00000000
00000000
00000000
00000000
00000000
00000000
00000000
00000000
00000000
00000000
00000000
00000000
00000000
00000000
00000000
00000000
00000000
00000000
00000030
00000100
00000000
00000000
00000000
00000000
00000000
00000000
00000000
00000000
00000000
00000000
00000000
00010000
00000000
00000000
00000000
00000000
00000000
00000000
00000000
00000000
00000000
00000000
00000000
00000100
00000000
00000000
00000000
00000000
00000000
00000000
00000000
00000000
00000000
00000000
00000000
00001000
00000000
00000000
00000000
00000000
00000000
00000000
00000000
00000000
00000000
00000000
00000000
00000001
00000000
00000000
00000000
00000000
00000000
00000000
00000000
00000000
00000000
00000000
00000000
00000010
00000000
00000000
00000000
00000000
00000000
00000000
00000000
00000000
00000000
00000000
00000000
00000100
00000000
00000000
00000000
00000000
00000000
00000000
00000000
00000000
00000000
00000000
00000000
00000000
00000000
00000000
00000000
00000000
00000000
00000000
00000000
00000000
00000000
00000000
00000000
00000020
00000000
00000000
00000000
00000000
00000000
00000000
00000000
00000000
00000000
00000000
00000000
00000000
00000000
00000000
00000000
00000000
00000000
00000000
00000000
00000000
00000000
00000000
00000000
,
00000230
00000000
00000000
00000000
00000000
00000000
00000000
00000000
00000000
00000000
00000000
00000000
00000000
00000000
00000000
00000000
00000000
00000000
00000000
00000000
00000000
00000000
00000000
00000000
00000320
00000000
00000000
00000000
00000000
00000000
00000000
00000000
00000000
00000000
00000000
00000000
00000000
00000000
00000000
00000000
00000000
00000000
00000000
00000000
00000000
00000000
00000000
00000030
00000100
00000000
00000000
00000000
00000000
00000000
00000000
00000000
00000000
00000000
00000000
00000000
00010000
00000000
00000000
00000000
00000000
00000000
00000000
00000000
00000000
00000000
00000000
00000000
00000100
00000000
00000000
00000000
00000000
00000000
00000000
00000000
00000000
00000000
00000000
00000000
00001000
00000000
00000000
00000000
00000000
00000000
00000000
00000000
00000000
00000000
00000000
00000000
00000001
00000000
00000000
00000000
00000000
00000000
00000000
00000000
00000000
00000000
00000000
00000000
00000010
00000000
00000000
00000000
00000000
00000000
00000000
00000000
00000000
00000000
00000000
00000000
00000100
00000000
00000000
00000000
00000000
00000000
00000000
00000000
00000000
00000000
00000000
00000000
00000000
00000000
00000000
00000000
00000000
00000000
00000000
00000000
00000000
00000000
00000000
00000000
00000020
00000000
00000000
00000000
00000000
00000000
00000000
00000000
00000000
00000000
00000000
00000000
00000000
00000000
00000000
00000000
00000000
00000000
00000000
00000000
00000000
00000000
00000000
00000000
00000230
00000000
00000000
00000000
00000000
00000000
00000000
00000000
00000000
00000000
00000000
00000000
00000000
00000000
00000000
00000000
00000000
00000000
00000000
00000000
00000000
00000000
00000000
00000000
,
00000310
00000000
00000010
00000001
00000000
00000001
00000100
00000000
00000100
00001000
00000000
00000000
00011000
00000000
00000000
00101000
,
00000000
00000000
00100000
00001000
00010000
01000000
00100000
00010000
20000000
00000000
00000000
01000000
00000000
31000000
00100000
00000000
,
00010000
00000000
01000000
00000000
00100000
10000000
00100000
00000000
01000000
00000000
00001000
00010000
00001000
00000000
00010000
00000000
,
00002000
00000000
00000000
00010000
00000000
00013000
00000100
00000000
00001000
00000000
00000010
00000000
00000001
00000010
00000100
00001000
,
00010000
00001000
00020000
00000000
00000000
00000000
00031000
00000000
00000020
00000000
00000000
00000001
00000000
00000031
00000100
00000000
,
00001000
00000000
00010000
00000000
00002000
00000000
00000000
00100000
00000000
00103000
00010000
00000000
10000000
00000000
00010000
00000000
,
11000000
00000000
00000000
00000000
00000000
00000000
00110000
00000000
00000000
00000000
00000000
00000000
10000000
00010000
00100000
00001000
,
00010000
00000100
00000020
00000000
00000000
00000000
00000000
00000000
00000130
00000000
00000000
00000000
00000000
00000000
00000000
00000000
,
00000000
00000000
00000000
00000000
,
00000000
00000000
00000000
00000000
,
00000000
00000000
00000000
00000000
00000000
00000000
00000000
00000000
00101000
00000000
00010000
10000000
01000000
00100000
00010000
00000000
,
00100000
00000000
00001000
00000000
00010000
00001000
00010000
00000100
00000010
00000001
00000100
00000000
00000010
00000000
00001000
00000000
,
00001010
00000101
00001010
00010100
00101000
00010100
01001000
00110000
,
01001000
00000000
00100000
10000000
01000000
00100000
00010000
00100000
01100000
00000000
01000000
10000000
01000000
00100000
00010000
00100000
,
00001000
00000000
00020000
00000000
00032000
00000000
00203000
00000000
01300000
10000000
01000000
00100000
00010000
00100000
00001000
00000000
,
00020000
00000000
00032000
00000000
00203000
00000000
01300000
10000000
01000000
00100000
00010000
00100000
00001000
00000000
00020000
00000000
,
00032000
00000000
00013000
00000000
00010000
00000100
00000000
00000100
00000010
00000000
00000010
00000001
00000010
00000100
00001000
00000000
,
00000100
00000000
00000000
00000000
00000000
00000000
00000000
00000000
00000000
00000000
00000000
00000000
00010000
00000000
00000000
00000000
00000000
00000000
00000000
00000000
00000000
00000000
00000000
00000000
00000100
00000000
00000000
00000000
00000000
00000000
00000000
00000000
00000000
00000000
00000000
00000000
00001000
00000000
00000000
00000000
00000000
00000000
00000000
00000000
00000000
00000000
00000000
00000000
00000001
00000000
00000000
00000000
00000000
00000000
00000000
00000000
00000000
00000000
00000000
00000000
00000010
00000000
00000000
00000000
00000000
00000000
00000000
00000000
00000000
00000000
00000000
00000000
00000100
00000000
00000000
00000000
00000000
00000000
00000000
00000000
00000000
00000000
00000000
00000000
00000000
00000000
00000000
00000000
00000000
00000000
00000000
00000000
00000000
00000000
00000000
00000000
00000020
00000000
00000000
00000000
00000000
00000000
00000000
00000000
00000000
00000000
00000000
00000000
00000000
00000000
00000000
00000000
00000000
00000000
00000000
00000000
00000000
00000000
00000000
00000000
00000230
00000000
00000000
00000000
00000000
00000000
00000000
00000000
00000000
00000000
00000000
00000000
00000000
00000000
00000000
00000000
00000000
00000000
00000000
00000000
00000000
00000000
00000000
00000000
00000320
00000000
00000000
00000000
00000000
00000000
00000000
00000000
00000000
00000000
00000000
00000000
00000000
00000000
00000000
00000000
00000000
00000000
00000000
00000000
00000000
00000000
00000000
00000030
00000100
00000000
00000000
00000000
00000000
00000000
00000000
00000000
00000000
00000000
00000000
00000000
00000010
00000000
00000000
00000000
00000000
00000000
00000000
00000000
00000000
00000000
00000000
00000000
,
00000001
00000010
00000100
00001000
00000010
00000100
00001000
00010000
00001000
00100000
01000000
00000000
01000000
10000000
01000000
00100000
,
00010000
00100000
00001000
00000000
00020000
00000000
00032000
00000000
00013000
00000000
00010000
00100000
00000000
00100000
10000000
00000000
,
10000000
01000000
00000000
00000000
00110000
00000000
00000000
11000000
00000000
00000000
00100000
00010000
01000000
00100000
10000000
01000000
,
00100000
00001000
00010000
00000010
00010000
00001000
00000010
00000001
00000100
00000010
00001000
00000100
00000010
00000001
00000100
00001000
,
00010000
00001000
00100000
00000000
00001000
00000000
00010000
00001000
00010000
00000000
00000000
00000000
00000000
00000000
00000000
00000000
,
00000000
00000000
00000000
00000000
00000000
00010010
00000000
00101000
00000000
00000000
00000000
00000000
00000000
00022000
00000000
00000000
,
00000000
00000000
00000000
00033000
,
;

//---------------dance-solo - ----------------
#NOTEDATA:;
#CHARTNAME:;
#STEPSTYPE:dance-solo;
#DESCRIPTION:;
#CHARTSTYLE:;
#DIFFICULTY:Hard;
#METER:15;
#RADARVALUES:0.616929,0.693907,0.602182,0.627989,0.546265,502.000000,432.000000,70.000000,73.000000,0.000000,0.000000,0.000000,0.000000,0.000000,0.616929,0.693907,0.602182,0.627989,0.546265,502.000000,432.000000,70.000000,73.000000,0.000000,0.000000,0.000000,0.000000,0.000000;
#CREDIT:;
#DISPLAYBPM:128.000000;
#NOTES:
000000
000000
000000
000000
,
000000
000000
000000
000000
,
000000
000000
000000
000000
,
000000
000000
000000
000000
000000
000000
010100
001000
,
000010
000110
000100
001000
101000
100000
000001
001001
,
001000
000000
000100
000000
010000
001000
010000
000100
001000
000010
000100
000000
001000
000000
100000
000000
,
000001
001000
000010
000100
000000
000100
001000
000000
010000
000000
000010
000000
100002
000000
000000
001000
,
000000
001003
100000
000000
000010
000000
001000
000000
001200
000000
000000
010000
000000
010300
001000
000000
,
010010
000000
000002
000000
200003
000000
000000
000010
000000
300010
000100
000000
001000
000000
000001
000000
,
000011
000000
000000
110000
000000
000000
000010
001000
000010
001000
000010
000000
100000
000000
000001
000100
,
000010
000100
000001
000000
001000
000000
000100
010000
002000
000000
000000
103000
000000
000001
001000
000000
,
001100
000000
001100
000000
000100
010000
000010
010000
001000
100000
000001
000000
000100
000000
000010
010000
,
000010
000000
001000
000100
000000
000100
100000
000000
101000
000000
101000
000000
000100
010000
001000
000000
,
010000
000001
001000
000000
000100
000000
010000
000010
020000
000000
000000
032000
000000
000000
003200
000000
,
000000
000302
000000
000000
200003
000000
000000
300020
000000
000000
000230
000000
000000
002300
000000
000000
,
013000
000100
010000
000100
001000
000001
100000
000000
000000
000000
000000
000000
000000
000000
200100
000000
,
300001
000000
000000
000000
001020
000000
010030
000000
000000
000000
102000
000000
013000
000000
001000
100000
,
000001
001000
000000
000000
001020
000000
010030
000000
000000
000000
020001
000000
030010
000000
000000
000000
,
000120
000000
100030
000000
000100
001000
000100
010000
000000
000000
012000
000000
103000
000000
000000
000000
,
200001
000000
300100
000000
000000
000000
002100
000000
003010
000000
001000
000100
001000
000010
010000
001000
,
200000
000000
000000
000001
000000
300001
000200
000000
000320
000000
020030
000000
032000
000000
000000
100000
,
000000
103000
000100
000000
001000
000000
000010
010000
000020
000000
000000
000100
000000
000130
010000
000000
,
001000
000000
000100
000010
000000
000110
000000
000110
000000
000110
000000
000000
000001
000100
001000
100000
,
000010
000000
001000
000100
001000
000000
000001
000000
000100
000000
001000
000000
010000
000000
000100
100000
,
000010
000000
000100
000000
001000
000000
010000
000000
011000
000000
000000
001100
000000
000000
000101
000000
,
000000
100010
000000
000000
001100
000000
000000
010010
000000
000000
000100
001000
000100
010000
000001
000000
,
000100
000000
001000
100000
000010
000000
000100
000000
000001
000000
001000
000000
000001
000000
000100
000010
,
010000
000000
001000
000000
100000
000000
000001
000000
000011
000000
000000
010010
000000
000000
100100
000000
,
000000
001001
000000
000000
000110
000000
000000
011000
000000
000000
000100
100000
000100
001000
000010
100000
,
000002
000000
010000
000000
000000
001000
000000
000000
010003
000000
000200
000000
200300
000000
302000
000000
,
000001
000000
000000
010000
000000
000000
003100
000000
000020
000000
020030
000000
030200
000000
000001
000000
,
000000
010000
000000
000000
100300
000000
000100
000000
001000
000000
001100
000000
000000
010010
000000
000000
,
100100
000000
000000
001010
000000
000000
200001
000000
000100
000000
000000
010000
000000
000000
300010
000000
,
000200
000000
002300
000000
003002
000000
000100
000000
000000
000010
000000
000000
100003
000000
000200
000000
,
020300
000000
032000
000000
000010
000000
000000
000001
000000
000000
103000
000000
000100
000000
001000
000000
,
100100
000000
000000
001001
000000
000000
000110
000000
000000
100100
000000
000000
010000
001000
000100
000010
,
000000
000000
100000
000100
001000
000010
010000
000001
000200
000000
000000
000010
000000
000310
010000
000000
,
000100
001000
000001
000100
001000
100000
001000
010000
,
200000
000000
000000
000100
000000
300100
001000
000000
000010
000000
010000
000000
000001
000000
000100
001000
,
010000
000100
002000
000000
000000
000000
003001
100000
000002
000000
000000
000100
000000
000103
002000
000000
,
000000
000000
103000
000100
200000
000000
000000
000010
000000
300010
001000
000000
000100
000000
010000
000000
,
001001
000000
000000
000000
000000
000000
100000
001000
010000
001000
100000
000000
110000
000000
001100
000000
,
000011
200002
000000
000003
300200
000000
000000
002300
,
000000
000000
003020
000000
000000
020030
000000
000000
,
030002
000000
000000
000203
000000
000000
002300
000000
,
000000
013000
000010
010000
010100
000100
100000
101000
,
001000
000100
000110
000010
010000
010001
000001
001000
,
010010
000100
100000
101000
010000
000001
001010
000100
,
010000
000000
000100
001000
000100
100000
001000
000100
000002
000000
000100
000000
000000
100000
000000
000000
,
001003
000000
000020
000000
020030
000000
030200
000000
001000
000000
000000
000010
000000
000000
010300
000000
,
000002
000000
200003
000000
300020
000000
000100
000000
000000
000001
000000
000000
100030
000000
000100
000000
,
001000
000000
001001
000000
000000
000110
000000
000000
110000
000000
000000
100001
000000
000000
001200
000000
,
010000
000000
000000
001000
000000
000000
100300
000000
000020
000000
000230
000000
000302
000000
010000
000000
,
000000
001000
000000
000000
000013
000000
200000
000000
300200
000000
020300
000000
100000
000000
000000
000100
,
000000
000000
030001
000000
001000
000000
000100
000000
100100
000000
000000
010010
000000
000000
000110
000000
,
000000
101000
000000
000000
000100
001000
000100
001000
000000
000000
000001
000100
000010
010000
000000
000000
,
001000
100000
001000
100000
000000
000000
000100
010000
000010
001000
000000
000000
000001
010000
000010
100000
,
000100
000000
001000
000000
000100
000000
010000
000010
010000
000000
000000
000000
000000
000000
000000
000000
,
000000
000000
000000
000000
000000
100100
000000
001001
000000
000000
000000
000000
000000
200020
000000
000000
,
000000
000000
000000
300030
;

//---------------dance-solo - ----------------
#NOTEDATA:;
#CHARTNAME:;
#STEPSTYPE:dance-solo;
#DESCRIPTION:;
#CHARTSTYLE:;
#DIFFICULTY:Medium;
#METER:11;
#RADARVALUES:0.442419,0.539705,0.387117,0.576374,0.189257,360.000000,315.000000,45.000000,67.000000,0.000000,0.000000,0.000000,0.000000,0.000000,0.442419,0.539705,0.387117,0.576374,0.189257,360.000000,315.000000,45.000000,67.000000,0.000000,0.000000,0.000000,0.000000,0.000000;
#CREDIT:;
#DISPLAYBPM:128.000000;
#NOTES:
000000
000000
000000
000000
,
000000
000000
000000
000000
,
000000
000000
000000
000000
,
000000
000000
000000
010100
,
000100
001100
000000
001000
001010
000000
000010
100010
,
000000
000000
001000
000001
010000
001000
000100
000010
,
010000
000000
000100
000000
001000
000000
000010
000000
000100
000000
000010
000000
200000
000000
000000
000001
,
000000
000000
300001
000000
001000
000000
000100
000000
020000
000000
000000
000010
000000
000000
030010
000000
,
010000
000000
000000
000000
000002
000000
000000
000100
000000
000000
000103
000000
001000
000000
100000
000000
,
000020
000000
000000
010000
000000
000000
020000
000000
000030
000000
000000
000000
030100
000000
010000
000000
,
001000
000000
100000
000000
001000
000000
000100
000000
000020
000000
000000
002030
000000
000000
000100
000000
,
000100
003100
001000
000001
000100
000010
010000
001000
,
200000
000000
000000
000002
300000
000000
000000
000000
000103
000000
000010
000000
010000
000000
000010
000000
,
000100
000000
001000
000000
100000
000000
000001
000000
001000
000000
000000
000100
000000
000000
001000
000000
,
000000
000010
000000
000000
010000
000000
000000
010000
000000
000000
000010
000000
000000
000010
000000
000000
,
000100
000001
100000
000100
000000
000000
000000
002100
,
003100
000000
002100
003100
000000
002100
003100
010000
,
000010
000000
020010
030010
000000
020010
030010
000000
,
020010
030010
000100
001000
000000
100002
100003
000000
,
100002
100003
000000
100002
100003
001000
000100
000010
,
020000
000000
000000
000100
000000
000000
030100
000000
001000
000000
000001
000000
200000
000000
000000
000010
,
000000
000000
300010
000000
001000
000000
000100
000000
020000
000000
000000
001000
000000
000000
031000
000000
,
010000
000000
000010
000000
000000
000110
000000
000110
000000
000110
000000
000000
000001
000000
100000
000000
,
000100
010000
001000
000100
000010
001000
000001
000100
,
001000
000000
010000
000000
000100
000000
100000
000000
002000
000000
000000
003100
000000
000000
000020
000000
,
000000
010030
000000
000000
000020
000000
000000
001030
000000
000000
000100
000000
100000
000000
000001
000000
,
010000
001000
000100
001000
010000
000001
000100
000010
,
010000
000000
000100
000000
001000
000000
000010
000000
200000
000000
000000
301000
000000
000000
020000
000000
,
000000
030001
000000
000000
000200
000000
000000
001300
000000
000000
010000
000000
000010
000000
010000
000000
,
020020
000000
000030
000000
030100
001000
000001
002002
,
000000
003000
000000
100003
000010
001000
002200
000000
,
000300
000000
000000
000000
003100
000000
010000
000000
000010
000000
001000
000000
000000
001000
000000
000000
,
000100
000000
000000
000100
000000
000000
200200
000000
000000
000000
000300
000000
000000
000000
300001
000000
,
010000
001000
202000
000000
003000
000000
301000
100000
,
000010
002020
000000
000030
000000
003010
010000
000100
,
100000
000000
000000
100000
000000
000000
000001
000000
000000
000001
000000
000000
000100
000000
000000
001000
,
000000
000000
010000
000000
000010
000000
010000
000000
000200
000000
000000
001000
000000
000000
001300
000000
,
000100
100000
000001
000100
000010
010000
001000
100000
,
000200
000000
000000
010000
000000
000000
010300
000000
000100
000000
001000
000000
000010
000000
000100
000000
,
000001
000000
200000
000000
000000
000000
300100
001000
000200
000000
000000
010000
000000
000000
002300
000000
,
000000
000000
003010
001000
000020
000000
000000
100000
000000
000000
100030
000000
000001
000000
001000
000000
,
001100
000000
000000
000010
010000
001000
010000
000100
,
001000
002002
003000
000000
200003
000000
000000
000000
,
000000
300020
000000
000000
,
000230
000000
000000
002300
000000
000000
003200
000000
,
000000
000302
000000
000003
100001
000000
000000
100100
,
000100
001000
001010
000000
000000
010001
010000
001000
,
000100
000100
000100
000010
000010
000010
010000
010000
,
010000
000001
100000
001000
020020
000000
000030
000000
,
030100
010000
001000
202000
000000
300000
000000
103000
,
000001
000100
000220
000000
000300
000000
010030
000010
,
001000
000000
000001
000000
000000
000001
000000
000000
010000
000000
000000
010000
000000
000000
022000
000000
,
000000
030000
000000
013000
001000
000100
000202
000000
,
000003
000000
000301
100000
000001
020200
000000
000300
,
000000
000000
030100
000000
010000
000000
001000
000000
100000
000000
000000
100000
000000
000000
000010
000000
,
000000
000010
000000
000000
000110
000000
000000
000110
000000
000000
101000
000000
000000
101000
000000
000000
,
010100
000000
000000
010100
000000
000000
001001
000000
000000
001001
000000
000000
100000
000000
000100
000000
,
001000
000010
010000
000001
001000
000000
000000
000000
,
000000
000000
000000
000000
000000
001100
000000
001100
000000
000000
000000
000000
000000
020020
000000
000000
,
000000
000000
000000
030030
;

//---------------dance-solo - ----------------
#NOTEDATA:;
#CHARTNAME:;
#STEPSTYPE:dance-solo;
#DESCRIPTION:;
#CHARTSTYLE:;
#DIFFICULTY:Easy;
#METER:8;
#RADARVALUES:0.291259,0.385504,0.120436,0.447335,0.055917,237.000000,223.000000,14.000000,52.000000,0.000000,0.000000,0.000000,0.000000,0.000000,0.291259,0.385504,0.120436,0.447335,0.055917,237.000000,223.000000,14.000000,52.000000,0.000000,0.000000,0.000000,0.000000,0.000000;
#CREDIT:;
#DISPLAYBPM:128.000000;
#NOTES:
000000
000000
000000
000000
,
000000
000000
000000
000000
,
000000
000000
000000
000000
,
000000
000000
000000
010100
,
000000
001010
000000
000000
000101
000000
000000
101000
,
000000
000000
000100
000000
000000
010000
001000
010000
,
000001
000000
000000
000100
000010
001000
000200
000000
,
000000
100000
100000
000000
001000
000000
000000
100000
,
100300
000000
000002
000000
000000
010000
010000
000000
,
000100
000000
000000
010003
000000
000000
000100
100000
,
000001
000000
001000
000000
000010
000000
010000
000000
000100
000000
000000
000200
000000
000000
000000
000000
,
000000
000000
100300
000010
000100
000001
010000
001000
,
100000
000000
000000
200000
000000
000000
000000
000000
300010
000000
001000
000000
000010
000000
100000
000000
,
000010
000100
001000
010000
000002
000000
000000
000203
,
000000
000000
002300
000000
000000
203000
000000
000000
,
300100
001000
000100
100000
000000
000000
000000
000010
,
000010
000000
010000
010000
000000
000010
000010
000000
,
000000
000000
001000
001000
000000
000100
000100
000000
,
001000
001000
000000
000000
000000
000001
000001
000000
,
100000
100000
000000
000001
000001
000100
000010
010000
,
000200
000000
000000
000000
001300
001000
000020
000000
,
000000
000000
000030
100000
000002
000000
000000
000103
,
000010
000000
001000
000000
000000
001100
000000
001100
000000
001100
000000
000000
000000
000000
000000
000000
,
200000
000000
000000
300001
000100
001000
020000
000000
,
000000
030010
001000
000100
200000
000000
000000
300020
,
000000
000000
000230
000000
000000
000301
001000
000010
,
020000
000000
000000
031000
000100
000001
002000
000000
,
000000
003100
001000
000010
020000
000000
000000
030020
,
000000
000000
200030
000000
000000
300001
001000
000100
,
020000
000000
000000
000000
000000
030010
000010
002000
,
000000
000000
000000
000000
003100
000100
002000
000000
,
000000
000000
000000
003001
100000
000002
000000
000000
,
020003
000000
000000
030020
000000
000000
000000
000000
,
100030
100000
000020
000000
000000
000000
000000
000130
,
000100
002000
000000
000000
000000
000000
013000
000010
,
200000
000000
000000
300002
000000
000000
000203
000000
,
000000
002300
000000
000000
013000
000000
000000
010000
,
001000
000100
000010
000000
000000
001000
000000
000000
,
000001
000000
000000
000001
100000
000100
001000
000100
,
010000
000000
000020
000000
000000
000000
000000
000000
100030
000000
000000
100000
000000
000000
000020
000000
,
000000
000000
000000
000000
000130
000000
000000
000100
000000
000000
001000
000000
000000
000000
000000
000000
,
100001
000000
000000
001100
000000
000000
010000
000010
,
001000
000200
000000
000000
200300
000000
000000
000000
,
300000
000020
000000
000030
,
020000
000000
030000
000002
,
000000
000000
000003
000000
000101
000000
000000
101000
,
000000
000000
010010
000000
000000
001100
000000
000000
,
000100
000100
000100
010000
010000
010000
000010
000010
,
000010
000100
001000
010000
000002
000000
000000
000000
,
000000
100003
100000
000200
000000
000000
000000
000000
,
010300
010000
002000
000000
000000
000000
000000
103000
,
000001
020000
000000
000000
030020
000000
000000
000230
,
000000
000000
000000
000000
000301
000001
200000
000000
,
000000
000000
000000
301000
001000
000200
000000
000000
,
000000
000000
000310
010000
000200
000000
000000
002300
,
000000
000000
000000
000000
003010
000000
000000
000010
000000
000000
010000
000000
000000
000000
000000
000000
,
000001
000000
000000
000001
000000
000000
000100
000000
000000
000000
000000
000000
001000
000000
000000
100000
,
000000
000100
001000
000010
010000
000000
000000
000000
,
000000
000000
000000
000000
000000
000001
000000
000001
000000
000000
000000
000000
000000
002200
000000
000000
,
000000
000000
000000
003300
;

//---------------dance-solo - ----------------
#NOTEDATA:;
#CHARTNAME:;
#STEPSTYPE:dance-solo;
#DESCRIPTION:;
#CHARTSTYLE:;
#DIFFICULTY:Beginner;
#METER:4;
#RADARVALUES:0.148702,0.231302,0.172052,0.120436,0.021506,121.000000,101.000000,20.000000,14.000000,0.000000,0.000000,0.000000,0.000000,0.000000,0.148702,0.231302,0.172052,0.120436,0.021506,121.000000,101.000000,20.000000,14.000000,0.000000,0.000000,0.000000,0.000000,0.000000;
#CREDIT:;
#DISPLAYBPM:128.000000;
#NOTES:
000000
000000
000000
000000
,
000000
000000
000000
000000
,
000000
000000
000000
000000
,
000000
000000
000000
010000
,
000000
000000
000010
000000
,
000000
000000
000100
000000
000000
001000
000000
000000
,
100000
000000
000000
000001
000000
000000
002000
000000
,
000000
000000
003000
000000
,
000000
000200
000000
000000
,
000300
000000
000000
100000
,
000000
100000
000000
000000
200000
000000
000000
300000
,
000000
000000
000010
000000
000000
000010
000000
000000
,
000020
000000
000000
000030
000000
000000
000100
000000
,
000000
000001
000000
000000
001000
000000
000000
000100
,
000000
000000
010000
000000
000000
010000
000000
000000
,
010000
000000
000000
000010
000000
000000
000000
010000
,
000000
000000
010000
000000
000000
010000
000000
000000
,
000000
000000
000100
000000
000000
000100
000000
000000
,
000100
000000
000000
000000
000000
100000
000000
000000
,
100000
000000
000000
100000
000000
000000
000000
000000
,
000002
000000
000000
000003
000000
000000
000200
000000
,
000000
000300
000000
000000
001000
000000
000000
010000
,
000000
000000
000000
000000
000000
000010
000000
000010
000000
000010
000000
000000
000000
000000
000000
000000
,
001000
000000
000000
000100
000000
000000
001000
000000
,
000000
000001
000000
000000
200000
000000
000000
300000
,
000000
000000
000020
000000
000000
000030
000000
000000
,
000100
000000
000000
000001
000000
000000
010000
000000
,
000000
000100
000000
000000
002000
000000
000000
003000
,
000000
000000
000002
000000
000000
000003
000000
000000
,
010010
000000
000000
000000
000000
000000
000000
010010
,
000000
000000
000000
010010
,
000000
000000
000000
000000
000000
000100
000000
000000
,
001000
000000
000000
001100
000000
000000
000000
000000
,
000000
001100
000000
000000
,
000000
001100
000000
000000
000000
000000
000000
000000
,
000010
000000
000000
010000
000000
000000
000001
000000
,
000000
100000
000000
000000
000010
000000
000000
000100
,
000000
000000
000010
000000
000000
001000
000000
000000
,
000100
000000
000000
010000
000000
000000
001000
000000
,
000000
100000
000000
000000
000002
000000
000000
000003
,
000000
000000
200000
000000
000000
300000
000000
000000
,
100001
000000
000000
100001
000000
000000
100001
000000
,
000000
100001
000000
000000
000000
000000
000000
000000
,
000000
000000
000000
000000
,
000000
000000
000000
000000
,
000000
000000
001100
000000
,
000000
100001
000000
000000
,
010000
000000
000000
010000
000000
000000
000010
000000
,
000000
000010
000000
000000
010010
000000
000000
000000
,
000000
000000
000000
010010
000000
000000
000000
000000
,
000000
010010
000000
000000
,
000000
000100
000000
000000
001000
000000
000000
001100
,
000000
000000
000000
001100
,
000000
000000
000000
000000
000000
001100
000000
000000
,
000000
000000
000000
000000
000010
000000
000000
010000
,
000000
000000
000001
000000
000000
100000
000000
000000
,
000100
000000
000000
001000
000000
000000
000100
000000
,
000000
010000
000000
000000
000010
000000
000000
000000
,
000000
000000
000000
000000
000000
001100
000000
000000
000000
000000
000000
000000
000000
200002
000000
000000
,
000000
000000
000000
300003
;

//---------------dance-solo - ----------------
#NOTEDATA:;
#CHARTNAME:;
#STEPSTYPE:dance-solo;
#DESCRIPTION:;
#CHARTSTYLE:;
#DIFFICULTY:Challenge;
#METER:17;
#RADARVALUES:0.888525,0.873809,0.851657,0.430130,0.997901,723.000000,624.000000,99.000000,50.000000,0.000000,0.000000,0.000000,0.000000,0.000000,0.888525,0.873809,0.851657,0.430130,0.997901,723.000000,624.000000,99.000000,50.000000,0.000000,0.000000,0.000000,0.000000,0.000000;
#CREDIT:;
#DISPLAYBPM:128.000000;
#NOTES:
// measure 0
000000
000000
000000
000000
,  // measure 1
000000
000000
000000
000000
,  // measure 2
000000
000000
000000
000000
,  // measure 3
000000
000000
000000
000000
000000
000000
000000
000000
000000
000000
000000
000000
010000
001000
010000
001000
,  // measure 4
010000
001000
000010
001000
000010
001000
000010
001000
010000
000100
010000
000100
010000
000100
000010
000100
,  // measure 5
000010
000100
000010
000100
100000
000100
001000
000010
000100
001000
020000
000000
030002
000000
002003
000000
,  // measure 6
003010
001000
000100
100000
000001
000100
002000
000000
023000
000000
030020
000000
200030
000000
000100
000100
,  // measure 7
000000
001000
301000
000000
100000
000000
000001
000000
000100
000010
000100
001000
000000
010000
011000
000000
,  // measure 8
001010
000000
000002
000000
200003
000000
010000
010000
000000
000010
300010
000000
001000
000000
000001
000000
,  // measure 9
000100
000000
000000
000010
000000
000000
001000
000000
000000
000001
000000
000000
100000
000000
000000
000000
000000
000000
000001
000000
000100
000000
001000
000000
010000
000000
000100
000000
001000
000000
000010
000000
100000
000000
000001
000000
001000
000000
000000
000100
000000
000000
010000
000000
000000
000010
000000
000000
,  // measure 10
000100
000001
200000
000000
300002
000000
000103
000010
020000
000000
000100
030200
000000
100000
100000
000000
,  // measure 11
001000
000000
000001
000000
010300
000100
001000
000001
000100
000010
200000
000000
300002
000000
000103
001000
,  // measure 12
020000
000000
000010
030020
000000
001000
001030
000000
001100
000000
010010
000000
100000
000001
000100
000010
,  // measure 13
010000
001000
200000
000000
300002
000000
100003
001000
000200
000000
000010
000320
000000
010000
020030
000000
,  // measure 14
001000
032000
000000
000000
103000
000010
000100
001000
000100
000001
001000
000100
010000
001000
000100
000010
,  // measure 15
100000
001000
000001
100000
000100
000001
001000
000000
000000
000000
000000
000000
000010
000000
000110
000000
,  // measure 16
101000
000000
000100
000000
010100
000000
001001
000000
100000
000000
011000
000000
000110
000000
100000
000100
,  // measure 17
000010
001000
000100
000000
001100
000000
100100
000000
000001
000000
000101
000000
010100
000000
001000
000000
,  // measure 18
001010
000000
100001
000000
000100
000010
001000
010000
000001
000000
101000
000000
010010
000000
000100
000000
,  // measure 19
001100
000000
100010
000000
010000
000000
000011
000000
100100
000000
000100
001000
000010
000100
000010
001000
,  // measure 20
200000
000000
000000
000000
000000
000000
000001
000000
000000
000001
000000
000000
000000
000000
000000
001000
000000
000000
302000
000000
000000
000000
000000
000000
003200
000000
000000
000000
000000
000000
000301
000000
001000
000000
000010
000000
200000
000000
000000
000000
000000
000000
000100
000000
000000
300100
000000
000000
,  // measure 21
001000
000010
100000
000000
000001
000000
000100
000010
020000
000000
000001
000001
000000
000010
030010
001000
,  // measure 22
000100
100000
001000
000001
000000
000110
000000
000110
000000
000110
000100
000001
001000
000100
100000
001000
,  // measure 23
101000
000000
001000
000100
000010
001000
001100
000000
000100
000000
010000
000000
010010
000000
000010
000100
,  // measure 24
000001
001000
001100
000000
000100
000000
100000
000000
001000
010000
000100
001000
000010
000100
001000
100000
,  // measure 25
000001
000100
000010
001000
000010
010000
001000
010000
000100
001000
000010
000100
001000
010000
000001
100000
,  // measure 26
100001
000000
001000
010000
000100
100000
100100
000000
001000
000000
000010
000000
000100
100000
000100
000001
,  // measure 27
010000
001000
011000
000000
100000
000000
000001
000000
000100
000010
001000
000100
010000
000001
100000
010000
,  // measure 28
100000
000100
001000
000010
000100
001000
010000
000100
001000
000010
000100
001000
010000
000100
100000
000001
,  // measure 29
000102
000000
100000
100000
000000
100000
100000
000000
000103
000000
000011
000000
011000
000000
200100
000000
,  // measure 30
001000
001000
000000
001000
001000
000000
300001
000000
110000
000000
100010
000000
002001
000000
000100
000100
,  // measure 31
000000
000100
000100
000000
003010
000000
010010
000000
101000
000000
000110
000000
000010
010010
000000
100000
,  // measure 32
100100
000000
010000
011000
000000
000001
100002
000000
001000
001000
000000
001000
001000
000000
010003
000000
,  // measure 33
100100
000000
100001
000000
001200
000000
010000
010000
000000
010000
010000
000000
100300
000000
001010
000000
,  // measure 34
100100
000000
020001
000000
000010
000010
000000
000010
000010
000000
031000
000000
011000
000000
000110
000000
,  // measure 35
100001
000000
000100
000101
000000
010000
010100
000000
000100
100100
000000
000000
010000
001000
000010
010000
,  // measure 36
000100
000010
100000
001000
000001
100000
000100
000001
021000
000000
000000
000010
000000
001000
031000
000000
,  // measure 37
100000
000000
000010
000000
000100
000001
000100
001000
100000
000000
110000
000000
100100
000000
001100
000000
,  // measure 38
010020
000000
000000
100000
000000
000100
000130
000000
000010
000000
010000
000000
000100
100000
000001
000010
,  // measure 39
000100
001000
020000
000000
000001
000000
030001
001000
200000
000000
000000
000100
000000
000010
300020
000000
,  // measure 40
001000
000000
010030
000010
200000
001000
000000
000100
000000
000001
300002
000000
002003
000000
003100
000000
,  // measure 41
100100
000000
000000
000000
000000
000000
100000
010000
000100
001000
000001
000100
000010
001000
000100
010000
,  // measure 42
001000
000001
000100
001000
000100
001000
000100
001000
100000
000000
000010
000000
000100
000000
000010
000000
,  // measure 43
001000
000100
010000
001000
000001
000100
001000
100000
,  // measure 44
000010
001000
000100
001000
000001
100000
010000
000010
,  // measure 45
000100
000000
001000
100000
000100
001000
000010
010000
010100
000000
000001
100000
000100
001000
001010
000000
,  // measure 46
000010
000000
010000
000000
011000
001000
100000
000100
001000
000010
100010
000000
001100
000000
100001
000000
,  // measure 47
000001
001000
000100
010000
000010
000100
010000
000100
000010
001000
000100
100000
001000
000100
001000
010000
,  // measure 48
000010
100000
000001
000100
010000
001000
100000
000010
020001
000000
001000
001000
000000
000010
000010
000000
,  // measure 49
030001
000000
000011
000000
001001
000000
020010
000000
100000
100000
000000
000010
000010
000000
030100
000000
,  // measure 50
010100
000000
100001
000000
012000
000000
000001
000001
000000
010000
010000
000000
003010
000000
001100
000000
,  // measure 51
101000
000000
110000
000000
000001
000011
000000
001000
001100
000000
000010
100010
000000
010000
010200
000000
,  // measure 52
100000
100000
000000
001000
001000
000000
010300
000000
010001
000000
000110
000000
201000
000000
000010
000010
,  // measure 53
000000
000001
000001
000000
301000
000000
100001
000000
000110
000000
100200
000000
001000
001000
000000
000001
,  // measure 54
000001
000000
100300
000000
101000
000000
000101
000000
001010
000000
000100
001100
000000
100000
101000
000000
,  // measure 55
000001
000011
000000
000000
000100
000010
001000
000100
100000
000010
010000
001000
000100
000001
000100
000010
,  // measure 56
001000
000100
010000
000010
100000
000010
000100
000001
001000
000001
000100
100000
001000
000100
000010
000001
,  // measure 57
010000
000010
001000
000000
000100
000000
100000
001000
000010
000000
000100
000001
000100
001000
100000
000100
,  // measure 58
100000
000001
000010
000100
000000
110000
000000
000011
000000
000000
000000
000000
000000
202000
000000
000000
,  // measure 59
000000
000000
000000
303000
;
