#VERSION:0.83;
#TITLE:Chronos (walk with you remix);
#SUBTITLE:;
#ARTIST:BEMANI Sound Team "TAG";
#TITLETRANSLIT:;
#SUBTITLETRANSLIT:;
#ARTISTTRANSLIT:;
#GENRE:;
#ORIGIN:;
#CREDIT:;
#BANNER:Chronos (walk with you remix)-bn.png;
#BACKGROUND:Chronos (walk with you remix)-bg.png;
#PREVIEWVID:;
#JACKET:Chronos (walk with you remix)-jacket.png;
#CDIMAGE:;
#DISCIMAGE:;
#LYRICSPATH:;
#CDTITLE:;
#MUSIC:Chronos (walk with you remix).ogg;
#OFFSET:0.000000;
#SAMPLESTART:50.268002;
#SAMPLELENGTH:15.000000;
#SELECTABLE:YES;
#DISPLAYBPM:74.000000:148.000000;
#BPMS:0.000=148.000,
84.000=74.000,
96.000=148.000,
180.000=74.000,
196.000=148.000;
#STOPS:;
#DELAYS:;
#WARPS:;
#TIMESIGNATURES:0.000=4=4;
#TICKCOUNTS:0.000=4;
#COMBOS:0.000=1;
#SPEEDS:0.000=1.000=0.000=0;
#SCROLLS:0.000=1.000;
#FAKES:;
#LABELS:0.000=Song Start;
#BGCHANGES:;
#KEYSOUNDS:;
#ATTACKS:
;

//---------------dance-single - ----------------
#NOTEDATA:;
#CHARTNAME:;
#STEPSTYPE:dance-single;
#DESCRIPTION:;
#CHARTSTYLE:;
#DIFFICULTY:Beginner;
#METER:3;
#RADARVALUES:0.140268,0.221311,0.038963,0.140268,0.000000,126.000000,121.000000,5.000000,18.000000,0.000000,0.000000,0.000000,0.000000,0.000000,0.140268,0.221311,0.038963,0.140268,0.000000,126.000000,121.000000,5.000000,18.000000,0.000000,0.000000,0.000000,0.000000,0.000000;
#CREDIT:;
#DISPLAYBPM:74.000000:148.000000;
#NOTES:
0000
0000
0000
0000
,
0000
0000
0000
0000
,
0000
0000
0000
0000
,
0000
0000
0000
0000
,
0000
0000
0000
0000
,
0010
0000
0001
0000
,
0100
0000
1000
0000
,
0010
0000
0010
0000
,
0100
0000
0000
0000
,
0001
0000
0001
0000
,
1000
0000
1000
0000
,
0001
0000
0001
0000
,
1000
0000
1000
0000
,
0010
0010
0010
0000
,
0020
0000
0030
0000
,
1000
1000
1000
0000
,
2000
0000
3000
0000
,
0001
0001
0001
0000
,
0002
0000
0003
0000
,
0010
0000
0010
0000
,
0100
0100
0100
0000
,
0001
0000
1000
0000
,
0001
0000
1000
0000
,
0010
0000
0100
0000
,
0002
0000
0003
0000
,
2000
0000
3000
0000
,
0020
0000
0030
0000
,
1001
0000
0000
0000
,
0001
0000
0010
0000
,
0100
0000
1000
0000
,
0001
0001
0001
0000
,
1000
1000
1000
0000
,
1000
0000
0010
0000
,
0100
0000
0001
0000
,
1000
0000
0001
0000
,
1000
0000
0001
0000
,
2000
0000
3000
0000
,
0020
0000
0030
0000
,
0002
0000
0003
0000
,
0000
0000
1001
0000
,
0002
0000
0003
0000
,
0020
0000
0030
0000
,
2000
0000
3000
0000
,
0001
0000
0010
0000
,
1000
0000
0010
0000
,
0001
0000
1000
0000
,
0010
0000
0100
0000
,
0001
0000
1000
0000
,
0010
0010
0010
0000
,
0002
0000
0003
0000
,
2000
0000
3000
0000
,
0200
0000
0300
0000
,
0020
0000
0030
0000
,
0001
0000
0010
0000
,
1000
0000
0010
0000
,
0001
0000
1000
0000
,
0001
0000
1000
0000
,
0001
0001
0001
0000
,
1000
1000
1000
0000
,
0001
0001
0001
0000
,
0000
0000
1001
0000
,
0010
0010
0010
0000
,
0100
0100
0100
0000
,
0010
0010
0010
0000
,
0001
0000
0100
0000
,
1000
0000
0100
0000
,
0001
0000
0100
0000
,
1000
0000
0001
0000
,
1001
0000
0000
0000
,
0000
0000
2002
0000
,
0000
0000
0000
0000
,
3003
0000
0000
0000
,
0000
0000
0000
0000
;

//---------------dance-single - ----------------
#NOTEDATA:;
#CHARTNAME:;
#STEPSTYPE:dance-single;
#DESCRIPTION:;
#CHARTSTYLE:;
#DIFFICULTY:Easy;
#METER:7;
#RADARVALUES:0.301687,0.387295,0.155853,0.194816,0.000000,271.000000,251.000000,20.000000,25.000000,0.000000,0.000000,0.000000,0.000000,0.000000,0.301687,0.387295,0.155853,0.194816,0.000000,271.000000,251.000000,20.000000,25.000000,0.000000,0.000000,0.000000,0.000000,0.000000;
#CREDIT:;
#DISPLAYBPM:74.000000:148.000000;
#NOTES:
0000
0000
0000
0000
,
0000
0000
0000
0000
,
0000
0000
0000
0000
,
0000
0000
0000
0000
,
0000
0000
0000
0000
,
0010
0010
0001
0001
,
0100
0100
1000
1000
,
0010
0001
0010
1000
,
0001
1000
1001
0000
,
1000
0000
1000
0000
0100
0010
0001
0000
,
0100
0010
0110
0000
,
1000
0000
1000
0000
0010
0100
0001
0000
,
1000
0001
1001
0000
,
1000
0100
1000
0100
,
0002
0010
0010
0013
,
0001
0100
0001
0100
,
2000
0010
0010
3010
,
1000
0010
0001
0010
,
1000
0100
0001
0100
,
1001
0110
1001
0110
,
0001
1000
0100
0000
0010
0000
0000
0000
,
0001
0000
1000
0000
0001
0000
0100
0100
,
0001
0000
1000
0000
0001
0000
0010
0010
,
0001
0100
0010
1000
,
0010
0010
0001
0001
,
0100
0100
1000
1000
,
0010
1000
0100
0001
,
1001
0000
0000
0000
,
0010
0000
1000
0000
0001
1000
0100
0000
,
0010
0000
0001
0000
1000
0001
0100
0000
,
2000
3010
0002
0013
,
2000
3010
0001
0001
,
0010
0000
0001
0000
0100
0010
1000
0000
,
0100
0010
0001
0000
,
1001
0000
0110
0000
,
1001
0000
0010
0010
,
2000
0010
0010
3010
,
0002
0010
0010
0013
,
2000
0010
0010
3010
,
0000
0001
0001
0000
0010
0000
0010
0000
,
2000
0100
0100
3100
,
0002
0100
0100
0103
,
2000
0100
0100
3100
,
1000
0010
0001
0100
,
1000
0001
1000
0001
,
1000
0000
0010
0000
0001
0010
1000
0000
,
0001
0000
0100
0000
0010
0100
0010
0000
,
1000
0010
0001
0010
,
1001
0000
0110
0000
1000
0001
0010
0000
,
0001
0001
0100
0100
,
1000
1000
0010
0010
,
2000
3100
0002
0103
,
2000
3100
0002
0103
,
1001
0000
0110
0000
,
1001
0000
0110
0000
,
0001
0010
0100
1000
,
0001
0100
0010
0000
,
2000
0010
0001
3010
,
0002
0010
1000
0013
,
2000
0010
0001
3010
,
0000
0001
0001
0000
0010
0000
0010
0000
,
2000
0100
0001
3100
,
0002
0100
1000
0103
,
2000
0100
0001
3100
,
0001
0010
1000
0100
,
0010
0001
0100
0010
,
1000
1001
0001
1001
,
0020
0030
0200
0300
,
0010
1000
0100
0010
,
0001
0000
2002
0000
,
0000
0000
0000
0000
,
3003
0000
0000
0000
,
0000
0000
0000
0000
;

//---------------dance-single - ----------------
#NOTEDATA:;
#CHARTNAME:;
#STEPSTYPE:dance-single;
#DESCRIPTION:;
#CHARTSTYLE:;
#DIFFICULTY:Medium;
#METER:10;
#RADARVALUES:0.478692,0.663934,0.311706,0.062341,0.085719,430.000000,390.000000,40.000000,8.000000,0.000000,0.000000,0.000000,0.000000,0.000000,0.478692,0.663934,0.311706,0.062341,0.085719,430.000000,390.000000,40.000000,8.000000,0.000000,0.000000,0.000000,0.000000,0.000000;
#CREDIT:;
#DISPLAYBPM:74.000000:148.000000;
#NOTES:
0000
0000
0000
0000
,
0000
0000
0000
0000
,
0000
0000
0000
0000
,
0000
0000
0000
0000
,
0000
0000
0000
0000
,
0010
0000
0000
0010
0000
0000
0010
0000
1000
0000
0000
1000
0000
0000
1000
0000
,
0100
0000
0000
0100
0000
0000
0100
0000
0010
0000
0000
0010
0000
0000
0010
0000
,
0001
0000
0000
0001
0000
0000
1000
0000
0010
0000
0000
0010
0000
0000
1000
0000
,
0001
0000
1000
0000
0001
0000
0000
0010
0000
0000
0010
0000
0000
0010
0000
0000
,
0001
0000
0001
0000
0100
0010
1000
0001
,
1000
0000
1000
0000
0100
0010
0000
0000
,
0001
0000
0001
0000
0010
0100
1000
0001
,
1000
0000
0000
0000
0001
0000
0000
0000
0100
0000
0000
0100
0000
0000
0100
0000
,
0001
0100
0001
0100
0010
1000
0010
1000
,
0100
1000
0100
1000
0100
0010
0001
0000
,
0100
0010
0100
0010
1000
0001
1000
0001
,
0010
0100
0010
0100
1000
0001
0100
0000
,
0001
0100
0010
1000
0010
0100
0001
1000
,
0010
1000
0001
0010
0100
1000
0001
0000
,
1000
0100
0001
0000
0001
0100
1000
0000
,
1000
0010
0001
0100
1000
0000
0000
0000
,
0001
0011
1000
1010
0001
0011
0100
0100
,
1000
0110
0001
0110
1000
0110
0001
0001
,
0010
0000
0000
0000
1001
0000
0000
0000
0100
0000
0000
0000
1001
0000
0000
0000
0010
0000
0000
0000
1001
0000
0000
0000
0100
0000
0000
0100
0000
0000
0100
0000
,
0010
1000
0010
0000
1000
0100
1000
0000
,
0100
0001
0100
0000
0001
0010
0001
0000
,
0010
0001
0100
0010
1000
0100
0010
0001
,
1000
0000
0000
0001
0000
0000
1001
0000
0000
0000
0000
0000
0000
0000
0000
0000
,
0010
0001
1000
0010
0100
0010
1000
0100
,
0010
0001
1000
0010
1000
0001
0010
0000
,
0001
0100
0010
0000
1000
0100
0010
0000
,
0001
0100
0010
0000
1000
0001
1000
0000
,
0010
1000
0001
0010
0100
0010
0001
0100
,
0010
0000
1000
0000
0001
0000
0010
0000
0001
0000
0000
0001
0000
0000
0001
0000
,
0010
0000
0000
0010
0000
0000
0001
0000
0100
0000
0000
0100
0000
0000
0001
0000
,
1000
0000
0000
1000
0000
0000
0010
0000
0100
0000
0010
0000
0100
0000
0000
0000
,
0001
0010
0100
0010
0001
0000
1100
0000
,
0001
0100
0010
0100
0001
0000
1010
0000
,
0001
1000
0010
1000
0001
0000
0110
0000
,
0000
0000
0001
0000
1000
0000
0000
0000
0010
0000
0000
0010
0000
0000
0010
0000
,
1000
0010
0100
0010
1000
0000
0101
0000
,
1000
0100
0010
0100
1000
0000
0011
0000
,
1000
0001
0010
0001
1000
0000
0110
0000
,
0001
0010
1000
0100
,
0011
1100
0011
1100
,
0001
0000
0000
0100
0010
0000
1000
0000
0010
0000
0001
0000
0100
0000
1000
0000
,
0001
0000
0000
0010
0100
0000
1000
0000
0001
1000
0001
0000
1001
0000
0000
0000
,
0001
0010
1000
0000
1000
0010
0001
1000
,
0110
0000
1001
0000
0010
0001
1000
0000
,
0001
0001
0010
0010
,
0100
0100
1000
1000
,
0001
0100
0010
0000
1000
0100
0010
0000
,
0001
0100
0010
0000
1000
0100
0010
0000
,
0021
0130
1020
0130
,
2001
3100
1002
0103
,
0010
1000
0010
1000
0100
1000
0100
1000
,
0001
0000
0100
0000
0001
0000
0100
0000
0010
0000
0000
0010
0000
0000
0010
0000
,
1000
0010
0100
0010
1000
0000
0101
0000
,
1000
0100
0010
0100
1000
0000
0011
0000
,
1000
0001
0010
0001
1000
0000
0110
0000
,
0000
0000
1000
0000
0001
0000
0000
0000
0010
0000
0000
0010
0000
0000
0010
0000
,
0001
0010
0100
0010
0001
0000
1100
0000
,
0001
0100
0010
0100
0001
0000
1010
0000
,
0001
1000
0010
1000
0001
0000
0110
0000
,
1000
0010
0001
0100
,
0010
1001
0100
1001
,
0011
1010
0011
1010
,
0002
0103
2000
3100
,
0001
0010
0100
1000
0001
0100
0010
1000
,
0001
0000
0220
0000
,
0000
0000
0000
0000
,
0330
0000
0000
0000
,
0000
0000
0000
0000
;

//---------------dance-single - ----------------
#NOTEDATA:;
#CHARTNAME:;
#STEPSTYPE:dance-single;
#DESCRIPTION:;
#CHARTSTYLE:;
#DIFFICULTY:Hard;
#METER:14;
#RADARVALUES:0.679074,0.746926,0.444181,0.070134,0.529900,610.000000,553.000000,57.000000,9.000000,0.000000,0.000000,0.000000,0.000000,0.000000,0.679074,0.746926,0.444181,0.070134,0.529900,610.000000,553.000000,57.000000,9.000000,0.000000,0.000000,0.000000,0.000000,0.000000;
#CREDIT:;
#DISPLAYBPM:74.000000:148.000000;
#NOTES:
0000
0000
0000
0000
,
0000
0000
0000
0000
,
0000
0000
0000
0000
,
0000
0000
0000
0000
,
0000
0000
0000
0000
,
0010
0000
0000
1001
0000
0000
0101
0000
0010
0000
0000
1001
0000
0000
1100
0000
,
1000
0000
0000
1010
0000
0000
0101
0000
0001
0000
0000
0011
0000
0000
1100
0000
,
0010
0001
0100
0010
1000
0100
0010
0001
,
0010
0000
0100
0000
1000
0001
1000
0010
0000
0000
0011
0000
0000
1010
0000
0000
,
0001
0000
0100
0001
0000
0100
0010
0000
1000
0000
0100
0000
0010
0000
0001
0000
,
1000
0000
0001
0010
0000
0001
2000
0000
0010
0000
3010
0000
0000
0000
0000
0000
,
1000
0000
0100
1000
0000
0100
0010
0000
0001
0000
0100
0000
0010
0000
1000
0000
,
0001
0000
1000
0000
0010
0100
0001
0100
0010
0000
0000
1001
0000
0000
0010
0000
,
1000
0000
0100
0000
1000
0100
0000
0100
0010
0000
0001
0000
0010
0001
0000
0001
,
0100
0000
0001
0000
0100
0001
0000
0001
0100
0000
0010
0000
1000
0000
0100
0000
,
0010
0000
0100
0000
0010
0100
0000
0100
1000
0000
0001
0000
1000
0001
0000
0001
,
0100
0000
0010
0000
0100
0010
0000
0010
1000
0000
0001
0000
0100
0000
0010
0000
,
1000
0000
0100
0010
0100
0010
0000
0010
0001
0000
0100
0010
0100
0010
0000
0010
,
1000
0000
0100
0010
0100
0010
0000
0010
0001
0000
0100
0000
0010
0000
1000
0000
,
0001
0100
0001
0000
1000
0100
1000
0000
0001
0010
0001
0000
1000
0010
1000
0000
,
0001
0100
0010
1000
0100
0010
0001
0100
0010
0000
0000
0000
0000
0000
0000
0000
,
1000
0001
0010
0000
0001
1000
0010
0000
1000
0001
0100
0000
0110
0000
1010
0000
,
0001
0010
0100
0000
1000
0010
0100
0000
0001
0100
0010
0000
1010
0000
1001
0000
,
0010
0000
0001
0000
0100
0000
0000
0000
0010
0000
1000
0000
0100
0000
0000
0000
0010
0000
0100
0000
0010
0000
0000
0000
0001
0000
0000
0001
0000
0000
0001
0000
,
0010
0001
0010
0001
0100
0001
0100
0001
,
1000
0100
1000
0100
1000
0010
1000
0010
,
1000
0000
0001
0000
1000
0000
0001
0000
0100
0000
0010
0000
1000
0001
0100
0001
,
1000
0000
0000
0001
0000
0000
1001
0000
0000
0000
0000
0000
0000
0000
0000
0000
,
0010
0000
1000
0000
0001
0010
0001
0010
0001
0000
0010
0000
0100
0000
1000
0000
,
0010
0000
1000
0000
0001
0100
0001
0100
0001
0000
0100
0000
0010
0000
1000
0000
,
0001
1000
0010
0000
1000
0000
0001
0000
0010
0001
1000
0000
0010
0000
1000
0000
,
0001
1000
0100
0000
1000
0000
0001
0000
1000
0100
1000
0000
0001
0100
0001
0000
,
0010
0000
0001
0000
1000
0010
1000
0010
1000
0000
0010
0000
0100
0000
0001
0000
,
0010
0000
0001
0000
1000
0100
1000
0100
1000
0000
0000
0110
0000
0000
1001
0000
,
1000
0000
0001
0010
0000
0001
1000
0100
1000
0000
0001
0100
0000
0001
1000
0010
,
1000
0000
0010
0100
0000
0010
1000
0001
1000
0001
0100
0000
0001
1000
0100
0000
,
1000
0010
1000
0010
1000
0010
0100
0101
,
1000
0100
1000
0100
1000
0100
0010
0011
,
1000
0001
1000
0001
1000
0001
0100
0110
,
0000
0000
1010
0000
0001
1000
0100
1000
0001
0000
0000
0110
0000
0000
1100
0000
,
0001
0010
0001
0010
0001
0010
0100
1100
,
0001
0100
0001
0100
0001
0100
0010
1010
,
0001
1000
0001
1000
0001
1000
0100
0010
,
0110
1100
1001
1010
,
0002
0203
2300
3020
,
0031
0000
0000
1000
0000
0000
0100
0000
0010
0000
0001
0000
0100
0000
0000
0000
0010
0000
1000
0000
0100
0000
0000
0000
1000
0000
0010
0000
0100
0000
0000
0000
,
0001
0000
0000
1000
0000
0000
0100
0000
0010
0000
0001
0000
1000
0000
0000
0000
0001
0000
0100
0000
0010
0000
1000
0000
0001
0000
0000
0000
0000
0000
0001
0000
,
1000
0000
0000
0100
0000
0000
0010
0000
0011
0000
0000
0000
0000
0000
1000
0000
0001
0000
0000
0100
0000
0000
0010
0000
1010
0000
0000
0000
0001
0000
1000
0000
,
0110
0000
0000
0000
0000
0000
1001
0000
0000
0000
0000
0000
0001
0100
0010
1000
0100
0010
0001
0000
0000
0000
0000
0000
,
1000
1000
0010
0010
,
0001
0001
0100
0100
,
1000
0100
0001
0000
1000
0010
0001
0000
,
1000
0100
0001
0000
1000
0010
0001
0000
,
0011
0000
0010
0000
0100
0010
0100
0010
0100
0000
0010
0000
0001
0000
1000
0000
,
1100
0000
1000
0000
0001
1000
0001
1000
0001
0000
0000
0110
0000
0000
1001
0000
,
0010
0001
1000
0000
0010
0000
0100
0000
0010
1000
0001
0000
0010
0000
0100
0000
,
0010
0001
1000
0000
0010
0000
0100
0000
0010
0000
0000
1001
0000
0000
1100
0000
,
0001
0010
0001
0010
0001
0010
0100
1100
,
0001
0100
0001
0100
0001
0100
0010
1010
,
0001
1000
0001
1000
0001
1000
0100
0110
,
0000
0000
0011
0000
1000
0001
0100
0001
1000
0000
0000
0110
0000
0000
0101
0000
,
1000
0010
1000
0010
1000
0010
0100
0101
,
1000
0100
1000
0100
1000
0100
0010
0011
,
1000
0001
1000
0001
1000
0001
0100
0010
,
0110
0101
1001
0011
,
1100
0101
1100
0101
,
1000
0100
1000
0001
0100
0001
1000
0010
0100
0001
0010
0100
,
2000
3100
0002
0103
,
1000
0100
1000
0100
0010
0100
0010
0100
0001
0100
0001
0100
1000
0100
0010
0001
,
1000
0000
2002
0000
,
0000
0000
0000
0000
,
3003
0000
0000
0000
,
0000
0000
0000
0000
;

//---------------dance-double - ----------------
#NOTEDATA:;
#CHARTNAME:;
#STEPSTYPE:dance-double;
#DESCRIPTION:;
#CHARTSTYLE:;
#DIFFICULTY:Easy;
#METER:6;
#RADARVALUES:0.284988,0.331967,0.062341,0.179231,0.000000,256.000000,248.000000,8.000000,23.000000,0.000000,0.000000,0.000000,0.000000,0.000000,0.284988,0.331967,0.062341,0.179231,0.000000,256.000000,248.000000,8.000000,23.000000,0.000000,0.000000,0.000000,0.000000,0.000000;
#CREDIT:;
#DISPLAYBPM:74.000000:148.000000;
#NOTES:
00000000
00000000
00000000
00000000
,
00000000
00000000
00000000
00000000
,
00000000
00000000
00000000
00000000
,
00000000
00000000
00000000
00000000
,
00000000
00000000
00000000
00000000
,
00000010
00000010
00000001
00000001
,
00000100
00000100
00001000
00001000
,
00010000
00100000
10000000
00100000
,
01000000
00010000
10000000
00000000
,
01000000
00000000
01000000
00000000
00010000
00001000
00010000
00000000
,
00001000
00000010
00000001
00000000
,
00001000
00000000
00001000
00000000
00000001
00000100
00000001
00000000
,
00000100
00000010
00001000
00000000
,
00000001
00000100
00001000
00010000
,
00100000
01000000
00100000
00100000
,
10000000
01000000
00010000
00001000
,
00000010
00000100
00000010
00000010
,
00000001
00000100
00001000
00010000
,
01000000
10000000
01000000
00010000
,
01000000
01100000
00100000
01100000
,
00010000
10000000
00100000
00000000
01000000
00000000
00000000
00000000
,
00100000
00000000
10000000
00000000
01000000
00000000
00010000
00010000
,
00001000
00000000
00000100
00000000
00000001
00000000
00000010
00000010
,
00001000
00010000
00100000
10000000
,
00010000
01000000
00010000
01000000
,
00100000
10000000
00100000
10000000
,
01000000
00010000
00001000
00010000
,
00011000
00000000
00000000
00000000
,
00001000
00000000
00000010
00000000
00000100
00000010
00000100
00000000
,
00000010
00000000
00000001
00000000
00000100
00000001
00000100
00000000
,
00000002
00000013
00002000
00003010
,
00000002
00000013
00001000
00001000
,
00000001
00000000
00000100
00000000
00001000
00000100
00001000
00000000
,
00010000
00001000
00010000
00000000
,
00002000
00003000
00020000
00030000
,
00200000
00300000
20000000
30000000
,
00020000
00100000
10000000
00130000
,
20000000
00100000
00010000
30100000
,
00020000
00100000
10000000
00130000
,
10000000
01000000
00010000
00000000
,
00002000
00100000
00010000
00103000
,
00020000
00000010
00001000
00030010
,
00002000
00100000
00010000
00103000
,
00010000
00001000
00000100
00000001
,
00000010
00000010
00000100
00000100
,
00000010
00000000
00000001
00000000
00000100
00001000
00010000
00000000
,
00100000
00000000
00010000
00000000
00100000
10000000
00010000
00000000
,
00100000
00010000
01000000
00100000
,
10000000
00000000
01000000
00000000
00010000
00001000
00010000
00000000
,
00001000
00001000
00000010
00000010
,
00000001
00000001
00000100
00000100
,
00000001
00000100
00001000
00010000
,
01000000
10000000
00010000
10000000
,
01100000
00000000
10010000
00000000
,
01100000
00000000
10010000
00000000
,
10000000
01000000
00010000
00001000
,
00000010
00000001
00001000
00000000
,
00002000
00000010
00000001
00003010
,
00000002
00000010
00001000
00000013
,
00002000
00000010
00000001
00003010
,
00000001
00000100
00001000
00000000
,
00020000
00000010
00001000
00030010
,
00002000
00100000
00010000
00103000
,
00020000
00000010
00001000
00030010
,
00001000
00010000
01000000
10000000
,
00100000
00100000
01000000
01000000
,
00001000
00001000
00010000
00010000
,
00000020
00000030
00000200
00000300
,
00000010
00001000
00000100
00000010
,
00000001
00000000
00002002
00000000
,
00000000
00000000
00000000
00000000
,
00003003
00000000
00000000
00000000
,
00000000
00000000
00000000
00000000
;

//---------------dance-double - ----------------
#NOTEDATA:;
#CHARTNAME:;
#STEPSTYPE:dance-double;
#DESCRIPTION:;
#CHARTSTYLE:;
#DIFFICULTY:Medium;
#METER:10;
#RADARVALUES:0.458653,0.525614,0.233780,0.085719,0.058445,412.000000,382.000000,30.000000,11.000000,0.000000,0.000000,0.000000,0.000000,0.000000,0.458653,0.525614,0.233780,0.085719,0.058445,412.000000,382.000000,30.000000,11.000000,0.000000,0.000000,0.000000,0.000000,0.000000;
#CREDIT:;
#DISPLAYBPM:74.000000:148.000000;
#NOTES:
00000000
00000000
00000000
00000000
,
00000000
00000000
00000000
00000000
,
00000000
00000000
00000000
00000000
,
00000000
00000000
00000000
00000000
,
00000000
00000000
00000000
00000000
,
00100000
10000000
00100000
00000000
10000000
01000000
10000000
00000000
,
01000000
00010000
01000000
00000000
00010000
00001000
00010000
00000000
,
00001000
00000100
00000001
00000010
,
00001000
00000000
00000001
00000000
00000100
00000000
00000010
00000000
00000000
00000000
00000100
00000000
00000000
00000100
00000000
00000000
,
00001000
00000000
00001000
00000000
00010000
00100000
10000000
00100000
,
01000000
00000000
01000000
00000000
00010000
10000000
00000000
00000000
,
01000000
00000000
01000000
00000000
00010000
00001000
00010000
00001000
,
00000010
00000000
00000000
00000000
00000010
00000000
00000000
00000000
00000001
00000000
00000000
00000001
00000000
00000000
00000001
00000000
,
00000100
00000010
00000100
00000010
00010000
00001000
00010000
00001000
,
00100000
00000000
01000000
00000000
00100000
00010000
10000000
00000000
,
00010000
01000000
00010000
01000000
00100000
10000000
00100000
10000000
,
01000000
00000000
00010000
00000000
00001000
00010000
00001000
00000000
,
00000100
00000010
00000100
00000010
00001000
00000001
00001000
00000001
,
00000010
00000000
00000001
00000000
00000100
00001000
00010000
00000000
,
00001000
00100000
00010000
00000000
00100000
00001000
00010000
00000000
,
00001000
01000000
00010000
10000000
00100000
00000000
00000000
00000000
,
10000000
01000000
00010000
00001000
00000100
00000001
00001000
00001001
,
00000001
00000100
00001000
00010000
01000000
10000000
00010000
10010000
,
10000000
00000000
00000000
00000000
00100000
00000000
00000000
00000000
00010000
00000000
00000000
00000000
00001000
00000000
00000000
00000000
00000010
00000000
00000000
00000000
00000001
00000000
00000000
00000000
00001000
00000000
00000000
00001000
00000000
00000000
00001000
00000000
,
00000001
00000000
00000001
00000000
00001000
00000010
00000100
00000000
,
00000001
00001000
00000100
00000000
00000010
00000001
00000100
00000000
,
00000010
00010000
00001000
00100000
00010000
10000000
01000000
00000000
,
00100000
00000000
00000000
01000000
00000000
00000000
10010000
00000000
00000000
00000000
00000000
00000000
00000000
00000000
00000000
00000000
,
00100000
10000000
00100000
10000000
00010000
01000000
00010000
01000000
,
00001000
00010000
00001000
00010000
00000010
00001000
00000100
00000000
,
00010000
00001000
00000100
00000000
00001000
00010000
00100000
00000000
,
00010000
00001000
00000010
00000000
00001000
00010000
01000000
00000000
,
10000000
00010000
10000000
00010000
10000000
01000000
10000000
01000000
,
00010000
00000000
00001000
00000000
00010000
00000000
00001000
00000000
00010000
00000000
00000000
00010000
00000000
00000000
00010000
00000000
,
00001000
00000000
00000000
00001000
00000000
00000000
00001000
00000000
00000010
00000000
00000000
00000010
00000000
00000000
00000010
00000000
,
00000001
00000000
00000000
00000001
00000000
00000000
00000001
00000000
00000100
00000000
00001000
00000000
00010000
00000000
00000000
00000000
,
00001000
00000010
00000100
00000010
00001000
00000000
00011000
00000000
,
00010000
00100000
01000000
00100000
00010000
00000000
00011000
00000000
,
00001000
00000010
00000100
00000010
00001000
00000000
00010000
00001000
,
00000000
00000000
00100000
00000000
00100000
00000000
00000000
00000000
00001000
00000000
00000000
00010000
00000000
00000000
00001000
00000000
,
00010000
01000000
10000000
01000000
00010000
00000000
00011000
00000000
,
00001000
00000100
00000001
00000100
00001000
00000000
00011000
00000000
,
00010000
01000000
10000000
01000000
00010000
00000000
00011000
00000000
,
00001000
00000010
00000001
00000100
,
00001100
00011000
00001100
00011000
,
00010000
00000000
00000000
00100000
01000000
00000000
00100000
00000000
10000000
00000000
01000000
00000000
00100000
00000000
00010000
00000000
,
10000000
00000000
00000000
01000000
00010000
00000000
00001000
00000000
00100000
00001000
00010000
00000000
00011000
00000000
00000000
00000000
,
00001000
00000010
00000001
00000000
00001000
00000100
00000001
00000010
,
00000110
00000000
00001001
00000000
00000010
00010000
00011000
00000000
,
00010000
00010000
00100000
00100000
,
10000000
10000000
01000000
01000000
,
00100000
00010000
01000000
00000000
00001000
00010000
00000100
00000000
,
00001000
00000001
00000010
00000000
00000100
00001000
00000010
00000000
,
00000201
00000310
00001020
00010030
,
00012000
00103000
02010000
03100000
,
10000000
01000000
10000000
01000000
00010000
01000000
00010000
01000000
,
00010000
00000000
00001000
00000000
00010000
00000000
00001000
00000000
00010000
00000000
00000000
00010000
00000000
00000000
00010000
00000000
,
00001000
00000010
00000100
00000010
00001000
00000000
00011000
00000000
,
00010000
00100000
01000000
00100000
00010000
00000000
00011000
00000000
,
00001000
00000010
00000100
00000010
00001000
00000000
00010000
00001000
,
00000000
00000000
00100000
00000000
00100000
00000000
00000000
00000000
00001000
00000000
00000000
00010000
00000000
00000000
00001000
00000000
,
00010000
01000000
10000000
01000000
00010000
00000000
00011000
00000000
,
00001000
00000100
00000001
00000100
00001000
00000000
00011000
00000000
,
00010000
01000000
10000000
01000000
00010000
00000000
00011000
00000000
,
00001000
00000010
00000001
00000100
,
00002000
00023000
02030000
13000000
,
01010000
11000000
01010000
11000000
,
00020000
01030000
00200000
10300000
,
00010000
00100000
01000000
10000000
00010000
01000000
00001000
00010000
,
00000010
00000000
00000220
00000000
,
00000000
00000000
00000000
00000000
,
00000330
00000000
00000000
00000000
,
00000000
00000000
00000000
00000000
;

//---------------dance-double - ----------------
#NOTEDATA:;
#CHARTNAME:;
#STEPSTYPE:dance-double;
#DESCRIPTION:;
#CHARTSTYLE:;
#DIFFICULTY:Hard;
#METER:14;
#RADARVALUES:0.670168,0.746926,0.428596,0.054549,0.494833,602.000000,547.000000,55.000000,7.000000,0.000000,0.000000,0.000000,0.000000,0.000000,0.670168,0.746926,0.428596,0.054549,0.494833,602.000000,547.000000,55.000000,7.000000,0.000000,0.000000,0.000000,0.000000,0.000000;
#CREDIT:;
#DISPLAYBPM:74.000000:148.000000;
#NOTES:
00000000
00000000
00000000
00000000
,
00000000
00000000
00000000
00000000
,
00000000
00000000
00000000
00000000
,
00000000
00000000
00000000
00000000
,
00000000
00000000
00000000
00000000
,
00000001
00000000
00000000
00001000
00000000
00000000
00001100
00000000
00010000
00000000
00000000
00001000
00000000
00000000
00011000
00000000
,
00100000
00000000
00000000
00010000
00000000
00000000
00110000
00000000
10000000
00000000
00000000
00100000
00000000
00000000
10100000
00000000
,
00010000
01000000
00100000
10000000
01000000
00010000
00001000
00010000
,
00100000
00000000
00010000
00000000
00001000
00010000
00001000
00010000
00000000
00000000
00001010
00000000
00000000
00000011
00000000
00000000
,
00001000
00000000
00000100
00000010
00000000
00000001
00000010
00000000
00000001
00000000
00000100
00000000
00001000
00000000
00010000
00000000
,
00100000
00000000
10000000
00100000
00000000
01000000
00020000
00000000
00100000
00000000
00130000
00000000
00000000
00000000
00000000
00000000
,
10000000
00000000
00100000
00010000
00000000
00001000
00000100
00000000
00000010
00000000
00000100
00000000
00001000
00000000
00010000
00000000
,
00001000
00000000
00000010
00000000
00000001
00000010
00000100
00000010
00000001
00000000
00000000
00000110
00000000
00000000
00001001
00000000
,
00000001
00000000
00000100
00000000
00000001
00000010
00000000
00001000
00000010
00000000
00000001
00000000
00000100
00000000
00001000
00000000
,
00010000
00000000
00100000
00000000
10000000
00100000
00000000
00010000
00100000
00000000
01000000
00000000
00001000
00000000
00010000
00000000
,
00001000
00000000
00000100
00000000
00000001
00000100
00000000
00001000
00000100
00000000
00000001
00000000
00000010
00000000
00000100
00000000
,
00001000
00000000
00000001
00000000
00000010
00001000
00000000
00010000
00001000
00000000
00010000
00000000
01000000
00000000
01000000
00000000
,
10000000
00000000
01000000
00000000
00100000
00001000
00000000
00010000
00001000
00000000
00000100
00000000
00000001
00000000
00001000
00000000
,
00000001
00000010
00000001
00000000
00000010
00000000
00000100
00000000
00001000
00000001
00001000
00000000
00000010
00000000
00000100
00000000
,
00001000
00010000
00001000
00000000
00100000
00010000
00100000
00000000
00001000
00010000
00001000
00000000
01000000
00010000
01000000
00000000
,
00010000
00100000
01000000
10000000
00010000
01000000
00100000
10000000
00010000
00000000
00000000
00000000
00000000
00000000
00000000
00000000
,
10000000
01000000
00010000
00000000
00001000
00000100
00000001
00000000
00001000
00000100
00000001
00000000
00000110
00000000
00001100
00000000
,
00000001
00000100
00001000
00000000
00010000
01000000
10000000
00000000
00010000
01000000
10000000
00000000
01100000
00000000
01010000
00000000
,
10000000
00000000
00100000
00000000
00010000
00000000
00000000
00000000
00001000
00000000
00000010
00000000
00000001
00000000
00000000
00000000
00001000
00000000
00000010
00000000
00000001
00000000
00000000
00000000
00000010
00000000
00000000
00000010
00000000
00000000
00000010
00000000
,
00001000
00000010
00001000
00000010
00010000
00001000
00010000
00001000
,
00100000
00010000
00100000
00010000
10000000
01000000
10000000
01000000
,
10000000
00000000
00010000
00000000
10000000
00000000
00010000
00000000
01000000
00000000
00001000
00000000
00010000
00001000
00100000
00001000
,
00010000
00000000
00000000
00001000
00000000
00000000
00011000
00000000
00000000
00000000
00000000
00000000
00000000
00000000
00000000
00000000
,
00000001
00000000
00000100
00000000
00000010
00001000
00000010
00001000
00000010
00000000
00001000
00000000
00010000
00000000
01000000
00000000
,
00100000
00000000
01000000
00000000
00010000
10000000
00010000
10000000
00010000
00000000
00100000
00000000
00010000
00000000
01000000
00000000
,
00100000
10000000
00100000
00000000
01000000
00000000
00001000
00000000
00010000
00001000
00010000
00000000
00000100
00000000
00001000
00000000
,
00000001
00000010
00000001
00000000
00001000
00000000
00000100
00000000
00000010
00000100
00000010
00000000
00000001
00001000
00000001
00000000
,
00000010
00000000
00001000
00000000
00010000
00001000
00010000
00001000
00010000
00000000
00100000
00000000
10000000
00000000
00010000
00000000
,
01000000
00000000
00100000
00000000
10000000
00010000
10000000
00010000
10000000
00000000
00000000
01100000
00000000
00000000
01010000
00000000
,
10010000
00000000
10000000
00100000
00000000
00100000
00010000
00000000
00011000
00000000
00001000
00000010
00000000
00000010
00000001
00000000
,
00001001
00000000
00001000
00000100
00000000
00000100
00000010
00000000
00000001
00001000
00000001
00000000
00001000
00000001
00001000
00000000
,
00000001
00000100
00001000
00000100
00000001
00000100
00001000
00011000
,
00100000
10000000
01000000
10000000
00010000
10000000
01000000
01010000
,
00001000
00010000
00000010
00010000
00001000
00000010
00000001
00000101
,
00000000
00000000
00000010
00000000
00001000
00000001
00000100
00000001
00001000
00000000
00000000
00000110
00000000
00000000
00001001
00000000
,
00000001
00000100
00001000
00010000
01000000
10000000
00010000
10010000
,
10000000
00100000
00010000
00001000
00000010
00000001
00001000
00001001
,
00000001
00000010
00001000
00010000
00100000
00010000
00001000
00010000
,
00011000
00110000
10100000
11000000
,
00200000
00302000
00003020
00000032
,
00001003
00000000
00000000
00000001
00000000
00000000
00000100
00000000
00000010
00000000
00001000
00000000
00000100
00000000
00000000
00000000
00000010
00000000
00001000
00000000
00010000
00000000
00000000
00000000
00100000
00000000
10000000
00000000
00010000
00000000
00000000
00000000
,
01000000
00000000
00000000
00100000
00000000
00000000
10000000
00000000
01000000
00000000
00100000
00000000
00010000
00000000
00000000
00000000
00001000
00000000
00000100
00000000
00000010
00000000
00000001
00000000
00001000
00000000
00000000
00000000
00000000
00000000
00001000
00000000
,
00000001
00000000
00000000
00000100
00000000
00000000
00001000
00000000
00001100
00000000
00000000
00000000
00000000
00000000
00000001
00000000
00000010
00000000
00000000
00001000
00000000
00000000
00010000
00000000
00011000
00000000
00000000
00000000
00100000
00000000
00010000
00000000
,
10010000
00000000
00000000
00000000
00000000
00000000
01100000
00000000
00000000
00000000
00000000
00000000
00010000
01000000
00100000
10000000
01000000
00100000
00010000
00000000
00000000
00000000
00000000
00000000
,
10000000
01000000
00010000
00001000
,
00000100
00000001
00001000
00000001
,
00000010
00000100
00001000
00000000
00000010
00000100
00001000
00000000
,
00010000
01000000
00100000
00000000
00001000
00010000
00001000
00000100
,
00000110
00000000
00001000
00000000
00010000
00001000
00010000
00001000
00010000
00000000
01000000
00000000
10000000
00000000
01000000
00000000
,
01100000
00000000
00001000
00000000
00010000
00001000
00010000
00001000
00010000
00000000
00000000
00000100
00000000
00000000
00000010
00000000
,
00000010
00000000
00000001
00000100
00000000
00000010
00001000
00000000
00000100
00000000
00010000
00001000
00000000
01000000
00010000
00000000
,
10000000
00000000
00100000
00000000
01000000
00010000
10000000
00010000
01000000
00000000
00000000
01100000
00000000
00000000
10010000
00000000
,
10000000
01000000
00010000
01000000
10000000
01000000
00010000
00011000
,
00000010
00000001
00000100
00000001
00001000
00000001
00000100
00001100
,
00010000
00001000
00100000
00001000
00010000
00100000
10000000
11000000
,
00000000
00000000
00100000
00000000
00010000
10000000
01000000
10000000
00010000
00000000
00000000
01100000
00000000
00000000
10010000
00000000
,
10000000
01000000
00010000
00001000
00000100
00000001
00001000
00001001
,
00000001
00000010
00001000
00010000
00100000
10000000
00010000
10010000
,
10000000
00100000
00010000
00001000
00000010
00001000
00010000
00001000
,
00011000
00001010
00000011
00000101
,
00001100
00011000
00110000
10100000
,
00010000
01000000
00010000
00100000
01000000
00100000
00001000
00010000
00001000
00000100
00000001
00000100
,
00000010
00001000
00000010
00001000
00000001
00000000
00000000
00000000
00000100
00000001
00000100
00000001
00001000
00000000
00000000
00000000
,
00001100
00000000
00000000
00000000
00011000
00000000
00000000
00000000
00001000
00100000
00010000
00100000
00001000
00100000
00010000
00100000
,
00001000
00000000
00022000
00000000
,
00000000
00000000
00000000
00000000
,
00033000
00000000
00000000
00000000
,
00000000
00000000
00000000
00000000
;

//---------------dance-single - ----------------
#NOTEDATA:;
#CHARTNAME:;
#STEPSTYPE:dance-single;
#DESCRIPTION:;
#CHARTSTYLE:;
#DIFFICULTY:Challenge;
#METER:17;
#RADARVALUES:0.856079,1.106557,0.654583,0.272743,1.024734,769.000000,685.000000,84.000000,35.000000,0.000000,0.000000,0.000000,0.000000,0.000000,0.856079,1.106557,0.654583,0.272743,1.024734,769.000000,685.000000,84.000000,35.000000,0.000000,0.000000,0.000000,0.000000,0.000000;
#CREDIT:;
#DISPLAYBPM:74.000000:148.000000;
#NOTES:
// measure 0
0000
0000
0000
0000
,  // measure 1
0000
0000
0000
0000
,  // measure 2
0000
0000
0000
0000
,  // measure 3
0000
0000
0000
0000
,  // measure 4
0000
0000
0000
0000
,  // measure 5
1001
0100
1000
0100
1010
0100
0010
0100
,  // measure 6
1001
0100
0001
0100
0011
0100
0010
0100
,  // measure 7
0001
1000
0010
0100
0001
0010
0100
1000
0020
0000
0000
2030
0000
0000
3001
0000
,  // measure 8
0010
0001
0100
0010
1000
0001
1000
0100
0000
0000
1100
0000
0000
0101
0000
0000
,  // measure 9
1000
0010
0000
0010
0100
0000
0100
0001
0000
0001
0010
0000
0001
0000
1000
0000
,  // measure 10
0010
1000
0000
1000
0100
0010
0001
0000
1001
0000
0110
0000
1000
0000
0000
0000
,  // measure 11
1000
0001
0000
0001
0010
0000
0010
0100
0000
0100
1000
0000
0010
0000
0100
0000
,  // measure 12
0001
1000
0000
1000
0010
0100
0001
0000
0011
0000
0000
0101
0000
0000
1001
0000
,  // measure 13
0010
1000
0100
0001
0100
1000
0010
0100
0002
0000
2003
0000
0000
3001
0100
0000
,  // measure 14
0010
1000
0000
1000
0100
0000
0000
0000
0010
0001
0000
0001
0100
0000
0000
0000
,  // measure 15
1000
0001
0010
1000
0010
0001
0100
0010
2000
0000
3200
0000
0000
1300
0001
0000
,  // measure 16
0010
0000
0001
0100
1000
0000
0000
0000
0001
0100
0000
0010
1000
0000
0000
0000
,  // measure 17
0100
0010
1000
0010
0001
0010
1000
0100
0020
0000
0032
0000
0000
0103
0001
0000
,  // measure 18
0011
0000
0000
1100
0000
0000
0101
0000
0000
1010
0000
0000
0110
0000
1001
0000
,  // measure 19
1000
0100
0000
1000
0001
0100
0000
0001
1000
0010
0000
1000
0001
0010
0000
0001
,  // measure 20
1000
0100
0001
1000
0010
0001
1000
0100
0001
0000
0000
0000
0000
0000
0000
0000
,  // measure 21
0010
0000
0110
0000
0010
0000
0000
0000
1000
0000
1100
0000
0001
0000
0000
0000
0001
0000
0101
0000
1000
0000
0000
0000
1000
0100
0010
0001
0100
0010
1000
0001
,  // measure 22
0000
0000
0110
0000
0100
0000
0000
0000
1000
0000
1010
0000
0001
0000
0000
0000
0001
0000
0011
0000
1000
0000
0000
0000
0001
1000
0100
0010
0001
0010
0100
1000
,  // measure 23
0000
0000
0110
0000
0100
0000
0000
0000
1000
0000
1010
0000
0001
0000
0000
0000
0001
0000
0101
0000
1000
0000
0000
0000
1000
0001
0010
0100
0001
1000
0010
0100
,  // measure 24
0010
0000
0001
0000
0100
0000
1000
0000
0010
1000
0000
0100
0010
0000
0001
0000
,  // measure 25
0100
0000
0010
0000
1000
0000
0001
0000
0010
0000
0001
0000
0100
0010
1000
0001
,  // measure 26
0010
0000
0001
0000
1000
0000
0100
0000
0010
0001
1000
0001
0100
0010
1000
0100
,  // measure 27
1000
0000
0000
1100
0000
0000
0101
0000
1000
0001
0000
0100
0000
0100
0000
0010
,  // measure 28
0100
0000
0010
0001
0010
0100
0010
1000
0010
0000
1000
0000
1100
0000
0011
0000
,  // measure 29
1000
0000
0100
1000
0100
0010
0100
0001
0100
0000
0010
0000
0110
0000
1010
0000
,  // measure 30
1000
0100
0010
0100
1000
0010
0100
0010
0001
0100
0010
0100
0001
0010
0100
0010
,  // measure 31
0001
1000
0010
0100
0001
0010
0100
1000
0010
0100
0010
0100
0001
1000
0001
1000
,  // measure 32
0010
0000
1000
0100
0001
0100
1000
0010
0100
0000
0010
0000
1010
0000
1001
0000
,  // measure 33
0001
0010
0001
1000
0010
1000
0100
0010
0001
0000
0000
0101
0000
0000
1010
0000
,  // measure 34
0100
0010
0001
0010
0100
1000
0100
0010
0001
1000
0001
1000
0010
1000
0001
0100
,  // measure 35
0010
1000
0100
0010
0001
1000
0001
0100
0010
1000
0010
1000
0001
0100
0001
0100
,  // measure 36
0010
0000
1000
0100
1000
0000
0001
0100
0001
0000
0010
0000
1001
0000
0100
0000
,  // measure 37
1001
0000
0010
1000
0100
0000
0010
0001
0100
0000
0010
0000
1010
0000
0010
0000
,  // measure 38
1010
0000
1000
0001
0100
0000
0001
1000
0100
0000
0010
0000
0001
0000
0100
0000
,  // measure 39
0000
0000
0011
0000
1100
0000
0000
0000
1000
0100
0010
0001
0000
0001
0100
0000
,  // measure 40
0010
0000
1000
0100
0001
0000
1000
0010
0001
0000
0100
0000
0110
0000
0001
0000
,  // measure 41
0110
0000
0010
1000
0001
0000
0100
0001
1000
0000
0100
0000
0110
0000
1000
0000
,  // measure 42
0110
0000
0001
1000
0010
0000
1000
0100
0010
0000
0001
0000
0010
0000
0001
0000
,  // measure 43
0011
0011
1100
1100
,  // measure 44
1001
0110
1001
0110
,  // measure 45
2001
0000
0000
3002
0000
0000
0203
0000
0010
0000
0010
0000
0020
0000
0330
0000
0001
0000
1000
0000
0001
0000
0100
0000
0020
0000
0000
0230
0000
0000
0301
0000
,  // measure 46
0012
0000
0000
2003
0000
0000
3020
0000
0100
0000
0100
0000
0200
0000
0330
0000
0001
0010
0100
1000
0001
0100
0010
2000
0002
0000
0000
0000
0000
3003
1000
0100
,  // measure 47
0020
0000
0000
0032
0000
0000
2003
0000
0002
0000
0000
0000
0000
3003
0010
0100
2000
0000
0000
3002
0000
0000
0103
0000
0020
0000
0000
0000
1030
0000
0001
0000
,  // measure 48
1001
0000
0000
0000
0000
0000
1000
0100
1000
0001
0100
0001
1000
0100
0001
1000
0010
0001
0200
0000
0000
0000
0300
0000
,  // measure 49
0100
0000
0001
0010
0001
0010
0100
2000
0000
0000
0010
0000
0010
0000
3010
0000
,  // measure 50
1000
0000
0010
0100
0010
0100
0001
2000
0000
0000
0010
0000
0010
0000
3010
0000
,  // measure 51
1000
0100
0010
0001
0000
0001
0100
0001
1000
0001
0100
0010
0000
0010
1000
0010
,  // measure 52
0100
0010
1000
0001
0000
0001
0010
0001
1000
0001
1000
0001
0100
0010
0100
0010
,  // measure 53
1000
0000
0100
1000
0010
0100
0001
0020
0000
0000
0001
0000
0001
0000
0031
0000
,  // measure 54
0100
0000
1000
0010
0100
0001
1000
0100
0010
0000
0000
0011
0000
0000
1010
0000
,  // measure 55
1000
0100
1000
0010
0100
0001
0010
0001
1000
0010
0100
0001
1000
0100
0010
0001
,  // measure 56
1000
0001
0100
0010
0100
1000
0010
0100
0001
0010
1000
0001
1000
0001
0100
0010
,  // measure 57
0100
0000
0001
1000
0100
0000
0010
0001
0100
0000
1000
0000
1100
0000
0010
0000
,  // measure 58
1100
0000
0001
1000
0010
0000
0100
0001
0010
0000
0100
0000
1100
0000
0001
0000
,  // measure 59
1100
0000
0001
0100
1000
0000
0001
0010
1000
0000
0001
0000
0010
0000
1000
0000
,  // measure 60
0000
0000
0101
0000
1010
0000
0000
0000
0001
1000
0100
0010
0000
0100
0010
0000
,  // measure 61
1000
0000
0100
1000
0100
0000
0010
0001
0010
0000
1000
0000
0101
0000
1000
0000
,  // measure 62
0101
0000
1000
0010
0100
0000
0010
1000
0001
0000
0010
0000
0011
0000
0100
0000
,  // measure 63
0011
0000
0001
1000
0100
0000
0010
0100
1000
0000
0001
0000
0100
0000
1000
0000
,  // measure 64
0110
0110
1001
1001
,  // measure 65
1100
0101
1010
0011
,  // measure 66
0110
1100
0011
0110
,  // measure 67
1002
0103
1200
1300
,  // measure 68
0001
1000
0100
1000
0010
1000
0100
0010
0010
0100
0001
1000
0010
0001
0100
0001
,  // measure 69
1000
0000
0022
0000
,  // measure 70
0000
0000
0000
0000
,  // measure 71
0033
0000
0000
0000
;
