#VERSION:0.83;
#TITLE:Chewingood!!!;
#SUBTITLE:;
#ARTIST:TORIENA;
#TITLETRANSLIT:;
#SUBTITLETRANSLIT:;
#ARTISTTRANSLIT:;
#GENRE:;
#ORIGIN:;
#CREDIT:;
#BANNER:Chewingood!!!-bn.png;
#BACKGROUND:Chewingood!!!-bg.png;
#PREVIEWVID:;
#JACKET:Chewingood!!!-jacket.png;
#CDIMAGE:;
#DISCIMAGE:;
#LYRICSPATH:;
#CDTITLE:;
#MUSIC:Chewingood!!!.ogg;
#OFFSET:0.000000;
#SAMPLESTART:64.420998;
#SAMPLELENGTH:20.000000;
#SELECTABLE:YES;
#DISPLAYBPM:190.000000;
#BPMS:0.000=190.000;
#STOPS:;
#DELAYS:;
#WARPS:;
#TIMESIGNATURES:0.000=4=4;
#TICKCOUNTS:0.000=4;
#COMBOS:0.000=1;
#SPEEDS:0.000=1.000=0.000=0;
#SCROLLS:0.000=1.000;
#FAKES:;
#LABELS:0.000=Song Start;
#BGCHANGES:;
#KEYSOUNDS:;
#ATTACKS:
;

//---------------dance-single - ----------------
#NOTEDATA:;
#CHARTNAME:;
#STEPSTYPE:dance-single;
#DESCRIPTION:;
#CHARTSTYLE:;
#DIFFICULTY:Hard;
#METER:14;
#RADARVALUES:0.727040,0.744684,0.379539,0.241525,0.017252,590.000000,546.000000,44.000000,28.000000,0.000000,0.000000,0.000000,0.000000,0.000000,0.727040,0.744684,0.379539,0.241525,0.017252,590.000000,546.000000,44.000000,28.000000,0.000000,0.000000,0.000000,0.000000,0.000000;
#CREDIT:;
#DISPLAYBPM:190.000000;
#NOTES:
0000
0000
0000
0000
,
0000
0000
0000
0000
,
0000
0000
0000
0000
,
0000
0000
0000
0000
,
1000
0010
0100
0001
0010
1000
0010
0100
,
0010
0001
0100
0010
0001
0010
1000
0100
,
0001
0100
0010
0100
1000
0010
0100
0001
,
0010
0100
1000
0002
0000
0103
1000
0001
,
1010
0000
0011
0000
1010
0000
0001
1000
,
0010
0100
0010
0001
0010
1000
0100
0001
,
1100
0000
0000
0000
0101
0000
0000
0000
1100
0000
0000
0000
0001
1000
0001
0000
,
0110
0000
0001
0010
1000
0010
0100
1000
,
0100
0010
0001
0100
0010
0001
0010
0100
,
0010
0001
0010
1000
0100
0001
0100
1000
,
0001
0100
0010
1000
0100
0010
0001
1000
,
0010
0100
0010
0001
1000
0001
0010
0100
,
1000
0001
0101
0000
0000
0010
0010
0010
,
1000
0000
0100
0000
0001
0000
0100
0000
1000
0000
0010
0100
0010
0000
0001
0000
,
0000
1000
0001
0010
0100
0000
0010
0001
,
0100
1000
0100
0010
1000
0000
0100
0010
,
1001
0000
0010
0100
0010
1000
0100
0001
,
0100
0010
1000
0010
0100
0000
0011
0000
,
1100
0000
0010
1000
0100
0001
1000
0010
,
0100
1000
0100
0001
1000
0010
0110
0000
,
2010
0000
3002
0000
0203
0000
0301
1000
,
0100
0001
0100
1000
0001
0000
0101
0000
,
1000
0100
0001
0000
1200
0000
0301
0100
,
1000
0010
0100
0001
0010
0100
1000
0001
,
0100
0200
0000
0320
0000
1030
0100
0001
,
0010
0001
0100
0010
1010
0000
0101
0000
,
1001
0000
0100
1010
0000
0001
1000
0100
,
0001
1000
0010
0100
0001
0000
0000
0010
,
0001
0100
0010
0000
1000
0001
1000
0010
,
0100
1000
0100
0001
0020
0000
0130
0000
,
0110
0001
1000
0010
,
0100
0000
0001
0000
0010
0000
0100
0100
,
0100
1000
0001
0100
,
0010
0000
1000
0000
0001
0100
1000
0100
,
0001
0010
1000
0001
,
0100
0000
0010
0000
1000
0000
0010
0010
,
0010
0001
0100
1000
,
0001
0100
0010
0100
0001
0010
0100
1000
,
0010
0001
1000
0010
,
1000
0000
0100
0000
0001
0000
1000
1000
,
1000
0010
0001
0100
,
0010
0000
0001
0000
1000
0010
0001
0010
,
1010
0110
0101
0011
,
1001
0000
1100
0000
0011
0000
0001
0001
,
0001
0100
1000
0100
0010
0100
1000
0001
,
0010
0100
0010
0001
1000
0010
0001
0100
,
0020
0230
0301
1001
,
1200
0000
0301
0000
1000
0100
0001
1000
,
0010
0001
0010
0100
0010
1000
0010
0000
,
0201
0000
1300
0000
0001
0010
0100
1000
,
0010
0001
0010
0100
0010
1000
0010
0000
,
0210
0000
0301
0000
1000
0100
0001
1000
,
0010
0001
0010
0100
0010
1000
0010
0000
,
0021
0000
0130
0000
0001
0100
0010
1000
,
0100
0000
0001
0000
0100
0000
0010
0000
0100
0000
0000
0000
1000
0001
1000
0001
,
1000
0000
0101
0000
0010
0100
0001
1000
,
0100
0001
0100
0010
0100
1000
0100
0000
,
0001
0000
1010
0000
0001
1000
0100
0001
,
0100
1000
0100
0010
0100
0001
0100
0000
,
0010
0000
1100
0000
0001
1000
0010
0001
,
0010
1000
0010
0100
0010
0001
0010
0000
,
1000
0000
0110
0000
0001
1000
0100
0010
,
0100
0001
0100
0010
0100
1000
0100
0000
,
1000
0010
0001
0010
1000
0000
0100
0010
,
1000
0010
0001
0100
0010
0000
1000
0001
,
0010
0100
0001
0100
0000
1000
0001
0100
,
0010
0100
0001
0100
1000
0000
0011
0000
,
1010
0000
0100
0001
1000
0000
0010
0100
,
0001
1000
0100
1000
0010
0001
0100
0000
,
2010
0000
3001
0000
1002
0000
0103
1000
,
0100
0001
0010
0100
1000
0000
0001
0000
,
0010
0001
0100
0000
1000
0000
0010
0100
,
0010
0001
0010
1000
0001
0100
0010
0100
,
0010
2000
0000
3002
0000
0100
0103
0000
,
0010
1000
0010
0001
1000
0000
0001
0000
,
0011
0000
1000
0110
0000
0001
0100
1000
,
0010
0100
0010
0000
1001
0000
0000
0001
,
1000
0100
0010
0000
0001
0000
0100
0010
,
0001
1000
0100
0000
0101
0000
0000
0000
,
0020
0000
0230
0000
0301
1000
0001
0020
,
0000
0031
0100
0010
2000
0000
3000
0000
,
0200
0000
2300
0000
3010
0100
0001
0020
,
0000
0031
1000
0001
0200
0000
0300
0000
,
0020
0000
2030
0000
3001
1000
0001
0100
,
0010
1000
0100
0001
0100
1000
0001
0000
,
1000
0010
1000
0010
0100
1000
0100
0001
,
0010
1000
0010
0100
0010
0001
0010
0100
;

//---------------dance-single - ----------------
#NOTEDATA:;
#CHARTNAME:;
#STEPSTYPE:dance-single;
#DESCRIPTION:;
#CHARTSTYLE:;
#DIFFICULTY:Medium;
#METER:12;
#RADARVALUES:0.612439,0.705490,0.327784,0.207021,0.000000,497.000000,459.000000,38.000000,24.000000,0.000000,0.000000,0.000000,0.000000,0.000000,0.612439,0.705490,0.327784,0.207021,0.000000,497.000000,459.000000,38.000000,24.000000,0.000000,0.000000,0.000000,0.000000,0.000000;
#CREDIT:;
#DISPLAYBPM:190.000000;
#NOTES:
0000
0000
0000
0000
,
0000
0000
0000
0000
,
0000
0000
0000
0000
,
0000
0000
0000
0000
,
1000
0000
0001
0000
0100
0010
1000
0000
,
0100
0010
0001
0000
0100
0010
1000
0000
,
0001
0000
1000
0000
0010
1000
0100
0000
,
0010
0001
1000
0002
0000
0103
0010
0000
,
1001
0000
1001
0000
1001
0000
0001
1000
,
1100
0000
1100
0000
1100
0000
1000
0010
,
0110
0000
0110
0000
0110
0000
0100
0001
,
0011
0000
0011
0000
0011
0000
0010
0100
,
1000
0001
0010
0000
0001
1000
0100
0000
,
0010
0001
1000
0000
0010
0100
0001
0000
,
0010
0001
0100
0001
1000
0010
0100
0000
,
0001
0010
0100
2000
0000
3010
0100
0001
,
1000
0000
0101
0000
0000
0100
0010
0100
,
0010
1000
0100
0000
0001
1000
0100
0010
,
0000
1000
0100
1000
0000
0001
0000
0100
,
0000
0010
1000
0010
0000
0100
0000
0001
,
0000
0010
0100
1000
0000
0010
0000
0100
,
0000
0001
0100
1000
0000
0010
1000
0100
,
0000
0010
0001
1000
0000
0010
0000
0100
,
0000
0010
0100
0001
0000
1000
0000
0100
,
0000
1000
0001
0010
0000
0001
0100
0010
,
1000
0001
0010
0100
1000
0000
0110
0000
,
0001
1000
0001
1000
0000
0010
0000
0100
,
0000
0001
0010
0100
0000
1000
0010
0100
,
0000
0001
0000
0010
0000
0001
1000
0010
,
1000
0010
1000
0100
0001
0000
0001
0000
,
1001
0000
0010
0100
0000
0001
1000
0100
,
0000
0010
0000
0001
0000
0100
0000
1000
,
0000
0001
0000
0100
0000
0001
0000
1000
,
0010
0100
0010
0100
0010
0000
0101
0000
,
1100
0001
1000
0100
,
0010
0000
0100
0000
1000
0000
0001
1000
,
0001
0010
0100
1000
,
0010
0000
0100
0000
0001
0010
0100
1000
,
0010
0100
0001
0010
,
0100
0000
1000
0000
0001
0000
0100
0010
,
0100
0001
1000
0100
,
0001
1000
0001
1000
0001
0000
1010
0000
,
0011
1000
0001
1000
,
0001
0000
1000
0000
0001
0000
0100
0010
,
0100
0010
0100
0010
,
0100
0000
0010
0000
1000
0001
1000
0001
,
0010
0100
1000
0010
,
0100
0000
0001
0000
1000
0000
0010
1000
,
0100
0010
0001
1000
0010
1000
0100
0000
,
0010
0001
0100
0001
1000
0010
0100
0000
,
0002
2003
3100
1001
,
2000
0000
3002
0000
0013
0001
0100
0000
,
0001
0010
1000
0010
0002
0000
0003
0000
,
0200
0000
0320
0000
1030
0100
0001
0000
,
1000
0010
0001
0010
2000
0000
3000
0000
,
0200
0000
0320
0000
0031
0100
0010
0000
,
1000
0100
0001
0100
2000
0000
3000
0000
,
0020
0000
2030
0000
3100
1000
0010
0000
,
0001
0100
1000
0100
0002
0000
0013
0000
,
1100
0000
1100
0000
0010
1000
0100
0000
,
1000
0010
0001
0010
2000
0000
3000
0000
,
0101
0000
0101
0000
0010
0100
0001
0000
,
1000
0100
0001
0100
2000
0000
3000
0000
,
1010
0000
1010
0000
0100
0001
1000
0000
,
0001
0010
1000
0010
0002
0000
0003
0000
,
0011
0000
0011
0000
1000
0001
0100
0000
,
0001
0100
1000
0100
0002
0000
1003
0000
,
0010
1000
0100
1000
0001
0000
0110
0000
,
1000
0010
1000
0100
0001
0000
1010
0000
,
0001
0000
1000
0010
0000
1000
0100
0000
,
0010
0001
1000
0010
0100
0000
1001
0000
,
0110
0000
0001
0100
1000
0000
0010
0000
,
1000
0001
0010
0000
0001
0100
0010
0000
,
1100
0011
0101
1010
,
0010
1000
0100
0010
0001
0000
1000
0000
,
0010
1000
0001
0000
0010
0000
0100
0000
,
1000
0010
0100
0001
0010
0100
1000
0000
,
0001
2000
0000
3020
0000
1030
0001
0000
,
1000
0100
0001
0100
1000
0000
1000
0000
,
1001
0000
0010
0100
0000
0001
1000
0000
,
0010
1000
0100
0000
0011
0000
0000
0000
,
0001
0010
1000
0000
0100
0000
0010
0000
,
0001
1000
0001
0000
0100
0000
0000
0000
,
0001
0001
1000
1000
,
0010
1000
0100
1000
0002
0000
0003
0000
,
0100
0100
0010
0010
,
1000
0001
0010
0001
2000
0000
3000
0000
,
0010
0000
1000
0000
0001
0010
0001
0000
,
0100
0010
0100
0010
0100
0000
0000
0000
,
0001
0100
1000
0000
0001
0010
1000
0000
,
0001
1000
0001
1000
0010
0100
0010
0100
;

//---------------dance-single - ----------------
#NOTEDATA:;
#CHARTNAME:;
#STEPSTYPE:dance-single;
#DESCRIPTION:;
#CHARTSTYLE:;
#DIFFICULTY:Easy;
#METER:8;
#RADARVALUES:0.396791,0.469680,0.138014,0.017252,0.000000,322.000000,306.000000,16.000000,2.000000,0.000000,0.000000,0.000000,0.000000,0.000000,0.396791,0.469680,0.138014,0.017252,0.000000,322.000000,306.000000,16.000000,2.000000,0.000000,0.000000,0.000000,0.000000,0.000000;
#CREDIT:;
#DISPLAYBPM:190.000000;
#NOTES:
0000
0000
0000
0000
,
0000
0000
0000
0000
,
0000
0000
0000
0000
,
0000
0000
0000
0000
,
1000
0100
0001
0100
,
0010
0100
0001
0010
,
1000
0100
0010
1000
,
0010
0100
0001
1000
,
0100
0010
0001
0100
,
0001
0010
1000
0010
,
1000
0100
0001
0010
,
0100
0001
0010
0100
,
1000
0001
1000
0010
,
0100
0010
1000
0100
,
0001
1000
0001
0010
,
0100
1000
0010
0100
,
0002
2000
0000
3003
,
0010
1000
0100
0001
,
1000
0010
0100
0001
,
0010
0100
0010
0001
,
0100
0010
1000
0100
,
0010
0001
1000
0010
,
1000
0100
0001
0010
,
0100
0001
0010
1000
,
0100
0010
1000
0010
,
0100
0010
1000
0001
,
0100
1000
0001
0010
,
0100
0001
0100
1000
,
0010
0100
0010
1000
,
0100
0010
1001
1001
,
0110
0001
0100
0010
,
1000
0001
0010
0000
,
0001
0100
1000
0010
,
1000
0001
0110
0000
,
1000
0000
0001
0000
,
0010
0000
0001
0100
,
1000
0000
0010
0000
,
1000
0000
0100
0010
,
0001
0000
0100
0000
,
0010
0000
0001
1000
,
0100
0000
0010
0000
,
0001
1000
0001
1000
,
0010
0000
0100
0000
,
1000
0000
0010
0100
,
0001
0000
1000
0000
,
0100
0000
0001
0010
,
0001
0001
1000
1000
,
0001
0001
1000
1000
,
0010
1000
0100
0010
,
0001
0100
0001
1000
,
0010
0010
0010
1001
,
1000
1000
0001
0001
,
0010
0100
1000
0000
,
0010
0010
1000
0001
,
0010
0001
0100
0000
,
0001
0001
0010
0010
,
0001
0100
1000
0000
,
0010
0010
0100
0100
,
0001
1000
0100
0000
,
1000
0001
0100
0010
,
1000
0001
1100
0000
,
0001
1000
0010
1000
,
0100
0010
0011
0000
,
0010
0001
0100
0010
,
1000
0001
1010
0000
,
0100
0001
0010
0100
,
1000
0001
0101
0000
,
1000
0010
0100
0000
,
0001
0010
0100
0000
,
1000
1000
0001
0001
,
0010
0100
1000
0001
,
0100
0100
0010
1000
,
0100
0000
0010
0010
,
0001
0100
1000
0100
,
0010
1000
0001
0000
,
1000
0001
0010
0100
,
0010
0001
1000
0001
,
0010
0001
0100
1000
,
0010
0100
1001
1001
,
0110
0001
1000
0010
,
1000
0100
0001
0000
,
0010
0001
0100
0001
,
0010
1000
0100
0000
,
1100
0000
0101
0000
,
1000
0001
0100
0000
,
0011
0000
1010
0000
,
0001
1000
0010
0000
,
1000
1000
0001
0001
,
0010
0100
0010
0000
,
0001
0100
0010
1000
,
0001
0010
1000
0100
;

//---------------dance-single - ----------------
#NOTEDATA:;
#CHARTNAME:;
#STEPSTYPE:dance-single;
#DESCRIPTION:;
#CHARTSTYLE:;
#DIFFICULTY:Beginner;
#METER:5;
#RADARVALUES:0.239061,0.313120,0.051755,0.000000,0.000000,194.000000,188.000000,6.000000,0.000000,0.000000,0.000000,0.000000,0.000000,0.000000,0.239061,0.313120,0.051755,0.000000,0.000000,194.000000,188.000000,6.000000,0.000000,0.000000,0.000000,0.000000,0.000000,0.000000;
#CREDIT:;
#DISPLAYBPM:190.000000;
#NOTES:
// measure 0
0000
0000
0000
0000
,  // measure 1
0000
0000
0000
0000
,  // measure 2
0000
0000
0000
0000
,  // measure 3
0000
0000
0000
0000
,  // measure 4
1000
0000
0001
0000
,  // measure 5
0010
0000
0001
0000
,  // measure 6
0100
0000
0010
0000
,  // measure 7
1000
0000
0001
0000
,  // measure 8
0010
0000
0100
0000
,  // measure 9
0010
0000
0001
0000
,  // measure 10
0100
0000
0010
0000
,  // measure 11
1000
0000
0100
0000
,  // measure 12
0001
0000
0010
0000
,  // measure 13
0001
0000
0100
0000
,  // measure 14
0001
0000
1000
0000
,  // measure 15
0010
0000
0100
0000
,  // measure 16
0110
0000
0000
0000
,  // measure 17
0001
0001
0001
0001
,  // measure 18
0000
0100
0000
0100
,  // measure 19
0000
0010
0000
0010
,  // measure 20
0000
1000
0000
0001
,  // measure 21
0000
0010
0000
0100
,  // measure 22
0000
1000
0000
0010
,  // measure 23
0000
1000
0000
0001
,  // measure 24
0000
0100
0000
0010
,  // measure 25
0000
1000
1000
0000
,  // measure 26
0001
0000
0100
0000
,  // measure 27
0001
0001
0001
0000
,  // measure 28
0010
0000
0100
0000
,  // measure 29
1000
0000
1001
0000
,  // measure 30
0110
0000
0010
0000
,  // measure 31
1000
1000
1000
0000
,  // measure 32
0100
0000
0010
0000
,  // measure 33
0001
0001
0001
0000
,  // measure 34
1000
0000
1000
0000
,  // measure 35
1000
0000
0000
0000
,  // measure 36
0010
0000
0010
0000
,  // measure 37
0010
0000
0000
0000
,  // measure 38
0100
0000
0100
0000
,  // measure 39
0100
0000
0000
0000
,  // measure 40
0001
0000
1000
0000
,  // measure 41
0010
0000
0100
0000
,  // measure 42
0001
0000
0001
0000
,  // measure 43
0001
0000
0000
0000
,  // measure 44
1000
0000
1000
0000
,  // measure 45
1000
0000
0000
0000
,  // measure 46
0010
0000
0010
0000
,  // measure 47
0100
0000
0100
0000
,  // measure 48
0001
0000
0010
0000
,  // measure 49
0100
0000
1000
0000
,  // measure 50
1001
0000
0000
0000
,  // measure 51
0010
0000
1000
0000
,  // measure 52
0100
0100
0100
0000
,  // measure 53
0010
0000
0001
0000
,  // measure 54
1000
1000
1000
0000
,  // measure 55
0010
0000
1000
0000
,  // measure 56
0001
0001
0001
0000
,  // measure 57
0010
0000
0100
0000
,  // measure 58
0010
0010
0010
0000
,  // measure 59
0001
0000
0100
0000
,  // measure 60
0001
0001
0001
0000
,  // measure 61
0010
0000
1000
0000
,  // measure 62
0010
0010
0010
0000
,  // measure 63
0100
0000
0001
0000
,  // measure 64
1000
1000
1000
0000
,  // measure 65
0100
0000
0010
0000
,  // measure 66
0100
0100
0100
0000
,  // measure 67
1000
0000
0001
0000
,  // measure 68
0010
0010
0010
0000
,  // measure 69
0001
0000
1000
0000
,  // measure 70
0100
0100
0100
0000
,  // measure 71
1000
0000
0001
0000
,  // measure 72
1000
0000
0010
0000
,  // measure 73
0100
0000
0001
0000
,  // measure 74
1000
1000
1000
0000
,  // measure 75
0001
0000
1000
0000
,  // measure 76
0010
0000
1000
0000
,  // measure 77
0100
0000
0010
0000
,  // measure 78
0001
0000
1001
0000
,  // measure 79
0110
0000
0100
0000
,  // measure 80
0010
0000
1000
0000
,  // measure 81
0100
0000
0010
0000
,  // measure 82
0001
0000
1000
0000
,  // measure 83
0010
0000
0010
0000
,  // measure 84
1000
1000
1000
0000
,  // measure 85
0001
0000
0001
0000
,  // measure 86
0010
0010
0010
0000
,  // measure 87
0001
0000
0100
0000
,  // measure 88
0001
0001
0001
0000
,  // measure 89
1000
0000
0001
0000
,  // measure 90
0100
0100
0100
0100
;
