#VERSION:0.83;
#TITLE:Chase the shadow (2021 rework);
#SUBTITLE:;
#ARTIST:Kagetora.;
#TITLETRANSLIT:;
#SUBTITLETRANSLIT:;
#ARTISTTRANSLIT:;
#GENRE:;
#CREDIT:;
#MUSIC:Chase the shadow (2021 rework).ogg;
#BANNER:Chase the shadow (2021 rework)-bn.png;
#BACKGROUND:Chase the shadow (2021 rework)-bg.png;
#CDTITLE:;
#SAMPLESTART:88.800;
#SAMPLELENGTH:20.000;
#SELECTABLE:YES;
#OFFSET:0.000;
#BPMS:0.000=175.000;
#STOPS:;
#BGCHANGES:;
#FGCHANGES:;

//--------------- dance-single - ----------------
#NOTEDATA:;
#STEPSTYPE:dance-single;
#DESCRIPTION:;
#DIFFICULTY:Beginner;
#METER:4;
#RADARVALUES:0,0,0,0,0;
#NOTES:
0000
0000
0000
0000
,
0000
0000
0000
0000
,
0000
0000
0000
0000
,
0000
0000
0000
0000
,
0000
0000
0000
0000
,
0001
0000
1000
0000
,
0010
0000
0100
0000
,
0010
0000
1000
0000
,
1001
0000
0000
0000
,
0002
0000
0003
0000
,
0200
0000
0300
0000
,
0020
0000
0030
0000
,
2000
0000
3000
0000
,
0100
0000
0010
0000
,
0001
0000
1000
0000
,
0010
0000
0100
0000
,
0110
0000
0000
0000
,
1001
0000
0100
0000
,
0010
0000
1000
0000
,
0001
0000
0000
0000
,
0010
0000
0010
0000
,
0110
0000
0100
0000
,
0010
0000
0001
0000
,
1000
0000
1000
0000
,
0010
0000
0100
0000
,
1001
0000
0000
0000
,
1000
0000
0001
0000
,
0110
0000
0000
0000
,
0010
0000
0100
0000
,
2000
0000
3000
0000
,
0002
0000
0003
0000
,
0200
0000
0300
0000
,
0020
0000
0030
0000
,
1000
0000
0001
0000
,
1000
0000
0001
0000
,
0010
0000
0100
0000
,
0010
0000
0100
0000
,
1000
0000
1000
0000
,
0001
0000
0001
0000
,
0010
0000
0100
0000
,
1000
0000
0000
0000
,
0010
0000
0100
0000
,
0010
0000
0100
0000
,
0001
0000
1000
0000
,
0001
0000
1000
0000
,
0100
0000
0100
0000
,
0010
0000
0010
0000
,
0001
0000
0100
0000
,
1000
0000
0000
0000
,
1001
0000
0000
0000
,
0000
0000
0000
0000
,
0000
0000
0000
0000
,
0000
0000
0000
0000
,
0000
0000
0010
0000
,
0000
0000
0010
0000
,
0000
0000
1000
0000
,
0000
0000
1000
0000
,
0000
0000
0001
0000
,
0000
0000
0001
0000
,
0100
0000
0010
0000
,
0110
0000
0000
0000
,
0010
0000
0010
0000
,
1000
0000
0001
0000
,
1000
0000
0100
0000
,
1001
0000
0000
0000
,
0001
0000
1000
0000
,
0010
0000
1000
0000
,
0100
0000
0010
0000
,
0001
0000
0100
0000
,
0001
0000
0010
0000
,
0100
0000
1000
0000
,
0100
0000
0001
0000
,
0110
0000
0000
0000
,
1000
0000
1000
0000
,
1000
0000
0100
0000
,
0010
0000
0001
0000
,
0100
0000
0010
0000
,
0100
0000
0001
0000
,
1000
0000
0001
0000
,
0010
0000
0010
0000
,
0010
0000
0000
0000
,
0001
0000
0001
0000
,
1000
0000
1000
0000
,
2002
0000
0000
0000
,
0000
0000
0000
3003
;

//--------------- dance-single - ----------------
#NOTEDATA:;
#STEPSTYPE:dance-single;
#DESCRIPTION:;
#DIFFICULTY:Easy;
#METER:7;
#RADARVALUES:0,0,0,0,0;
#NOTES:
0000
0000
0000
0000
,
0000
0000
0000
0000
,
0000
0000
0000
0000
,
0000
0000
0000
0000
,
0000
0000
0000
0000
,
0001
0010
0001
1000
,
0100
0010
0100
1000
,
0010
0100
0001
1000
,
2002
0000
0000
3003
,
0001
0010
1000
0000
,
0010
0100
0001
0000
,
1000
0010
0100
0000
,
0001
1000
0100
0000
,
0010
1000
0100
1000
,
0001
0010
0001
0100
,
0001
0010
0100
1000
,
0220
0000
0000
0330
,
1100
0000
0001
1000
,
0010
0010
1000
0001
,
0010
0100
0010
0001
,
0100
0010
1000
1000
,
0101
0000
0100
0010
,
1000
1000
0001
0010
,
0001
0100
0010
1000
,
0100
0010
0001
0000
,
0022
0033
1000
1010
,
0100
0010
0100
1000
,
0010
1000
0100
0010
,
0001
0100
1000
0001
,
0010
0010
0010
1001
,
0100
0100
0100
1001
,
0010
1000
0100
0001
,
0020
0000
0000
0030
,
0001
0100
1000
1100
,
0010
1000
0100
0011
,
0100
0001
0010
0110
,
1000
0001
0010
1001
,
0100
0010
1000
1010
,
0001
0010
0100
1100
,
0010
1001
1000
0001
,
0101
0001
0100
1000
,
0010
0100
0001
0110
,
1000
0001
0100
1010
,
0010
1000
0100
1001
,
1000
0100
0001
0011
,
0100
0001
1000
0101
,
0010
1000
0001
1100
,
0100
0110
0010
0001
,
0101
0000
0000
0000
,
2002
0000
0000
0000
,
0000
0000
0000
0000
,
0000
0000
0000
0000
,
0000
0000
0000
3003
,
0010
0000
0100
0000
,
0010
0000
1000
0000
,
0100
0000
0010
0000
,
0001
0000
0100
0000
,
0001
0010
0001
0000
,
1000
0010
1000
0000
,
0100
0000
0010
0000
,
0220
0000
0000
0330
,
0001
0001
0001
0100
,
1000
1000
1000
0010
,
0100
0100
0010
0010
,
1000
0001
1000
0110
,
0001
0010
1000
0100
,
0010
0001
0100
0010
,
0100
0001
0010
1000
,
0100
1000
0001
1000
,
0010
0100
0010
1000
,
0100
0010
0001
0100
,
0010
0100
0010
1000
,
0100
0010
0001
1100
,
0002
0000
2000
3003
,
0010
1000
0200
0300
,
0010
0001
0100
0010
,
1000
0001
2000
3000
,
0020
0000
0200
0330
,
0001
1000
0020
0030
,
1000
0100
0010
0001
,
0202
0000
0000
0303
,
1000
0001
0010
0100
,
1000
0010
0100
0001
,
2002
0000
0000
0000
,
0000
0000
0000
3003
;

//--------------- dance-single - ----------------
#NOTEDATA:;
#STEPSTYPE:dance-single;
#DESCRIPTION:;
#DIFFICULTY:Medium;
#METER:11;
#RADARVALUES:0,0,0,0,0;
#NOTES:
0000
0000
0000
0000
,
0000
0000
0000
0000
,
0000
0000
0000
0000
,
0000
0000
0000
0000
,
0000
0000
0000
0000
,
1000
0100
0010
0000
0001
0100
1000
0000
,
0010
1000
0001
0000
0010
0001
0100
0000
,
0001
0000
0000
1000
0000
0000
0001
0000
0000
1000
0000
0000
0001
0000
0000
0000
,
2002
0000
0000
3003
,
0001
0100
0000
0001
1000
0100
0000
0000
,
1000
0010
0000
1000
0001
0010
0000
0000
,
0100
0010
0000
0100
1000
0010
0000
0000
,
0010
0100
0000
0001
0100
0010
0000
0000
,
1000
0000
1100
0000
0001
0100
0010
0000
,
0001
0000
0101
0000
1000
0010
0100
0000
,
0001
0010
1000
0000
0001
1000
0100
0000
,
0220
0000
0000
0330
,
0022
0000
0033
0001
1000
0000
0100
0010
,
0001
1001
0110
0101
,
2000
0000
3002
0000
0103
0010
1000
0001
,
1000
0100
0001
0000
0011
0000
1100
0000
,
2020
0000
3030
0001
1000
0000
0010
0100
,
0010
0110
0101
1010
,
1000
0001
0010
0100
1000
0000
1100
0000
,
0010
1000
0100
0000
0001
1000
0010
0000
,
0202
0000
0300
0000
0010
0000
1003
0001
,
0100
1010
1001
0011
,
0020
0000
0230
0000
1300
0010
1000
0001
,
0010
0100
1000
0000
1100
0000
0101
0000
,
0010
0000
0000
0010
0000
0000
0010
0000
0000
0010
0000
0000
1001
0000
0000
0000
,
0010
0000
0000
0010
0000
0000
0010
0000
0000
0010
0000
0000
1001
0000
0000
0000
,
1000
0100
0010
0001
0100
0010
1000
0000
,
0110
1001
0110
1001
,
0020
0000
0000
0230
0000
0000
0301
0000
0010
0000
1000
0000
,
0002
0000
0000
0203
0000
0000
0310
0000
1000
0000
0001
0000
,
2000
0000
0000
3200
0000
0000
0310
0000
0001
0000
0100
0000
,
0002
0000
0000
2003
0000
0000
3100
0000
1000
0000
0010
0000
,
0200
0000
0000
0302
0000
0000
0013
0000
0100
0000
1000
0000
,
0002
0000
0000
0023
0000
0000
0031
0000
1000
0000
0100
0000
,
1000
0000
1000
0000
1000
0000
0001
0000
0001
0000
0001
0000
,
0100
1010
0101
1100
,
0002
0000
0000
0023
0000
0000
0130
0000
1000
0000
0100
0000
,
0020
0000
0000
0230
0000
0000
1300
0000
0001
0000
1000
0000
,
0020
0000
0000
2030
0000
0000
3001
0000
0100
0000
0010
0000
,
0200
0000
0000
0302
0000
0000
1003
0000
0001
0000
0010
0000
,
0002
0000
0000
0203
0000
0000
0310
0000
1000
0000
0100
0000
,
2000
0000
0000
3002
0000
0000
0103
0000
0010
0000
1000
0000
,
0010
0000
0010
0000
0010
0000
0100
0000
0100
0000
0100
0000
,
0001
0000
0000
0010
0000
0000
0100
0000
1000
0000
0000
0000
0011
0000
0000
0000
,
2002
0000
0000
0000
,
0000
0000
0000
0000
,
0000
0000
0000
0000
,
0000
0000
0000
0000
3003
0000
1000
0001
,
1000
0010
0100
0001
,
0010
0100
1000
0010
,
0100
0010
1000
0100
,
0001
0010
1000
0100
,
1000
0010
0100
0001
,
0010
0100
1000
0001
,
0100
0010
1000
0001
,
0101
0000
0000
0000
0000
0000
1000
0001
,
0010
0000
1100
0000
0001
0100
1000
0000
,
0100
0000
0011
0000
1000
0010
0001
0000
,
0100
0010
1000
0000
0001
0010
0100
0000
,
0110
0000
1001
0000
0110
0000
0001
1000
,
0002
0000
0013
0100
1000
0000
0010
1000
,
0100
0000
1001
0000
0010
1000
0001
0000
,
0010
0100
1000
0010
0100
0001
1000
0000
,
0020
0000
0130
0001
1000
0010
0100
0000
,
0002
0000
0013
0001
0100
0000
0010
1000
,
0010
0000
0101
0000
1000
0001
0100
0000
,
0010
0100
0010
1000
0100
0010
0001
0000
,
0100
0000
0000
0010
0000
0000
0100
0000
0000
0010
0000
0000
0100
0000
0000
0000
,
2020
3030
0202
0303
,
1000
0100
0001
0100
2000
0000
3000
0000
,
0002
0000
0000
2003
0000
0000
3020
0000
,
2030
0000
0000
3200
0000
0000
0300
0000
,
0022
0033
2200
3300
,
0001
0100
1000
0100
0002
0000
0003
0000
,
2000
0000
0000
3020
0000
0000
0230
0000
,
0002
0000
0000
0000
0303
0000
0010
0001
,
0100
0000
0100
0000
0001
0010
0100
1000
,
0000
1100
0000
0101
0000
0011
0000
2001
,
0000
0001
0001
0001
,
0001
0001
0001
3001
;

//--------------- dance-single - ----------------
#NOTEDATA:;
#STEPSTYPE:dance-single;
#DESCRIPTION:;
#DIFFICULTY:Hard;
#METER:13;
#RADARVALUES:0,0,0,0,0;
#NOTES:
0000
0000
0000
0000
,
0000
0000
0000
0000
,
0000
0000
0000
0000
,
0000
0000
0000
0000
,
0000
0000
0000
0000
,
1000
0010
0100
1000
0100
0001
0010
0100
,
0001
0100
0010
1000
0010
0100
0010
0001
,
2000
0000
0000
3020
0000
0000
0230
0000
0000
0302
0000
0000
1003
0000
0000
0000
,
2002
0000
0000
3003
,
1000
0010
0100
0001
0010
0100
1000
0000
,
0001
0100
0010
1000
0001
0010
0100
0000
,
1000
0001
0010
0001
0100
0010
1000
0000
,
0001
0010
1000
0100
1000
0001
0010
0000
,
0001
0000
0000
1000
0000
0000
0100
0000
1000
0000
0000
0010
0000
0000
0100
0000
,
0001
0000
0000
0010
0000
0000
1000
0000
0100
0000
0000
0010
0000
0000
0001
0000
,
0100
1000
0100
0001
1000
0010
0001
0010
,
0220
0000
0000
0330
,
0202
0000
0000
0000
0303
0000
1000
0000
1000
0000
0000
0001
0000
0100
0000
0000
,
0110
1010
1100
0101
,
2000
0000
0000
3020
0000
0000
2030
0000
0000
3002
0000
0000
0013
0000
0100
0000
,
1000
0010
0001
0010
0100
0010
0001
0010
,
2000
0000
0000
0000
3000
0000
0001
0000
0001
0000
0000
0010
0000
0100
0000
0000
,
1100
1001
0011
0110
,
1000
0000
0001
0000
0100
0000
0010
0000
0001
0000
0010
1000
0000
1000
0100
0000
,
1000
0000
0001
0000
0010
0000
0100
0000
1000
0000
0001
0000
0100
0010
0100
0000
,
2020
0000
3030
0000
1001
0000
0100
0010
,
0110
1010
1100
0101
,
0020
0000
0000
0032
0000
0000
2003
0000
0000
3200
0000
0000
0310
0000
0100
0000
,
1000
0010
0001
0010
0100
1000
0100
0000
,
0001
0000
0000
0010
0000
0000
0100
0000
0000
1000
0000
0000
0010
0000
0100
0000
,
0010
0000
0000
1000
0000
0000
0100
0000
0000
0010
0000
0000
0001
0000
0100
0000
,
0010
0000
0000
0000
0000
0000
1000
0000
0000
0000
0000
0000
1000
0000
0000
0000
0000
0000
1000
0000
0000
0000
0000
0000
0100
0000
0000
0010
0000
0000
0001
0000
0000
0000
0000
0000
1000
0000
0000
0000
0001
0000
0000
0000
1000
0000
0000
0000
,
0001
1001
0110
1001
,
0020
0000
0000
1030
0100
1000
0100
0000
0010
0000
0001
0000
,
0200
0000
0000
0301
1000
0001
1000
0000
0010
0000
0100
0000
,
0002
0000
0000
0013
0100
0010
0100
0000
1000
0000
0001
1000
,
0002
0000
0000
0103
0001
0100
0001
0000
1000
0000
0010
1000
,
0020
0000
0000
0130
0001
0100
0001
0000
1000
0000
1000
0000
,
2000
0000
0000
3100
0010
0100
0010
0000
0001
0000
0001
0000
,
0100
0000
0010
0000
1000
0000
0001
0010
0001
0100
0010
1000
,
0001
0000
0000
0011
0000
0000
1100
0000
0000
1000
0010
0100
,
0002
0000
0000
0013
0100
0010
0100
0000
1000
0000
0001
0000
,
0200
0000
0000
0310
0100
0001
1000
0000
1000
0000
0010
0000
,
2000
0000
0000
3001
0010
0001
0010
0000
0100
0000
1000
0100
,
2000
0000
0000
3010
1000
0010
0100
0000
0001
0000
0001
0100
,
0020
0000
0000
1030
0100
0010
0001
0000
0001
0000
0001
0000
,
0200
0000
0000
0301
0010
0100
1000
0000
1000
0000
1000
0000
,
0010
0000
0100
0000
0001
0000
1000
0100
1000
0100
0010
0001
,
1000
0000
0000
1000
0000
0000
0001
0000
0200
0000
0000
0000
0301
0000
0010
0000
,
1001
0000
0000
0000
,
0000
0000
0000
0000
,
0000
0000
0000
0000
,
0000
0000
0000
0000
0000
0000
0000
0000
0000
0000
0000
0000
1000
0001
1000
0001
,
1000
0000
0000
0000
1100
0000
0000
0000
0000
0000
0001
0000
0000
1000
0000
0000
,
0010
0000
0000
0000
1000
0100
0001
0100
,
1000
0000
0000
0010
0000
0000
0100
0000
,
0000
0001
0000
0000
0010
0000
0000
0000
,
0001
0100
0001
1000
0000
1000
0100
0010
,
0000
0011
0000
0110
0000
0000
1000
0001
,
0010
0000
0000
0001
0000
0000
0100
0010
,
1010
0000
0000
0000
1000
0000
0100
0000
0001
0000
0000
0000
1000
0010
1000
0010
,
1000
0001
0010
1000
0010
0001
0200
0000
,
0310
0001
0010
1000
0100
0010
0002
0000
,
1003
0001
1000
0100
0010
0001
0100
0010
,
1000
0000
0000
0000
1100
0000
0000
0000
0101
0000
0000
0000
0001
1000
0001
1000
,
0001
0000
0000
0010
0000
0000
0100
0000
1000
0000
0001
0000
1000
0000
0010
0000
,
0100
0000
0000
0010
0000
0000
1000
0000
0001
0000
0010
0000
0001
0000
0100
0000
,
0010
0001
0010
0100
1000
0100
0001
1000
,
0200
0000
0310
0100
1000
0001
1000
0010
,
0100
0000
0000
0001
0000
0000
1000
0000
0010
0000
0100
0000
0010
0000
1000
0000
,
0001
0000
0000
1000
0000
0000
0010
0000
0100
0000
1000
0000
0100
0000
0010
0000
,
1000
0001
0010
1000
0010
0100
0010
0001
,
1000
0000
0000
0001
0000
0000
0010
0000
0000
0001
0000
0000
0100
0000
0000
0000
,
2002
0000
0000
0000
3003
0000
1000
0100
2000
0000
0000
0000
3000
0000
0001
0100
,
0001
0010
1000
0010
0002
0000
0103
0010
,
2000
0000
3001
0010
0001
1000
0100
0000
,
0020
0000
0031
0100
0010
1000
0001
0000
,
0020
0000
0000
0000
0030
0000
0001
0100
0002
0000
0000
0000
0003
0000
1000
0100
,
1000
0001
0010
0200
0000
2300
0001
0000
,
3010
1000
0100
0010
0001
0100
1000
0000
,
0220
0000
0000
0000
0000
0000
0000
0000
0330
0000
0000
0000
0010
0100
0010
0100
,
0001
0010
1000
0010
0100
1000
0001
0011
,
0000
1100
0000
1001
0000
0101
0000
2010
,
0000
0001
0001
0001
,
0001
0001
0001
3001
;
