#TITLE:CROSS;
#SUBTITLE:;
#ARTIST:TeddyLoid;
#TITLETRANSLIT:;
#SUBTITLETRANSLIT:;
#ARTISTTRANSLIT:;
#GENRE:;
#CREDIT:;
#BANNER:CROSS.png;
#BACKGROUND:;
#LYRICSPATH:;
#CDTITLE:;
#MUSIC:CROSS.ogg;
#OFFSET:0.000000;
#SAMPLESTART:52.835999;
#SAMPLELENGTH:20.000000;
#SELECTABLE:YES;
#BPMS:0.000000=150.000000
;
#STOPS:
;
#BGCHANGES:;
#KEYSOUNDS:;
#ATTACKS:;

//---------------dance-single - ----------------
#NOTES:
     dance-single:
     :
     Beginner:
     1:
     0.078928,0.147181,0.018115,0.117745,0.000000,61.000000,59.000000,2.000000,13.000000,0.000000,0.000000,0.078928,0.147181,0.018115,0.117745,0.000000,61.000000,59.000000,2.000000,13.000000,0.000000,0.000000:
0000
0000
0000
0000
,
0000
0000
0000
0000
,
0000
0000
0000
0000
,
0000
0000
0000
0000
,
0000
0000
0000
0000
,
0001
0000
0000
0000
,
0001
0000
0000
0000
,
0001
0000
0000
0000
,
0000
0000
0000
0000
,
2000
0000
0000
0000
,
3000
0000
0000
0000
,
2000
0000
0000
0000
,
3000
0000
0000
0000
,
0002
0000
0000
0000
,
0003
0000
0000
0000
,
0002
0000
0000
0000
,
0003
0000
0000
0000
,
0001
0000
0010
0000
,
0001
0000
0000
0000
,
0001
0000
0100
0000
,
0001
0000
0000
0000
,
0001
0000
0010
0000
,
0001
0000
0000
0000
,
0002
0000
0000
0000
,
0003
0000
0000
0000
,
1000
0000
0010
0000
,
1000
0000
0000
0000
,
1000
0000
0100
0000
,
1000
0000
0000
0000
,
1000
0000
0010
0000
,
1000
0000
0000
0000
,
2000
0000
0000
0000
,
3000
0000
0000
0000
,
2000
0000
0000
0000
,
3000
0000
0000
0000
,
2000
0000
0000
0000
,
3000
0000
0000
0000
,
0002
0000
0000
0000
,
0003
0000
0000
0000
,
0002
0000
0000
0000
,
0003
0000
0000
0000
,
0001
0000
0001
0000
,
0001
0000
0000
0000
,
0001
0000
0100
0000
,
0001
0000
0000
0000
,
0002
0000
0000
0000
,
0003
0000
0000
0000
,
0002
0000
0000
0000
,
0003
0000
0000
0000
,
1001
0000
0000
0000
,
0000
0000
0000
0000
,
1000
0000
0000
0000
,
1000
0000
0000
0000
,
1000
0000
0100
0000
,
1000
0000
0000
0000
,
2000
0000
0000
0000
,
3000
0000
0000
0000
,
0001
0000
0001
0000
,
0010
0000
0000
0000
,
0001
0000
0001
0000
,
0100
0000
0000
0000
,
0001
0000
0001
0000
,
0010
0000
0000
0000
,
0001
0000
0001
0000
,
0100
0000
0000
0000
,
1001
0000
0000
0000
,
0000
0000
0000
0000
;

//---------------dance-single - ----------------
#NOTES:
     dance-single:
     :
     Easy:
     5:
     0.214788,0.273078,0.090573,0.208318,0.000000,166.000000,156.000000,10.000000,23.000000,0.000000,0.000000,0.214788,0.273078,0.090573,0.208318,0.000000,166.000000,156.000000,10.000000,23.000000,0.000000,0.000000:
0000
0000
0000
0000
,
0000
0000
0000
0000
,
0000
0000
0000
0000
,
0000
0000
0000
0000
,
0000
0000
0000
0000
,
0001
0010
0001
1000
,
0100
0010
0001
0000
,
1000
0010
1000
0001
,
0100
0010
1000
0000
,
0002
0000
0000
0003
,
0020
0000
0000
0030
,
0200
0000
0000
0300
,
2000
0000
0000
3000
,
0001
0100
0001
0010
,
0001
0100
0001
0000
,
1000
0010
1000
0100
,
0020
0000
0030
1001
,
0001
0100
0001
0100
,
0010
0100
0001
0000
,
1000
0100
1000
0100
,
0010
0100
1000
0000
,
0010
1000
0010
1000
,
0010
0100
0010
0000
,
0100
0001
0100
0001
,
0100
0010
0100
0000
,
0001
1000
1001
0000
,
0000
0100
0110
0000
,
1000
0001
1001
0000
,
0000
0010
0110
0000
,
0001
0100
0110
0000
,
0000
1000
1001
0000
,
1000
0100
0110
0000
,
0002
0000
0000
0003
,
1000
0000
0100
0000
,
1000
0100
1000
0000
,
0010
0000
0100
0000
,
0010
0100
0010
0000
,
0100
0000
0001
0000
,
0100
0001
0100
0000
,
0001
0000
0010
0000
,
0100
0010
0100
0000
,
0002
0003
2000
3000
,
0200
0300
0020
0030
,
0002
0000
0000
0003
,
2000
0000
0000
3000
,
2000
3000
0002
0003
,
0200
0300
0020
0030
,
2000
0000
0000
3000
,
0002
0000
0000
0003
,
0220
0000
0000
0000
,
0000
0000
0000
0330
,
0001
0010
1000
0010
,
0001
1000
0001
0000
,
1000
0010
0001
0010
,
1000
0001
1000
0000
,
0100
0010
0001
0100
,
0020
0000
0000
0030
,
1000
1000
0001
0000
,
1000
1000
0001
0000
,
0010
0010
0100
0000
,
0010
0010
0100
0000
,
0001
0001
1000
0000
,
0001
0001
1000
0000
,
0001
1000
0001
1000
,
0100
0010
0100
0000
,
0220
0000
0000
0000
,
0000
0000
0000
0000
,
0330
0000
0000
0000
,
0000
0000
0000
0000
;

//---------------dance-single - ----------------
#NOTES:
     dance-single:
     :
     Medium:
     10:
     0.451572,0.515814,0.271719,0.108688,0.000000,349.000000,319.000000,30.000000,12.000000,0.000000,0.000000,0.451572,0.515814,0.271719,0.108688,0.000000,349.000000,319.000000,30.000000,12.000000,0.000000,0.000000:
0000
0000
0000
0000
,
0000
0000
0000
0000
,
0000
0000
0000
0000
,
0000
0000
0000
0000
,
0000
0000
0000
0000
,
0001
0100
0010
0000
1001
0000
0000
1001
,
0000
1000
0010
0000
0010
0100
0010
0000
,
1000
0100
0010
0000
0110
0000
0000
0110
,
0000
0100
1000
0000
0001
0010
0001
0000
,
2000
0000
3002
0000
,
0203
0000
0320
0000
,
2030
0000
0000
0000
3000
0000
0001
0100
,
0000
0000
0001
0010
0000
0000
0001
0100
,
0010
0000
0010
0000
1000
0100
1000
0000
,
0010
0000
0010
0000
0001
0100
0001
0000
,
1000
0100
0001
0000
0001
0100
1000
0000
,
0010
0010
0010
1001
,
0001
0010
0001
0000
0001
0100
0001
0000
,
1000
0010
1000
0010
1000
0100
1000
0000
,
0010
1000
0010
0000
0010
0100
0010
0000
,
0100
0001
0100
0001
0100
0010
0100
0000
,
0001
0010
0100
0000
1000
0100
0010
0000
,
0001
0010
0100
1000
0100
0010
0001
0000
,
1000
0010
0100
0000
0001
0100
0010
0000
,
1000
0010
0100
0001
0100
0000
1001
0000
,
0010
0110
0100
0110
,
0010
0110
0100
1001
,
0001
1001
1000
1001
,
0001
1001
1000
0110
,
1000
1001
1000
1010
,
1000
1100
1000
1001
,
0001
1001
0001
0011
,
0001
0100
0101
0000
,
0010
1000
0010
0000
1000
0100
0010
0001
,
0000
0010
0001
0000
0100
0010
1000
0010
,
0000
1000
0010
0000
1000
0001
1000
0001
,
0000
0100
0001
0100
0001
1000
0001
0000
,
0100
0001
0100
0000
0001
0010
0100
1000
,
0000
0100
1000
0010
0100
0001
0100
0000
,
0001
0100
0001
0000
1000
0100
1000
0100
,
0000
1000
0010
1000
0001
1000
0001
0000
,
0002
1000
0203
0010
,
0302
0010
2003
0100
,
3020
0000
1000
0000
0130
0000
0001
0100
,
0000
0000
0001
1000
0000
0000
0001
0010
,
0001
0000
0001
0000
0100
0010
0100
0000
,
1000
0000
1000
0000
0100
0010
0100
0000
,
0001
0010
0001
0000
1000
0010
1000
0000
,
0010
0010
0010
1001
,
0001
1000
0001
1000
0001
1000
0001
0000
,
1000
0001
1000
0001
1000
0000
1001
0000
,
0010
1000
0100
0000
0010
0001
0100
0000
,
0010
0100
0010
0000
0010
0100
0000
0100
,
0001
1000
0010
0000
1000
0001
0010
0000
,
0001
1000
0010
0000
1000
0001
0010
0000
,
0001
0010
0001
0000
0001
1000
0000
1000
,
0001
0100
0001
0100
0001
1000
0000
1000
,
0001
0100
0010
0000
0000
1001
0000
0000
,
1001
0000
1001
0000
0100
0010
0000
0010
,
1000
0001
1000
0000
0000
0110
0000
0000
,
0110
0000
0110
0000
0001
1000
0010
0000
,
1000
0100
1000
0100
0010
0100
0010
0001
,
0100
0001
0100
0001
0100
0010
1000
0010
,
1000
0100
0010
0001
1000
0100
0010
0001
,
1000
0000
0001
0000
0001
0100
0010
0000
,
2002
0000
0000
0000
,
0000
0000
0000
0000
,
3003
0000
0000
0000
,
0000
0000
0000
0000
;

//---------------dance-single - ----------------
#NOTES:
     dance-single:
     :
     Hard:
     13:
     0.619779,0.819234,0.289834,0.208318,0.190204,479.000000,447.000000,32.000000,23.000000,0.000000,0.000000,0.619779,0.819234,0.289834,0.208318,0.190204,479.000000,447.000000,32.000000,23.000000,0.000000,0.000000:
0000
0000
0000
0000
,
0000
0000
0000
0000
,
0000
0000
0000
0000
,
0000
0000
0000
0000
,
0000
0000
0000
0000
,
0001
1000
0001
0010
0100
1000
0010
1000
,
0100
0010
0001
1000
0100
0010
0001
1000
,
0010
0100
0010
1000
0001
0010
0100
0010
,
0100
1000
0010
0100
0001
0010
0200
0000
,
0320
0000
0032
0000
,
2003
0000
3200
0000
,
2300
0000
0000
0000
0000
0000
3010
0200
,
0000
0000
0301
0020
0000
0000
0130
1000
,
0001
1000
0001
1000
0100
0010
0100
0010
,
0001
1000
0001
1000
0010
0100
0010
0100
,
0001
0000
0100
0000
0001
1000
0001
0000
0010
0000
0001
0000
1000
0000
0001
0000
,
1000
0100
0010
1001
,
0010
0100
1000
0100
0010
0100
1000
0100
,
0010
0000
0001
0000
0100
0000
0010
0100
0010
0000
0100
0000
0001
0000
0010
0000
,
0001
0000
0100
0000
0010
1000
0010
0000
0100
0000
0010
0000
1000
0000
0010
0000
,
1000
0100
0001
0100
1000
0002
0000
1003
,
0100
0010
0100
0010
0001
0000
0010
0000
0100
0000
0010
0000
0001
0000
0010
0000
,
0100
0000
1000
0000
0001
0000
1000
0100
1000
0000
0001
0000
1000
0000
0100
0000
,
0010
0000
0001
0000
0010
0100
0010
0000
0001
0000
0100
0000
0010
0000
0100
0000
,
0001
0100
1000
0100
0010
0100
1001
0000
,
1000
0000
0001
0000
0100
0000
0001
0010
0001
0000
0001
0100
0001
0000
1000
0000
,
0010
0000
1000
0000
0100
0000
1000
0100
1000
0000
1000
0010
1000
0000
0100
0000
,
0010
0000
0001
0000
1000
0001
1000
0000
0010
0000
0100
0010
0100
0000
0001
0000
,
1000
0100
1000
0000
0010
0000
0100
0000
0001
0000
0020
0000
0000
0000
0031
0000
,
1000
0000
0001
0000
0100
0000
0010
1000
0010
0000
0010
0100
0010
0000
1000
0000
,
0001
0000
0100
0000
0001
0000
0100
0010
0100
0000
0100
0001
0100
0000
0001
0000
,
1000
0000
0010
0000
0100
0000
0001
0010
0001
0000
0100
0010
0100
0010
0100
0000
,
0001
0010
1000
0000
1000
0020
0000
1030
,
0010
0001
1000
0100
0010
0001
0010
0110
,
0000
0100
1000
0001
0100
0010
0100
0101
,
0000
0001
1000
0100
1100
0001
0100
0110
,
0000
0010
1000
0100
0010
0001
0010
0001
,
0100
0010
1000
0010
1010
0100
0001
1001
,
0000
0100
0010
0001
1001
1000
0010
1000
,
1001
0010
0001
0100
0101
1000
0010
1010
,
0000
1000
0001
0010
0110
0100
1000
0000
,
0002
0000
0023
0000
,
0230
0000
2300
0000
,
3002
0000
0000
0000
0000
0000
0013
0002
,
0000
0000
0103
0020
0000
0000
1030
0100
,
0010
0001
0010
0001
0100
0001
0100
1000
,
0010
1000
0010
1000
0010
0001
0010
0001
,
1000
0010
1000
0000
0010
1000
0010
0000
0100
0001
0100
0000
0001
0100
0001
0000
,
1000
0100
0010
1001
,
0110
0000
1000
0000
0001
0000
0010
0100
0010
0000
0100
0000
1000
0000
0010
0100
,
0010
0000
0100
0000
0001
0000
1000
0100
0010
0000
0001
0000
1001
0000
0000
0000
,
1001
0000
0001
0000
1000
0100
1000
0000
0010
0000
0100
0000
0001
0000
0100
0000
,
0001
0010
0110
0000
0100
2000
0000
3100
,
1000
0001
1000
0001
1000
0000
0100
0000
0010
0000
0100
0000
1000
0000
0010
0000
,
1000
0001
1000
0000
0001
1000
0002
0000
,
0103
0000
0001
0000
1000
0010
1000
0000
0100
0000
0110
0000
0000
0000
0100
0000
,
1000
0000
0010
0000
0100
0001
0100
0000
0010
1000
0010
0000
1001
0000
0000
0000
,
0010
0000
0100
0000
1001
0000
0000
0000
0001
0000
1000
0100
1000
0000
0100
0000
,
0010
0000
0100
0000
1001
0000
0000
0000
0001
0000
1000
0010
1000
0000
0010
0000
,
1000
0000
0001
0000
0110
0000
0000
0000
0001
0000
0100
0001
0100
0000
0010
0000
,
1000
0001
0110
0000
1000
0200
0000
1300
,
0001
0000
0100
0000
1001
0000
0100
0010
0100
0000
1001
0000
0010
0000
1000
0000
,
1001
0000
0100
0000
1001
0000
0010
0100
0010
0000
1001
0000
0010
0000
1001
0000
,
1000
0100
0010
0000
1001
0000
0001
0100
0010
0000
1001
0000
0001
0000
1000
0001
,
1000
0010
0100
0000
0100
0020
1000
0000
,
0230
0000
0000
0000
,
0000
0000
0000
0000
,
0300
0000
0000
0000
,
0000
0000
0000
0000
;

//---------------dance-double - ----------------
#NOTES:
     dance-double:
     :
     Easy:
     5:
     0.234196,0.303420,0.036229,0.135860,0.000000,181.000000,177.000000,4.000000,15.000000,0.000000,0.000000,0.234196,0.303420,0.036229,0.135860,0.000000,181.000000,177.000000,4.000000,15.000000,0.000000,0.000000:
00000000
00000000
00000000
00000000
,
00000000
00000000
00000000
00000000
,
00000000
00000000
00000000
00000000
,
00000000
00000000
00000000
00000000
,
00000000
00000000
00000000
00000000
,
00000001
00000100
00000001
00000000
,
00001000
00000100
00001000
00000000
,
00000010
00000100
00000010
00010000
,
00001000
00010000
00001000
00000000
,
00200000
00000000
00000000
00300000
,
20000000
00000000
00000000
30000000
,
02000000
00000000
00000000
03000000
,
00020000
00000000
00000000
00030000
,
00001000
00001000
00000010
00000000
,
00000001
00000001
00000100
00000000
,
00001000
00010000
00001000
00010000
,
00011000
00000000
00000000
00000000
,
00010000
00100000
10000000
00100000
,
01000000
00001000
00010000
00000000
,
00000100
00000010
00000001
00000010
,
00000100
00010000
00001000
00000000
,
00010000
01000000
10000000
00100000
,
01000000
00001000
00010000
00000000
,
00001000
00000100
00000001
00000100
,
00000010
00010000
00001000
00000000
,
00010000
00010000
00010000
00000000
,
00100000
10000000
01000000
00000000
,
00010000
00010000
00010000
00000000
,
00001000
00000010
00000001
00000100
,
00001000
00001000
00001000
00000000
,
00000100
00000001
00000010
00000000
,
00001000
00001000
00001000
00000000
,
00010000
01000000
10000000
00010000
,
10000000
01000000
00100000
00000000
,
01000000
00100000
00010000
00000000
,
00100000
00001000
00010000
00000000
,
00001000
00010000
00000100
00000000
,
00001000
00000100
00000010
00000000
,
00000100
00000010
00000001
00000000
,
00000001
00000100
00001000
00000000
,
00000100
00001000
00010000
00000000
,
00200000
00300000
20000000
30000000
,
00020000
00030000
02000000
03000000
,
00002000
00000000
00000000
00003000
,
00020000
00000000
00000000
00030000
,
00000100
00000010
00000100
00000010
,
00000001
00000010
00000001
00000100
,
00001000
00010000
00001000
00010000
,
00002000
00000000
00000000
00003000
,
00022000
00000000
00000000
00000000
,
00000000
00000000
00000000
00033000
,
00010000
00100000
10000000
00100000
,
00010000
00001000
00000100
00000001
,
00000100
00001000
00010000
00001000
,
00000010
00000001
00000010
00001000
,
00010000
01000000
10000000
01000000
,
00010000
00001000
00011000
00000000
,
00000010
00000010
00000001
00000000
,
00000100
00000100
00000010
00000000
,
00010000
00010000
00001000
00000000
,
00100000
00100000
00010000
00000000
,
01000000
01000000
10000000
10000000
,
00010000
00010000
01000000
01000000
,
00001000
00001000
00010000
00010000
,
00000010
00001000
00000010
00000000
,
00000220
00000000
00000000
00000000
,
00000000
00000000
00000000
00000000
,
00000330
00000000
00000000
00000000
,
00000000
00000000
00000000
00000000
;

//---------------dance-double - ----------------
#NOTES:
     dance-double:
     :
     Medium:
     10:
     0.445102,0.546156,0.389465,0.172089,0.000000,344.000000,301.000000,43.000000,19.000000,0.000000,0.000000,0.445102,0.546156,0.389465,0.172089,0.000000,344.000000,301.000000,43.000000,19.000000,0.000000,0.000000:
00000000
00000000
00000000
00000000
,
00000000
00000000
00000000
00000000
,
00000000
00000000
00000000
00000000
,
00000000
00000000
00000000
00000000
,
00000000
00000000
00000000
00000000
,
10000000
00000000
00100000
00000000
01000000
00000000
00100000
00010000
,
00000000
00100000
00010000
00000000
00001000
00000100
00000001
00000000
,
00000001
00000000
00000010
00000000
00000100
00000000
00000010
00001000
,
00000000
00000010
00001000
00000000
00010000
01000000
10000000
00000000
,
20000000
00000000
32000000
00000000
,
03020000
00000000
00032000
00000000
,
00003020
00000000
00000000
00000000
00000030
00000000
00000001
00000100
,
00000000
00000000
00000001
00000010
00000000
00000000
00000100
00010000
,
00001000
00000000
00001000
00000000
00010000
00100000
00010000
00000000
,
00100000
00000000
00100000
00000000
10000000
01000000
10000000
00000000
,
00100000
00010000
01000000
00000000
00001000
00010000
00001000
00000000
,
00022000
00000000
00000000
00033000
,
00000100
00001000
00000100
00001000
00000100
00001000
00000100
00000000
,
00000010
00000001
00000010
00000001
00000010
00000001
00000010
00000000
,
00000100
00001000
00000100
00001000
00010000
00001000
00010000
00000000
,
00010000
00100000
00010000
00000000
00010000
00001000
00000000
00001000
,
00010000
01000000
00010000
01000000
00010000
01000000
00010000
00000000
,
10000000
00100000
10000000
00100000
10000000
00100000
10000000
00000000
,
00100000
00010000
00100000
00010000
00001000
00010000
00001000
00000000
,
00001000
00000010
00000001
00000000
00000001
00001000
00000000
00001000
,
00000001
00001001
00000110
00000110
,
00001001
00000101
00001100
00011000
,
00110000
00110000
10010000
10010000
,
01100000
01100000
11000000
01010000
,
00110000
00110000
00011000
00011000
,
00001100
00001100
00000110
00000110
,
00001001
00001001
00000110
00000110
,
00000001
00001000
00000001
00000000
00000001
00000100
00000000
00000100
,
00001000
00010000
00100000
00000000
10000000
00100000
10000000
00100000
,
00000000
10000000
01000000
00000000
10000000
01000000
00100000
00000000
,
00010000
01000000
00010000
00000000
01000000
00001000
01000000
00001000
,
00000000
00001000
00010000
00000000
00001000
00010000
00001000
00000000
,
00010000
00000100
00010000
00000000
00000100
00000010
00000100
00000010
,
00000000
00000010
00000001
00000000
00001000
00000001
00001000
00000000
,
00000001
00000100
00000001
00000000
00000100
00001000
00000100
00001000
,
00000000
00001000
00010000
00000000
00001000
00010000
00001000
00000000
,
00002000
00100000
02003000
00100000
,
03020000
10000000
00230000
01000000
,
00302000
00010000
00003200
00000010
,
00000302
00000010
00002003
00000001
,
00003010
00000000
00000010
00000000
00000100
00000001
00000100
00000000
,
00000010
00000000
00000010
00000000
00010000
00001000
00010000
00000000
,
00001000
01000000
00001000
01000000
00100000
01000000
00100000
01000000
,
00100000
00100000
00100000
00110000
,
00022000
00000000
00000000
00000000
,
00000000
00000000
00000000
00033000
,
00000010
00000001
00001000
00000000
00000001
00001000
00000000
00001000
,
00000010
00000100
00000010
00001000
00000100
00010000
00000000
00010000
,
00001000
00010000
00001000
00010000
00001000
00100000
00001000
01000000
,
00010000
01000000
00010000
00000000
00100000
01000000
00100000
00000000
,
00010000
10000000
01000000
10000000
01000000
00100000
01000000
00100000
,
00001000
00010000
00001000
00000000
00010000
00001000
00000000
00001000
,
00010000
00000000
00010100
00000000
00000000
00000110
00000000
00000000
,
00000011
00000000
00001001
00000000
00000100
00000010
00000000
00000010
,
00010000
00000000
00101000
00000000
00000000
01100000
00000000
00000000
,
11000000
00000000
10010000
00000000
10000000
00100000
00000000
00100000
,
00010000
00000000
00011000
00000000
00000000
00000110
00000000
00000000
,
00001100
00000000
00001001
00000000
00000001
00000010
00000000
00000010
,
00001000
00010000
00001000
00000000
00010000
01000000
00010000
00000000
,
01000000
10000000
01000000
00000000
10000000
00100000
00010000
00000000
,
00022000
00000000
00000000
00000000
,
00000000
00000000
00000000
00000000
,
00033000
00000000
00000000
00000000
,
00000000
00000000
00000000
00000000
;

//---------------dance-double - ----------------
#NOTES:
     dance-double:
     :
     Hard:
     14:
     0.591313,0.819234,0.244548,0.199261,0.176618,457.000000,430.000000,27.000000,22.000000,0.000000,0.000000,0.591313,0.819234,0.244548,0.199261,0.176618,457.000000,430.000000,27.000000,22.000000,0.000000,0.000000:
00000000
00000000
00000000
00000000
,
00000000
00000000
00000000
00000000
,
00000000
00000000
00000000
00000000
,
00000000
00000000
00000000
00000000
,
00000000
00000000
00000000
00000000
,
10000000
01000000
10000000
01000000
00100000
00010000
01000000
00100000
,
01000000
00010000
00100000
00001000
00010000
00000100
00001000
00000100
,
00000010
00000100
00001000
00000010
00000100
00000001
00000100
00000001
,
00000010
00000100
00001000
00000100
00010000
00001000
00010000
00000000
,
02000000
00000000
23000000
00000000
,
30200000
00000000
00320000
00000000
,
00032000
00000000
00000000
00000000
00000000
00000000
00003100
00000002
,
00000000
00000000
00000013
00000200
00000000
00000000
00010300
00002000
,
00010000
01000000
00010000
01000000
,
00023000
00000100
00001000
00000100
,
00031000
00010000
01000000
00000000
00100000
00001000
00010000
00000000
,
00000100
00000010
00000001
00001001
,
00000001
00000100
00000001
00000100
00000010
00001000
00000100
00001000
,
00000100
00000000
00010000
00000000
00001000
00000000
00010000
00001000
00010000
00000000
00001000
00000000
00100000
00000000
00001000
00000000
,
00100000
00000000
00010000
00000000
00100000
00010000
00100000
00000000
01000000
00000000
10000000
00000000
01000000
00000000
10000000
00000000
,
00100000
10000000
00100000
01000000
00010000
02000000
00000000
03010000
,
00100000
00001000
00100000
00001000
00100000
00000000
00001000
00000000
00010000
00000000
00001000
00000000
00010000
00000000
00000100
00000000
,
00001000
00000100
00001000
00000100
00000010
00000100
00000020
00000000
,
00000031
00000000
00000100
00000000
00000010
00000100
00000010
00000000
00000100
00000000
00000010
00000000
00000100
00000000
00000010
00000000
,
00001000
00000010
00001000
00000100
00010000
00001000
00011000
00000000
,
00010000
00000000
01000000
00000000
00100000
00000000
00010000
01000000
00010000
00000000
00010000
10000000
00010000
00000000
10000000
00000000
,
00100000
00000000
01000000
00000000
00010000
00000000
00100000
01000000
00100000
00000000
00100000
00010000
00100000
00000000
00001000
00000000
,
00010000
00000000
00000100
00000000
00001000
00000100
00001000
00000000
00000010
00000000
00000100
00000010
00000100
00000000
00000001
00000000
,
00000100
00000001
00000100
00000000
00000010
00000000
00000000
00000000
00000010
00000000
00002000
00000000
00000000
00000000
00003010
00000000
,
00000100
00000000
00000001
00000000
00000010
00000000
00000100
00001000
00000100
00000000
00000100
00010000
00000100
00000000
00010000
00000000
,
00001000
00000000
00100000
00000000
00001000
00000000
00001000
00010000
00001000
00000000
00001000
00010000
00001000
00000000
00010000
00000000
,
00001000
00000000
01000000
00000000
00010000
01000000
00010000
00000000
10000000
01000000
10000000
01000000
10000000
00000000
00100000
00000000
,
01000000
00100000
01000000
00000000
00100000
20000000
00000000
30100000
,
10000000
01000000
00100000
00010000
10000000
00100000
00010000
00011000
,
00000000
00011000
00001000
00000100
00000001
00001000
00000100
00000010
,
00000011
00000001
00000100
00000010
00001010
00000100
00000001
00000101
,
00000000
00000100
00000010
00001000
00000100
00010000
00001000
00010000
,
00000100
00010000
00001000
00010000
00011000
01000000
00100000
00110000
,
00000000
00010000
10000000
00100000
00010000
00100000
01000000
00100000
,
10100000
00100000
10000000
01000000
00100000
00010000
00001000
00011000
,
00000000
00001010
00000001
00000100
00000001
00000010
00000100
00000000
,
00000002
00000000
00000203
00000000
,
00002300
00000000
00023000
00000000
,
00230000
00000000
00000000
00000000
00300000
00000000
10000000
00100000
,
00000000
00000000
00010000
01000000
00000000
00000000
00001000
00010000
,
00001000
00000000
00001000
00000000
00000010
00000001
00000010
00000001
,
00000100
00000000
00000100
00000000
00001000
00010000
00001000
00010000
,
00100000
10000000
00100000
01000000
00100000
10000000
01000000
00010000
,
00001000
00001000
00001000
00011000
,
00001000
00000000
00000010
00000000
00000001
00000000
00000010
00000001
00000010
00000000
00000001
00000010
00000001
00000000
00000010
00000001
,
00000010
00000000
00000001
00000000
00000100
00000000
00001000
00010000
00001000
00000000
00010000
00000000
00011000
00000000
00000000
00000000
,
00001000
00000000
00010000
00000000
01000000
10000000
01000000
00000000
10000000
00000000
00100000
00000000
01000000
00000000
00010000
00000000
,
10000000
00010000
10010000
00000000
10000000
02000000
00000000
03010000
,
01000000
00100000
01000000
00100000
01000000
00000000
00010000
00000000
00001000
00000000
00010000
00000000
00000100
00000000
00010000
00000000
,
00000010
00001000
00000010
00000000
00000100
00000001
00000101
00000000
,
00000010
00000000
00000001
00000000
00000010
00000100
00000010
00000000
00001000
00000000
00010000
00000000
00001000
00000000
00010000
00000000
,
01000000
10000000
01000000
00000000
20000000
00100000
00000000
30100000
,
01000000
00000000
00100000
00000000
10010000
00000000
00000000
00000000
10000000
00000000
01000000
00010000
01000000
00000000
00100000
00000000
,
00001000
00000000
00010000
00000000
00011000
00000000
00000000
00000000
00010000
00000000
00000100
00000010
00000100
00000000
00001000
00000000
,
00000001
00000000
00000100
00000000
00000110
00000000
00000000
00000000
00000001
00000000
00000100
00001000
00010000
00000000
00000010
00000000
,
00010000
00000000
00001000
00000000
00011000
00000000
00000000
00000000
00010000
00000000
00100000
01000000
00100000
00000000
10000000
00000000
,
10000000
01000000
10000000
00000000
10010000
00000000
00100000
01000000
00100000
00000000
01000000
00001000
00010000
00000000
00011000
00000000
,
00001100
00000000
00000100
00000000
00001100
00000000
00000001
00000100
00000001
00000000
00000011
00000000
00000100
00000000
00000110
00000000
,
00000001
00000100
00000010
00000000
00001000
00000100
00010000
00000000
00001000
01000000
00100000
00000000
10000000
01000000
00100000
00000000
,
00010000
00001000
00010000
00000000
00001000
00010000
00000000
00010000
,
00022000
00000000
00000000
00000000
,
00000000
00000000
00000000
00000000
,
00033000
00000000
00000000
00000000
,
00000000
00000000
00000000
00000000
;

//---------------dance-single - ----------------
#NOTES:
     dance-single:
     :
     Challenge:
     17:
     0.865621,0.940602,0.452866,0.108688,0.674770,669.000000,619.000000,50.000000,12.000000,0.000000,0.000000,0.865621,0.940602,0.452866,0.108688,0.674770,669.000000,619.000000,50.000000,12.000000,0.000000,0.000000:
// measure 0
0000
0000
0000
0000
,  // measure 1
0000
0000
0000
0000
,  // measure 2
0000
0000
0000
0000
,  // measure 3
0000
0000
0000
0000
,  // measure 4
0010
0010
0000
0000
1001
0000
0000
0000
,  // measure 5
1001
0000
1000
0000
0100
0000
0010
0000
0001
0100
0001
0000
1000
0000
0010
0000
,  // measure 6
0100
0000
0010
0000
1000
0000
0100
0000
0010
0001
0010
0000
0001
0000
1000
0000
,  // measure 7
0100
0000
1000
0000
0010
0000
1000
0000
0001
1000
0001
0000
0010
0000
0100
0000
,  // measure 8
1000
0000
0010
0000
0100
0000
0001
0000
0010
0100
0010
0000
0001
0000
1000
0000
,  // measure 9
0010
0000
1000
0100
1000
0000
0001
0000
0010
0100
0010
0000
0001
0000
1000
0000
,  // measure 10
0001
0000
0100
0000
0001
0000
0010
0000
1000
0100
1000
0000
0001
0000
0010
0000
,  // measure 11
0100
0000
1000
0001
1000
0000
0010
0000
0100
0001
0100
0000
0001
0000
0010
0000
,  // measure 12
0100
0000
1000
0000
0010
0000
0100
0000
0001
0010
0001
0000
1000
0000
0001
0000
,  // measure 13
0010
0010
0001
0001
0100
0100
1000
1000
,  // measure 14
0010
0010
1000
1000
0100
0100
0001
0001
,  // measure 15
1000
0000
1000
0000
0010
0100
0010
0000
0100
0000
0100
0000
0001
0000
0001
0000
,  // measure 16
1001
0000
1001
0000
1100
0101
1100
0000
,  // measure 17
1001
0000
0100
0000
0010
0000
1000
0000
0100
0010
0100
1000
0010
0100
0001
0000
,  // measure 18
0010
0000
0001
0000
0100
0000
0001
1000
0001
0010
0100
1000
0010
1000
0001
0000
,  // measure 19
0100
0000
0010
0000
1000
0010
0100
0000
0001
0010
0001
0100
1000
0001
0100
0000
,  // measure 20
0010
1000
0010
1000
0001
0100
0001
0100
0020
0000
0230
0000
0301
0000
1000
0000
,  // measure 21
0101
0000
0001
0000
1000
0000
0100
0010
0100
1000
0010
1000
0100
0010
0001
0000
,  // measure 22
0010
0000
0001
0000
0100
0000
0001
0010
0100
1000
0100
1000
0010
1000
0001
0000
,  // measure 23
0100
0000
0001
0000
1000
0100
0010
0000
0100
1000
0001
1000
0010
1000
0010
0000
,  // measure 24
1000
0100
1000
0100
0010
0001
0010
0001
2000
0000
3002
0000
0103
0000
0010
0000
,  // measure 25
0110
0000
0110
0000
0110
0000
1000
0010
0001
0000
1000
0100
0001
0000
0100
0000
,  // measure 26
0101
0000
0101
0000
0001
1000
0100
0010
0100
0000
1000
0001
0010
0000
0100
0000
,  // measure 27
1100
0000
1100
0000
0010
1000
0001
0000
0010
0100
1000
0001
1000
0010
0100
0000
,  // measure 28
0001
1000
0010
1000
0100
0001
0100
0010
2000
0000
3020
0000
0130
0000
0001
0000
,  // measure 29
0011
0000
0011
0000
0011
0000
0001
0100
1000
0000
0001
0010
1000
0000
0100
0000
,  // measure 30
1100
0000
1100
0000
0010
1000
0100
0010
0001
0000
0100
0001
1000
0000
0010
0000
,  // measure 31
0110
0000
0010
0000
1000
0001
0100
0000
0001
1000
0100
0010
0100
0010
0100
0000
,  // measure 32
1000
0001
0100
0001
1000
0000
0000
0000
1010
0000
0102
0000
2000
0000
3003
0000
,  // measure 33
1001
1000
0100
0010
0011
0001
1000
1010
,  // measure 34
0000
1000
0100
1000
1010
0010
0100
0110
,  // measure 35
0000
0010
1000
0001
0011
0100
1000
0101
,  // measure 36
0000
0001
1000
0100
0110
0100
1000
0001
,  // measure 37
0010
0000
0001
0000
0100
0000
0001
0000
1000
0100
0010
0000
0100
0000
1000
0000
,  // measure 38
0010
0000
1000
0000
0001
0000
0100
0000
0001
1000
0001
0000
0010
0000
0100
1000
,  // measure 39
0010
0000
0100
0000
0001
0000
0010
0000
0001
1000
0100
0000
1000
0000
0010
0000
,  // measure 40
0100
0000
0001
0000
0010
0000
0100
0000
1000
0010
0100
0000
0001
0010
0001
0000
,  // measure 41
0100
0000
0000
0001
0000
0000
0010
0000
0000
0100
0000
0000
1000
0000
0000
0010
0000
0000
0100
0000
0000
0001
1000
0001
,  // measure 42
1000
0000
0000
0001
0000
0000
0010
0000
0000
0001
0000
0000
0100
0000
0000
0010
0000
0000
1000
0000
0000
0100
0010
0100
,  // measure 43
0010
0000
0000
0001
0000
0000
0100
0000
0000
0010
0000
0000
1000
0000
0000
0001
0000
0000
1000
0000
0000
0001
0100
0001
,  // measure 44
0100
0000
0000
0010
0000
0000
1000
0000
0000
0100
0000
0000
0010
0000
0000
0001
0000
0000
1000
0000
0000
0001
0010
0001
,  // measure 45
0010
0010
0001
0001
1000
1000
0100
0100
,  // measure 46
1000
1000
0001
0001
1000
1000
0010
0010
,  // measure 47
0100
0000
0100
0000
0010
1000
0010
0000
0100
0000
0100
1000
0001
0000
0001
0000
,  // measure 48
1001
0000
1001
0000
1100
0101
1100
0000
,  // measure 49
1001
0000
0010
0000
0100
0000
1000
0001
0100
0000
0010
0000
1000
0000
0100
0010
,  // measure 50
0001
0000
0010
0000
0100
0000
0010
0001
1000
0000
0010
0000
0100
0000
0001
0000
,  // measure 51
0110
0000
0010
0000
1000
0100
0010
0000
0100
0010
0001
0100
0001
1000
0001
0000
,  // measure 52
0010
0001
0100
0001
1000
0100
0010
0000
0110
0000
2001
0000
3200
0000
1300
0000
,  // measure 53
1010
0000
0001
0000
0101
0000
1000
0000
0010
1000
0001
0010
0001
0100
1000
0000
,  // measure 54
0110
0000
1000
0000
1100
0000
0100
1000
0001
1000
0100
0010
0100
0010
0001
0000
,  // measure 55
0010
0000
1001
0000
0010
1000
0001
0000
1000
0100
0010
0100
0010
0001
1000
0000
,  // measure 56
0010
0000
0010
0000
0010
0000
0000
0000
1000
0100
0010
0001
1000
0010
0100
0001
,  // measure 57
0010
0000
0001
0100
0001
0000
1000
0100
0010
0001
0100
0010
1000
0001
0100
0010
,  // measure 58
0001
0000
1000
0010
0100
0000
0001
0010
0001
0100
0010
1000
0001
0010
0100
1000
,  // measure 59
0001
0000
1000
0010
0100
0000
0010
1000
0100
0010
0100
1000
0001
0100
0001
0010
,  // measure 60
0001
0100
0010
1000
0010
0100
0001
1000
0010
0000
1001
0000
1100
0000
0001
0000
,  // measure 61
0010
0000
0001
1000
0001
0000
0100
0001
0010
0001
1000
0100
0010
0100
1000
0001
,  // measure 62
0010
0000
0001
0100
0010
0000
0100
0010
1000
0100
1000
0010
1000
0001
0100
0001
,  // measure 63
0010
0000
0100
1000
0001
0000
0100
0001
0010
0001
0100
0010
0100
0010
1000
0100
,  // measure 64
0010
0001
0100
0001
0010
0000
0000
0000
1001
0000
2100
0000
0001
0000
0000
0000
,  // measure 65
0020
0000
0000
0000
,  // measure 66
0000
0000
0000
0000
,  // measure 67
3030
0000
0000
0000
;
