#VERSION:0.83;
#TITLE:CROSS (CROSSOVER Special);
#SUBTITLE:;
#ARTIST:TeddyLoid;
#TITLETRANSLIT:;
#SUBTITLETRANSLIT:;
#ARTISTTRANSLIT:;
#GENRE:;
#ORIGIN:;
#CREDIT:;
#BANNER:CROSS (CROSSOVER Special)-bn.png;
#BACKGROUND:CROSS (CROSSOVER Special)-bg.png;
#PREVIEWVID:;
#JACKET:CROSS (CROSSOVER Special)-jacket.png;
#CDIMAGE:;
#DISCIMAGE:;
#LYRICSPATH:;
#CDTITLE:;
#MUSIC:CROSS (CROSSOVER Special).ogg;
#OFFSET:0.000000;
#SAMPLESTART:52.855999;
#SAMPLELENGTH:20.000000;
#SELECTABLE:YES;
#BPMS:0.000=150.000;
#STOPS:;
#DELAYS:;
#WARPS:;
#TIMESIGNATURES:0.000=4=4;
#TICKCOUNTS:0.000=4;
#COMBOS:0.000=1;
#SPEEDS:0.000=1.000=0.000=0;
#SCROLLS:0.000=1.000;
#FAKES:;
#LABELS:0.000=Song Start;
#BGCHANGES:;
#KEYSOUNDS:;
#ATTACKS:
;

//---------------dance-single - ----------------
#NOTEDATA:;
#CHARTNAME:;
#STEPSTYPE:dance-single;
#DESCRIPTION:;
#CHARTSTYLE:;
#DIFFICULTY:Challenge;
#METER:14;
#RADARVALUES:0.621073,0.755720,0.271719,0.253605,0.144917,480.000000,450.000000,30.000000,28.000000,0.000000,0.000000,0.000000,0.000000,0.000000,0.621073,0.755720,0.271719,0.253605,0.144917,480.000000,450.000000,30.000000,28.000000,0.000000,0.000000,0.000000,0.000000,0.000000;
#CREDIT:;
#NOTES:
// measure 0
0000
0000
0000
0000
,  // measure 1
0000
0000
0000
0000
,  // measure 2
0000
0000
0000
0000
,  // measure 3
0000
0000
0000
0000
,  // measure 4
0001
1000
0100
0010
0001
0100
1000
0000
,  // measure 5
0010
0100
0010
0100
0001
0100
1000
0100
,  // measure 6
0000
0001
0010
1000
0001
0100
1000
0000
,  // measure 7
0010
0100
0010
0100
0001
0010
1000
0010
,  // measure 8
0000
0001
0100
1000
0001
0010
1000
0000
,  // measure 9
2020
3000
0002
0003
,  // measure 10
2000
3000
0002
0003
,  // measure 11
0230
0000
1000
0000
0010
0000
0301
0002
,  // measure 12
0100
0000
1003
2000
0001
0000
3010
0100
,  // measure 13
0010
0001
0010
0100
0010
1000
0010
0001
,  // measure 14
0010
1000
0010
0100
0010
0001
0010
1000
,  // measure 15
0001
0100
1000
0100
0001
0010
1000
0010
,  // measure 16
0001
0000
0001
0000
0011
1000
1001
0000
,  // measure 17
1000
0100
0001
0100
1000
0100
0001
0100
,  // measure 18
1000
0000
0010
0000
0001
0000
0010
0000
1000
0000
0010
0001
0010
0000
1000
0000
,  // measure 19
0100
0000
1000
0000
0100
0000
0010
0000
0100
0000
0001
0000
0100
0000
1000
0010
,  // measure 20
0001
0010
1000
0000
1100
0202
0300
1000
,  // measure 21
1003
0010
0001
0010
1000
0010
0001
0010
,  // measure 22
1000
0000
0100
0000
0001
0000
0100
0000
1000
0000
0100
0001
0100
0000
1000
0000
,  // measure 23
0100
0000
0001
0000
0100
0000
1000
0000
0100
0000
0010
0100
0001
0000
0100
0000
,  // measure 24
1000
0100
0001
0100
1000
1010
0011
0000
,  // measure 25
0010
0000
0001
0000
0010
0000
1000
0000
0010
0000
0001
0100
1000
0000
0100
0000
,  // measure 26
0001
0000
0010
0000
1000
0000
0010
0000
0100
0000
0010
0100
0001
0000
0100
0000
,  // measure 27
1000
0000
0100
0000
0010
0000
0001
0100
0001
0000
1000
0100
0001
0000
0100
0000
,  // measure 28
1000
1000
1000
0000
0110
2020
0030
0100
,  // measure 29
3100
0000
0010
0000
0100
0000
0001
0000
0100
0000
1000
0001
0100
0000
1000
0000
,  // measure 30
0100
0000
0001
0000
0010
0000
1000
0010
0001
0000
1000
0100
0001
0000
0100
0000
,  // measure 31
1000
0000
0010
0000
0001
0010
1000
0000
0001
0000
0100
1000
0100
0000
0001
0000
,  // measure 32
1000
1000
1000
0000
1001
0220
0300
0000
,  // measure 33
1030
0010
1000
0010
0100
1000
0100
0001
,  // measure 34
0000
0001
0010
1000
0001
0100
1000
0000
,  // measure 35
0010
1000
0010
1000
0100
0001
0100
1000
,  // measure 36
0000
1000
0010
0001
1000
0100
0001
0000
,  // measure 37
0010
0001
0010
1000
0010
0100
0010
0001
,  // measure 38
0000
1000
0100
0001
1000
0010
0001
0000
,  // measure 39
1000
0010
0100
0010
0001
0010
1000
0100
,  // measure 40
0000
0001
0100
1000
0001
0010
1000
0000
,  // measure 41
0022
0003
2000
3000
,  // measure 42
0002
0003
2000
3000
,  // measure 43
0230
0000
0001
0000
1000
0000
0310
0020
,  // measure 44
1000
0000
0031
0002
1000
0000
0103
0001
,  // measure 45
0100
1000
0100
0010
0100
1000
0100
0001
,  // measure 46
1000
0010
0001
0010
1000
0010
0001
0010
,  // measure 47
1000
0100
0001
0100
0010
1000
0010
0001
,  // measure 48
1000
0000
1000
0000
1100
0001
1001
0000
,  // measure 49
0100
0001
0010
1000
0010
0001
0100
0010
,  // measure 50
0001
0000
0010
0000
1000
0000
0010
0000
0100
0000
0010
1000
0010
0000
0001
0000
,  // measure 51
0010
0000
0100
0000
0001
0100
1000
0000
0001
0000
0010
0000
1000
0000
0010
0001
,  // measure 52
0100
0010
0100
0010
0101
2200
0300
0001
,  // measure 53
3001
0010
1000
0010
0001
0100
0010
0001
,  // measure 54
0010
0000
1000
0000
0100
0001
0100
0000
1000
0000
0001
0010
1000
0000
0010
0000
,  // measure 55
0001
0000
0010
0000
1000
0010
0100
0000
0010
0000
1000
0010
0001
0000
1000
0000
,  // measure 56
0100
0001
0100
1000
0100
0000
0010
0000
0100
0000
1100
0000
0011
0000
0000
0000
,  // measure 57
0001
0100
1001
0010
0100
1100
0000
0101
,  // measure 58
0000
0010
0011
0010
1000
0110
0000
1001
,  // measure 59
0000
1000
1100
0010
0001
0010
1000
1001
,  // measure 60
0000
0000
0010
0000
1000
0100
0001
0100
1000
0000
0011
0000
1020
0000
0000
0000
,  // measure 61
0001
0000
0001
0000
0031
0000
0010
0000
1000
0000
0100
0001
0100
0000
1000
0000
,  // measure 62
0010
0000
0010
0000
0010
0000
0100
1000
0100
0000
0100
0001
0100
0000
0010
0000
,  // measure 63
1000
0000
1000
0000
1000
0100
0001
0100
1000
0000
0001
0100
0010
0000
0010
0000
,  // measure 64
1000
0010
0001
0010
1000
0000
0100
0000
0110
0000
2200
0000
3000
0000
0000
0000
,  // measure 65
0002
0000
0000
0000
,  // measure 66
0000
0000
0000
0303
;
