#VERSION:0.83;
#TITLE:CRAZY♥LOVE (CANDLES Special);
#SUBTITLE:;
#ARTIST:jun;
#TITLETRANSLIT:CRAZY LOVE (CANDLES Special);
#SUBTITLETRANSLIT:;
#ARTISTTRANSLIT:;
#GENRE:;
#ORIGIN:;
#CREDIT:;
#BANNER:CRAZY LOVE (CANDLES Special)-bn.png;
#BACKGROUND:CRAZY LOVE (CANDLES Special)-bg.png;
#PREVIEWVID:;
#JACKET:CRAZY LOVE (CANDLES Special)-jacket.png;
#CDIMAGE:;
#DISCIMAGE:;
#LYRICSPATH:;
#CDTITLE:;
#MUSIC:CRAZY LOVE (CANDLES Special).ogg;
#OFFSET:0.000000;
#SAMPLESTART:39.340000;
#SAMPLELENGTH:20.000000;
#SELECTABLE:YES;
#DISPLAYBPM:177.000000;
#BPMS:0.000=177.340,
4.000=177.005;
#STOPS:;
#DELAYS:;
#WARPS:;
#TIMESIGNATURES:0.000=4=4;
#TICKCOUNTS:0.000=4;
#COMBOS:0.000=1;
#SPEEDS:0.000=1.000=0.000=0;
#SCROLLS:0.000=1.000;
#FAKES:;
#LABELS:0.000=Song Start;
#BGCHANGES:;
#KEYSOUNDS:;
#ATTACKS:
;

//---------------dance-single - ----------------
#NOTEDATA:;
#CHARTNAME:;
#STEPSTYPE:dance-single;
#DESCRIPTION:;
#CHARTSTYLE:;
#DIFFICULTY:Challenge;
#METER:16;
#RADARVALUES:0.842238,1.001995,0.411534,0.339963,0.389168,659.000000,613.000000,46.000000,38.000000,0.000000,0.000000,0.000000,0.000000,0.000000,0.842238,1.001995,0.411534,0.339963,0.389168,659.000000,613.000000,46.000000,38.000000,0.000000,0.000000,0.000000,0.000000,0.000000;
#CREDIT:;
#DISPLAYBPM:177.000000;
#NOTES:
// measure 0
0000
0000
0000
0000
,  // measure 1
0000
0000
0000
0000
,  // measure 2
0000
0000
0000
0000
,  // measure 3
0000
0000
0000
0000
,  // measure 4
0000
0000
0000
0000
,  // measure 5
0010
1000
0100
1020
0000
0100
0130
0001
,  // measure 6
0010
0001
0100
0012
0000
1000
1003
0010
,  // measure 7
0100
0001
0010
2100
0000
0010
3010
1000
,  // measure 8
0001
0001
0001
0100
1000
0000
0110
0000
,  // measure 9
0010
0000
1000
0000
0100
0000
0010
0000
0001
1000
0001
0000
0100
0000
0010
0000
,  // measure 10
0100
0000
0001
0000
0010
0000
0100
0000
1000
0010
1000
0000
0100
0000
0010
0000
,  // measure 11
0001
0000
0100
0000
1000
0000
0100
0000
0001
0010
0001
0000
0100
0000
0010
0000
,  // measure 12
1000
1000
1000
0001
0010
0100
0100
0100
,  // measure 13
1000
0000
0100
0000
0010
0000
0100
0000
1000
0000
0100
0000
0010
0000
0100
1000
,  // measure 14
0010
0000
0100
0000
0001
0000
0100
0000
0010
0000
0100
0000
0001
0000
0010
0001
,  // measure 15
0100
0000
0010
0000
1000
0000
0100
0000
0010
0000
0001
0000
0100
0000
0001
1000
,  // measure 16
0100
0000
0010
0000
0001
0000
0100
0000
0001
0000
0010
0000
0100
0000
1000
0010
,  // measure 17
0100
0000
0001
0000
0010
0000
0100
0000
0010
0000
0001
0000
0100
0000
0010
1000
,  // measure 18
0001
0000
0100
0000
1000
0000
0100
0000
0001
0000
0010
0000
1000
0000
0010
0001
,  // measure 19
0100
0000
0010
0000
1000
0000
0100
0000
1000
0000
0010
0000
0100
0000
0001
0010
,  // measure 20
0001
0100
0001
0010
0001
0100
0001
0010
0001
0100
0001
0010
0001
0100
0001
0010
,  // measure 21
0100
0000
1000
0010
0001
0000
0010
0000
1000
0100
0010
0000
0001
0000
0100
0010
,  // measure 22
1000
0000
0001
1000
0100
0000
1000
0000
0010
1000
0100
0000
0010
0000
0001
0100
,  // measure 23
0020
0000
1000
0000
0130
0000
0020
0000
1000
0000
0130
0000
0010
0000
1000
0100
,  // measure 24
1000
0000
0010
0000
0001
0000
1000
0000
0100
0000
0010
0000
0001
0000
0100
0010
,  // measure 25
0100
0000
0001
0000
0010
0000
0100
0000
1000
0000
0010
0000
1000
0000
0001
0010
,  // measure 26
0100
0000
1000
0000
0010
0000
0100
0000
0010
0000
1000
0000
0100
0000
0010
0001
,  // measure 27
0100
0000
0010
1000
0100
0000
1000
0000
0001
1000
0100
0000
0010
0000
0001
0000
,  // measure 28
0100
0000
0001
0000
0010
0000
0000
0000
1001
0000
0000
0000
0010
0100
0010
0100
,  // measure 29
0020
0000
1030
0001
0010
0000
2100
0000
0000
0000
3001
0000
0010
0000
1000
0000
,  // measure 30
0010
0000
0001
0100
0010
0000
1020
0000
0000
0000
0100
0000
0130
0000
0001
0000
,  // measure 31
0010
0000
0001
0100
0010
0000
1000
0000
0001
0100
0001
0000
1000
0100
1000
0000
,  // measure 32
0100
0000
1000
0000
0010
0000
0100
0000
0000
0000
1001
0000
0010
0001
0100
0001
,  // measure 33
0010
0000
0100
1000
0010
0000
0210
0000
0000
0000
0301
0000
0100
0000
1000
0000
,  // measure 34
0100
0000
0001
0010
0001
0000
0102
0000
0000
0000
0013
0000
0001
0000
0100
0000
,  // measure 35
0010
0000
1000
0100
0010
0000
0001
0000
0100
0000
0010
0000
1000
0000
0001
0000
,  // measure 36
0011
0001
0101
0010
1100
0000
1001
0000
,  // measure 37
0110
0000
0010
1000
0100
0000
0012
0000
0000
0000
0013
0000
0001
0000
0100
0000
,  // measure 38
0010
0000
1000
0100
1000
0000
0210
0000
0000
0000
0001
0000
0301
0000
1000
0000
,  // measure 39
0010
0000
1000
0001
0100
0000
0001
0000
0010
0000
0100
0000
1000
0000
0010
0000
,  // measure 40
1000
0000
0100
1000
0010
0000
0100
0000
0000
0000
1001
0000
0100
0001
0010
0001
,  // measure 41
1000
0000
0001
0100
1000
0000
0201
0000
0000
0000
0010
0000
0310
0000
0100
0000
,  // measure 42
0001
0000
0100
0001
0010
0000
1002
0000
0000
0000
0010
0000
0010
0000
0103
0000
,  // measure 43
0001
0000
0100
0001
0010
0000
0100
0000
1000
0000
0010
0000
1000
0000
0001
0000
,  // measure 44
1100
1000
0110
0010
1010
0000
1001
0000
,  // measure 45
0010
0000
0100
0001
0010
0000
0102
0000
0000
0000
1000
0000
1000
0000
0100
0000
,  // measure 46
1003
0000
0010
1000
0100
0000
1020
0000
0000
0000
0100
0000
0100
0000
0001
0000
,  // measure 47
0130
0000
0001
0010
0100
0000
2100
0000
0000
0000
0010
0000
3010
0000
1000
0000
,  // measure 48
0001
0100
0001
0010
0001
0010
0001
0100
0001
0000
0000
0000
1200
0000
0000
0000
,  // measure 49
0310
0000
0001
0100
0001
0000
2001
0000
0000
0000
0100
0000
0100
0000
0010
0000
,  // measure 50
3001
0000
1000
0001
0100
0000
0120
0000
0000
0000
1000
0000
1000
0000
0001
0000
,  // measure 51
1030
0000
0010
1000
0100
0000
2010
0000
0000
0000
0010
0000
0001
0000
3100
0000
,  // measure 52
1000
0001
1000
0000
0001
0000
0100
0000
0100
0000
0010
0000
0010
0000
0010
0000
,  // measure 53
2010
0000
0000
0000
0001
0000
3001
0000
0000
0000
1000
0000
0100
0000
0010
0001
,  // measure 54
0200
0000
0000
0000
0010
0000
0310
0000
0000
0000
1000
0000
0001
0000
0100
0001
,  // measure 55
0020
0000
0000
0000
0100
0000
0130
0000
0000
0000
0010
0000
0001
0000
0100
0010
,  // measure 56
2000
0000
0000
0000
0100
0000
3100
0000
0000
0000
0010
0000
0001
0000
0100
0001
,  // measure 57
0020
0000
0000
0000
0100
0000
0130
0000
0000
0000
0010
0000
0001
0000
1000
0100
,  // measure 58
2000
0000
0000
0000
0010
0000
3010
0000
0000
0000
0010
0000
1000
0000
0100
0010
,  // measure 59
0002
0000
0000
0000
1000
0000
1003
0000
0000
0000
0010
0000
1000
0000
0100
1000
,  // measure 60
0010
1000
0001
0100
0000
0110
0110
0000
,  // measure 61
0001
0000
0010
0000
0100
0000
1000
0000
0000
0000
1000
0000
0000
0000
1000
0100
,  // measure 62
0001
0000
0100
0000
1000
0000
0010
0000
0000
0000
0010
0000
0100
0000
0010
1000
,  // measure 63
0100
0010
0001
0100
0000
1010
0000
0011
,  // measure 64
0000
0000
0100
0000
0100
0000
0100
0000
0000
0000
0001
0000
1000
0000
0010
1000
,  // measure 65
0100
0000
1000
0000
0010
0000
0100
0000
0000
0000
0001
0000
0000
0000
0001
1000
,  // measure 66
0010
1000
0100
1000
0000
0001
1000
0100
,  // measure 67
0010
0001
0100
0010
1000
0100
1000
0001
,  // measure 68
0101
0100
1010
1000
1100
0000
1001
0000
,  // measure 69
0020
0000
0130
0001
0010
0000
2100
0000
0000
0000
0010
0000
0100
0000
3001
0000
,  // measure 70
1000
0000
0001
1000
0010
0000
0102
0000
0000
0000
0013
0000
0001
0000
0100
0000
,  // measure 71
0010
0000
1000
0100
1000
0000
0001
0000
0010
0001
0100
0000
0010
1000
0100
0000
,  // measure 72
0000
0001
0001
0001
0000
1000
1000
1000
,  // measure 73
0001
0000
0010
0001
0100
0000
0010
1000
0100
0000
0001
0010
1000
0000
0001
0100
,  // measure 74
1000
0000
0100
1000
0010
0000
0100
0001
0010
0000
0100
1000
0010
1000
0100
1000
,  // measure 75
0020
1000
0001
1000
0230
0010
0310
0000
,  // measure 76
0002
0010
0010
1000
0203
0001
0301
0000
,  // measure 77
2000
0100
0100
0001
0010
0001
0001
3100
,  // measure 78
0000
1100
0101
0010
0110
0000
2002
0000
,  // measure 79
0000
0000
0000
0000
,  // measure 80
3003
0000
0000
0000
;
