#VERSION:0.83;
#TITLE:CHIP'N'RIDDIM;
#SUBTITLE:;
#ARTIST:L.E.D.-G;
#TITLETRANSLIT:;
#SUBTITLETRANSLIT:;
#ARTISTTRANSLIT:;
#GENRE:;
#ORIGIN:;
#CREDIT:;
#BANNER:CHIP'N'RIDDIM-bn.png;
#BACKGROUND:CHIP'N'RIDDIM-bg.png;
#PREVIEWVID:;
#JACKET:CHIP'N'RIDDIM-jacket.png;
#CDIMAGE:;
#DISCIMAGE:;
#LYRICSPATH:;
#CDTITLE:;
#MUSIC:CHIP'N'RIDDIM.ogg;
#OFFSET:0.000000;
#SAMPLESTART:4.800000;
#SAMPLELENGTH:20.000000;
#SELECTABLE:YES;
#DISPLAYBPM:100.000000:200.000000;
#BPMS:0.000=200.000,
159.000=100.000,
165.000=200.000,
324.000=400.000,
326.000=200.000;
#STOPS:46.000=0.150,
46.500=0.150,
165.000=0.900,
260.000=0.300;
#DELAYS:;
#WARPS:;
#TIMESIGNATURES:0.000=4=4;
#TICKCOUNTS:0.000=4;
#COMBOS:0.000=1;
#SPEEDS:0.000=1.000=0.000=0;
#SCROLLS:0.000=1.000;
#FAKES:;
#LABELS:0.000=Song Start;
#BGCHANGES:;
#KEYSOUNDS:;
#ATTACKS:
;

//---------------dance-single - ----------------
#NOTEDATA:;
#CHARTNAME:;
#STEPSTYPE:dance-single;
#DESCRIPTION:;
#CHARTSTYLE:;
#DIFFICULTY:Hard;
#METER:14;
#RADARVALUES:0.822037,0.918239,0.387137,0.105583,0.197968,654.000000,610.000000,44.000000,12.000000,0.000000,0.000000,0.000000,0.000000,0.000000,0.822037,0.918239,0.387137,0.105583,0.197968,654.000000,610.000000,44.000000,12.000000,0.000000,0.000000,0.000000,0.000000,0.000000;
#CREDIT:;
#DISPLAYBPM:100.000000:200.000000;
#NOTES:
0000
0000
0000
0000
,
0000
0000
0000
0000
,
0000
0000
0000
0000
,
0000
0000
0000
0000
,
1001
0000
0000
0000
0110
0000
0000
0010
1000
0000
1000
0000
1000
0000
1000
0000
,
0001
0001
0001
0100
0200
0000
0310
0000
,
1010
0000
0000
0000
0101
0000
0000
0001
0010
0000
0010
0000
0010
0000
0010
0000
,
0100
0100
0100
2000
0002
0000
3003
0000
,
0011
0000
0000
0000
1100
0000
0000
1000
0001
0000
0001
0000
0001
0000
0001
0000
,
0100
0100
0100
0010
0020
0000
1030
0000
,
1100
0000
0000
0000
0101
0000
0000
0001
0100
0000
0100
0000
0100
0000
0100
0000
,
0001
0000
0001
0000
1000
0000
1000
0000
1100
0000
0011
0000
1001
0000
0000
1000
,
0100
0000
0000
0001
0100
0000
0010
0000
0000
0000
0010
0000
1000
0000
0100
0000
,
0010
0000
0001
0000
0100
0010
0100
0000
0001
0000
1000
0000
0010
0000
0000
1000
,
0001
0000
0000
0001
0100
0000
0010
0000
0000
0000
0100
0000
0001
0000
0010
0000
,
0100
0000
1000
0000
0001
0100
0001
0000
0010
0000
0100
0000
1000
0000
0000
0100
,
1000
0000
0000
0001
0100
0000
0010
0000
0000
0000
0100
0000
0001
0000
1000
0000
,
0100
0000
1000
0000
0010
0100
0010
0000
0100
0000
0001
0000
0010
0000
0000
0001
,
0010
0000
0000
0100
1000
0000
0010
0000
0100
0000
0001
0000
0010
0000
0010
0000
,
0010
0010
0001
0100
1000
0000
0011
0000
,
1100
0000
0001
1000
0010
0100
0001
0010
,
0100
0000
1000
0000
0010
1000
0010
0000
0100
0000
0000
0000
0101
0000
0000
0000
,
1001
0000
0010
1000
0100
0010
0001
0100
,
0010
0000
1000
0000
0100
0010
0100
0000
1000
0000
0000
0000
1010
0000
0000
0000
,
0011
0000
1000
0001
0010
0100
0010
0100
,
1000
0000
0010
0000
0100
0001
0100
0000
0001
0000
0000
0000
0110
0000
0000
0000
,
1001
0000
0010
1000
0001
0100
0010
0010
,
0010
0010
0001
0100
1000
0000
0010
0100
,
0010
0100
0000
1010
0000
1000
0001
0100
,
0001
0100
0000
0110
0000
1001
0000
1000
,
0100
1000
0000
0011
0000
0001
0010
0000
,
0010
0000
0010
0001
1000
0000
0100
1000
,
0100
1000
0000
0101
0000
0001
0100
0010
,
0100
0010
0000
0110
0000
1010
0000
1000
,
0100
0010
0001
0100
0001
1000
0001
0010
,
0100
1000
0010
0010
0010
0000
0100
0001
,
0100
0001
0000
0011
0000
0010
0100
1000
,
0010
0100
0000
0110
0000
0101
1000
0100
,
0010
0001
0100
0010
1000
0001
0010
0100
,
0010
0000
0100
0000
1000
0000
0100
0000
0001
0000
0000
0000
1000
0010
1000
0010
,
0000
0010
0000
0010
0100
0001
0100
0001
0000
0001
0000
0001
1000
0100
1000
0100
,
0010
0010
0000
0000
1001
0000
0000
0000
0010
0000
0001
0000
0001
0000
0001
0000
,
0100
0001
0001
0001
1000
0001
0001
0001
,
1000
0100
0010
0001
0100
0010
0010
0010
,
1000
0010
0010
0010
0001
0010
0010
0010
,
1000
0001
0100
0010
1000
0100
0100
0100
,
0001
0100
0100
0100
0010
0100
0100
0100
,
1000
0010
0100
0001
0010
1000
1000
1000
,
0001
1000
1000
1000
0100
1000
1000
1000
,
0001
0100
0010
1000
0001
0001
0001
0100
,
0010
0010
0010
1000
0100
0100
0100
0010
,
0001
0100
0001
1000
0100
0100
0100
1000
,
0001
0001
0001
0100
0010
0010
0010
0100
,
0010
1000
0100
0010
0001
0001
0001
0010
,
0100
0100
0100
0010
0100
0100
0100
1000
,
0010
0100
0001
1000
0100
1000
1000
1000
,
0001
0100
0100
0100
0001
1000
1000
1000
,
0001
0010
0100
1000
0010
1000
0100
0010
,
0001
0100
1000
0000
0010
1000
0100
0001
,
0100
0000
1000
0000
0001
0000
0000
0000
1000
0000
0100
0000
0010
0000
0000
0010
,
0000
0001
0100
0000
1000
0100
1000
0010
,
0100
0001
1000
0100
0010
0001
1000
0100
,
1000
0010
0001
0000
1000
0100
1000
0001
,
1000
0000
0100
0000
0010
0000
0000
0000
0001
0000
0100
0000
1000
0000
0000
1000
,
0000
0010
0100
0000
0001
0001
0001
0100
,
2000
0000
3010
0010
1000
0100
0100
0010
,
0001
0000
1000
0001
1000
0001
0010
0100
,
1000
0000
0000
0000
0010
0000
0100
0000
0100
0000
0000
0001
0000
0000
1000
0000
,
0100
0000
1000
0010
0100
0010
1000
0100
,
0010
0001
1000
0001
0001
0010
0100
0100
,
1000
0000
0010
1000
0100
0010
0100
0010
,
0001
0000
0000
0000
1000
0000
0100
0000
1000
0000
0000
0001
0000
0000
0100
0000
,
0010
0000
1000
1000
1000
0100
0002
0000
,
0003
0000
0000
0000
1001
0000
0000
0000
1100
0000
0000
1000
0001
0000
0001
0000
,
0001
0001
0010
0010
0010
0100
1000
0001
,
0100
0000
0000
0000
0110
0000
0000
0000
0101
0000
0000
0010
0100
0000
0100
0000
,
0100
0100
0001
0001
0001
1000
0020
0000
,
0030
0000
0000
0000
0110
0000
0000
0000
1001
0000
0000
0100
1000
0000
1000
0000
,
1000
1000
0010
0010
0010
0100
0001
1000
,
0010
0000
0000
0000
1010
0000
0000
0000
0011
0000
0000
0100
0001
0000
0001
0000
,
0001
0001
1000
1000
1000
0010
0100
0000
,
0220
0000
0000
0000
0330
0000
0000
0000
0101
0000
0000
0000
1000
0001
1000
0001
,
1000
0100
0100
0100
0010
0010
0010
0010
,
0001
0000
0100
0000
1000
0000
0000
0000
1100
0000
0000
0000
0010
0100
0010
0100
,
0010
1000
1000
1000
0001
0001
0001
0001
,
0200
0000
0000
0000
0300
0000
0000
0000
0101
0000
0000
0000
0010
1000
0010
1000
,
0010
0100
0100
0100
0001
0001
0001
0001
,
1000
0000
0100
0000
0010
0000
0000
0000
0011
0000
0000
0000
1000
0100
1000
0100
,
1000
0001
0001
0001
0100
0100
0010
0010
,
2002
0000
0000
0000
,
0000
0000
0000
3003
;

//---------------dance-single - ----------------
#NOTEDATA:;
#CHARTNAME:;
#STEPSTYPE:dance-single;
#DESCRIPTION:;
#CHARTSTYLE:;
#DIFFICULTY:Medium;
#METER:12;
#RADARVALUES:0.659892,0.798469,0.404734,0.140777,0.052791,525.000000,479.000000,46.000000,16.000000,0.000000,0.000000,0.000000,0.000000,0.000000,0.659892,0.798469,0.404734,0.140777,0.052791,525.000000,479.000000,46.000000,16.000000,0.000000,0.000000,0.000000,0.000000,0.000000;
#CREDIT:;
#DISPLAYBPM:100.000000:200.000000;
#NOTES:
0000
0000
0000
0000
,
0000
0000
0000
0000
,
0000
0000
0000
0000
,
0000
0000
0000
0000
,
1001
0000
0100
0000
0010
1000
0001
0000
,
1000
0100
1000
0100
0010
0000
0010
0000
,
0001
0000
0101
0000
0010
0100
1000
0000
,
0010
0100
0010
0100
0002
0000
0003
0000
,
1010
0000
0011
0000
0001
1000
0010
0000
,
0100
0010
0100
0010
1000
0000
1000
0000
,
0100
0000
0010
0000
0001
0010
0100
0000
,
1000
0001
1000
0000
1100
0110
0100
0010
,
0002
0000
1000
1003
0000
0000
0010
1000
,
0100
0000
0010
0001
0100
0000
0001
0100
,
0020
0000
1000
1030
0000
0000
1000
0001
,
0100
0000
0001
1000
0100
0000
1000
0001
,
0200
0000
0010
0310
0000
0000
0100
0001
,
0010
0000
0100
1000
0001
0000
1000
0100
,
2000
0000
0001
3001
0000
0000
0010
0100
,
1000
0000
0100
1000
0010
0000
1100
0000
,
0011
0000
0100
0001
0100
0000
1000
0100
,
1000
0000
0010
0100
0010
0000
1010
0000
,
0101
0000
0001
1000
0001
0000
0010
0100
,
0010
0000
0001
0100
0001
0000
1001
0000
,
0110
0000
0010
0100
0010
0000
1000
0100
,
1000
0000
1000
0001
1000
0000
0101
0000
,
1100
0000
0100
1000
0100
0000
0010
0100
,
0010
0000
0001
0010
0001
0000
1000
0001
,
1000
0100
0000
0100
0000
0000
0010
0001
,
0100
0001
0000
0001
0000
0000
1000
0100
,
1000
0000
0001
0100
0001
0000
0110
0000
,
1001
0000
0010
1000
0100
0000
0010
0100
,
1000
0010
0000
0010
0000
0000
0100
0001
,
1000
0100
0000
0100
0000
0000
1000
0010
,
1000
0000
0001
0010
0001
0000
1100
0000
,
0101
0000
1100
0000
0101
0000
0010
1000
,
0010
0100
0000
0100
0000
0000
0001
0010
,
0100
1000
0000
1000
0000
0000
0010
0100
,
0001
0000
0010
0100
1000
0000
0001
1000
,
0001
0000
0000
0000
0100
0000
0010
0000
0100
0000
0000
0000
0001
0100
0010
1000
,
0000
1000
0000
0000
0010
1000
0001
0100
0000
0100
0000
0000
0010
0100
0010
0000
,
0000
1100
0000
0000
1001
0000
0000
0000
0001
0000
0000
0000
1010
0000
0000
0000
,
1000
0100
1000
0100
0010
0001
0100
0000
,
0001
1000
0100
0000
0010
0000
0101
0000
,
0100
0010
0100
0010
1000
0100
0010
0000
,
0001
1000
0001
0000
1000
0000
0011
0000
,
0100
0001
0100
0001
0010
0100
1000
0000
,
0001
0100
1000
0000
0010
0000
1001
0000
,
1000
0001
1000
0001
0100
0001
1000
0000
,
0010
0100
1000
0000
0001
0100
1000
0000
,
0010
1000
0100
0000
0010
0100
1000
0010
,
1000
0100
0010
0000
0001
0100
1000
0000
,
0010
0100
0001
0000
1000
0001
0010
0001
,
0010
0100
1000
0000
0100
0010
0001
0000
,
1000
0010
0001
0000
0100
0001
0010
0100
,
0010
0100
1000
0000
0001
1000
0100
0000
,
0010
0001
0100
0000
0002
0000
0010
0000
,
1000
1000
1003
0000
0001
0000
1000
0100
,
0000
1000
0100
0000
0010
0001
0100
0000
,
0010
0000
0001
0000
0100
0000
0000
0000
0010
0000
0000
0000
1000
0000
0000
0001
,
0000
1000
0100
0000
0010
0100
1000
0000
,
0101
0000
0011
0000
0001
0000
0100
0010
,
0000
0100
0010
0000
1000
0100
0010
0000
,
1000
0000
0100
0000
0010
0000
0000
0000
0001
0000
0000
0000
0010
0000
0000
0100
,
0000
1000
0001
0000
0100
0010
0100
0010
,
0200
0000
0310
0000
0001
1000
0000
1000
,
0001
0000
0100
0001
1000
0000
0100
0001
,
1000
0000
0000
0000
0100
0000
0000
0000
1000
0000
0000
0010
0000
0000
1000
0000
,
0100
0000
0010
0001
1000
0000
0110
0000
,
1001
0000
0100
0000
1000
0010
0000
0010
,
1000
0000
0010
1000
0100
0000
0010
1000
,
0100
0000
0000
0000
0001
0000
0000
0000
0010
0000
0000
0001
0000
0000
1000
0000
,
0100
0000
1000
0001
1000
0001
2000
0000
,
3000
0000
1100
0000
0101
0000
0010
0100
,
0010
0000
1000
0001
1000
0001
0200
0000
,
0310
0000
1010
0000
0011
0000
1000
0001
,
1000
0000
0010
1000
0100
0010
0002
0000
,
0003
0000
0011
0000
1100
0000
1000
0010
,
0100
0000
0001
0010
0001
0100
0020
0000
,
1030
0000
1010
0000
0101
0000
0010
0100
,
0001
0000
1000
0001
0010
0100
1000
0000
,
0020
0030
0110
1001
,
1000
0100
1000
0100
0010
0001
0010
0001
,
0200
0301
1001
0110
,
0010
1000
0010
1000
0001
0100
0001
0100
,
0002
0003
0011
1100
,
0001
1000
0001
0010
0100
1000
0100
1000
,
0020
0130
0101
1001
,
1000
0001
1000
0001
0100
0010
0100
0001
,
0020
0000
0000
0000
,
0000
0000
0000
0030
;

//---------------dance-single - ----------------
#NOTEDATA:;
#CHARTNAME:;
#STEPSTYPE:dance-single;
#DESCRIPTION:;
#CHARTSTYLE:;
#DIFFICULTY:Easy;
#METER:8;
#RADARVALUES:0.422331,0.558928,0.246360,0.043993,0.000000,336.000000,308.000000,28.000000,5.000000,0.000000,0.000000,0.000000,0.000000,0.000000,0.422331,0.558928,0.246360,0.043993,0.000000,336.000000,308.000000,28.000000,5.000000,0.000000,0.000000,0.000000,0.000000,0.000000;
#CREDIT:;
#DISPLAYBPM:100.000000:200.000000;
#NOTES:
// measure 0
0000
0000
0000
0000
,  // measure 1
0000
0000
0000
0000
,  // measure 2
0000
0000
0000
0000
,  // measure 3
0000
0000
0000
0000
,  // measure 4
1001
0100
1000
1000
,  // measure 5
0001
0001
0100
0000
,  // measure 6
0110
0010
1000
1000
,  // measure 7
0001
0001
0010
0000
,  // measure 8
0011
0010
0100
0100
,  // measure 9
1000
1000
0010
0000
,  // measure 10
1010
0001
0100
0100
,  // measure 11
0010
0010
0001
1000
,  // measure 12
0001
0100
0000
0001
,  // measure 13
0001
1000
1000
0010
,  // measure 14
1000
0100
0000
0010
,  // measure 15
0010
0100
0100
1000
,  // measure 16
0010
0001
0000
0100
,  // measure 17
0100
0001
0001
0010
,  // measure 18
0001
0100
0000
1000
,  // measure 19
1000
0100
0100
1100
,  // measure 20
0001
1000
0100
0000
,  // measure 21
0010
0000
0010
0101
,  // measure 22
0100
0010
1000
0000
,  // measure 23
0001
0000
0001
1001
,  // measure 24
0100
0010
1000
0000
,  // measure 25
0100
0000
0100
0110
,  // measure 26
0001
0100
0010
2000
,  // measure 27
0000
0000
3000
0010
,  // measure 28
0100
0010
0000
1000
,  // measure 29
0001
1000
0000
0001
,  // measure 30
0100
1000
0100
0001
,  // measure 31
0001
1000
0000
0010
,  // measure 32
1000
0010
0000
0100
,  // measure 33
0001
0100
0000
0001
,  // measure 34
0010
1000
0010
0001
,  // measure 35
0010
0100
1000
0010
,  // measure 36
0010
0010
0000
0100
,  // measure 37
0100
0100
0000
0001
,  // measure 38
0010
1000
0010
0100
,  // measure 39
0100
0010
0000
1000
,  // measure 40
1100
0001
0101
0100
,  // measure 41
0010
1001
0010
0100
,  // measure 42
0001
0010
0100
1000
,  // measure 43
0001
1000
0010
1000
,  // measure 44
0100
0010
0001
0100
,  // measure 45
1000
0010
1000
0010
,  // measure 46
0001
0100
1000
0010
,  // measure 47
1000
0100
0010
0001
,  // measure 48
0100
0001
1000
0001
,  // measure 49
0100
0010
0001
1000
,  // measure 50
0010
1000
0010
0010
,  // measure 51
0001
0100
0001
0010
,  // measure 52
0001
0100
0100
1000
,  // measure 53
0010
0001
1000
0001
,  // measure 54
1000
0010
0100
0001
,  // measure 55
0010
0100
1000
0001
,  // measure 56
1000
0010
0100
0100
,  // measure 57
0100
0100
0001
0001
,  // measure 58
1000
1000
0010
0010
,  // measure 59
0010
0100
0001
0010
,  // measure 60
0100
1000
0001
0001
,  // measure 61
0001
0000
1000
0001
,  // measure 62
1000
0100
0010
0010
,  // measure 63
0100
0010
0001
0100
,  // measure 64
0001
1000
0010
0010
,  // measure 65
0010
1000
0001
1000
,  // measure 66
0100
0001
0001
1000
,  // measure 67
0010
1000
0100
0001
,  // measure 68
0100
0010
0010
0010
,  // measure 69
0000
1000
0001
0010
,  // measure 70
0001
0100
0010
0100
,  // measure 71
0001
0010
0100
1000
,  // measure 72
0010
1000
1000
2000
,  // measure 73
3000
1001
0010
1000
,  // measure 74
0100
0010
0010
0010
,  // measure 75
0000
0011
0001
0100
,  // measure 76
0010
1000
1000
1000
,  // measure 77
0000
1100
1000
0010
,  // measure 78
0010
0100
0100
0001
,  // measure 79
0000
0101
0010
0100
,  // measure 80
0010
1000
1000
1000
,  // measure 81
0000
0000
0011
0011
,  // measure 82
1100
1100
0001
0100
,  // measure 83
0010
1000
1010
1010
,  // measure 84
0101
0101
0010
0010
,  // measure 85
0020
0030
0110
0110
,  // measure 86
1001
1001
1000
0001
,  // measure 87
0010
0100
1000
1000
,  // measure 88
0001
0001
0100
0010
,  // measure 89
2002
0000
0000
0000
,  // measure 90
0000
0000
0000
3003
;

//---------------dance-single - ----------------
#NOTEDATA:;
#CHARTNAME:;
#STEPSTYPE:dance-single;
#DESCRIPTION:;
#CHARTSTYLE:;
#DIFFICULTY:Beginner;
#METER:4;
#RADARVALUES:0.227506,0.279464,0.035194,0.008799,0.000000,181.000000,177.000000,4.000000,1.000000,0.000000,0.000000,0.000000,0.000000,0.000000,0.227506,0.279464,0.035194,0.008799,0.000000,181.000000,177.000000,4.000000,1.000000,0.000000,0.000000,0.000000,0.000000,0.000000;
#CREDIT:;
#DISPLAYBPM:100.000000:200.000000;
#NOTES:
0000
0000
0000
0000
,
0000
0000
0000
0000
,
0000
0000
0000
0000
,
0000
0000
0000
0000
,
1001
0000
0010
0000
,
1000
1000
1000
0000
,
0001
0000
0100
0000
,
0010
0010
0010
0000
,
0110
0000
0100
0000
,
0001
0001
0001
0000
,
0010
0000
0001
0000
,
1000
1000
1000
0010
,
0010
0000
0000
0100
,
0000
0001
0000
1000
,
1000
0000
0000
0001
,
0000
0010
0000
0001
,
0001
0000
0000
1000
,
0000
0010
0000
0100
,
0100
0000
0000
0001
,
0000
1000
0000
0001
,
0001
0000
0000
0010
,
0000
0001
0000
0100
,
0100
0000
0000
0001
,
0000
1000
0000
0010
,
0010
0000
0000
1000
,
0000
0100
0000
1000
,
1000
0000
0000
1001
,
0000
0000
0000
0010
,
0000
0000
0000
0010
,
0000
0000
0000
0100
,
0000
0000
0000
0100
,
0000
0000
0000
0001
,
0000
0000
0000
0001
,
0000
0000
0000
1000
,
0000
0000
0000
1000
,
0000
0000
0000
0001
,
0000
1000
0000
0001
,
0000
0000
0000
0100
,
0000
0010
0000
0100
,
0000
0000
0000
0010
,
0000
0100
0000
0010
,
0000
1001
1000
0000
,
0001
0000
0010
0000
,
0000
0000
0001
0000
,
0100
0000
1000
0000
,
0000
0000
0010
0000
,
1000
0000
0100
0000
,
0000
0000
0001
0000
,
1000
0000
0001
0000
,
0000
0000
1000
0000
,
1000
0000
0001
0000
,
0000
0000
0010
0000
,
0001
0000
0100
0000
,
0000
0000
0100
0000
,
0010
0000
0010
0000
,
0000
0000
1000
0000
,
0100
0000
0001
0000
,
0000
0000
1000
0000
,
0001
0000
0010
0010
,
0010
0000
0001
0000
,
1000
0000
0100
0100
,
0100
0000
0100
0000
,
1000
0000
0010
0010
,
0010
0000
1000
0000
,
0010
0000
1000
1000
,
1000
0001
0000
0100
,
0000
0001
0001
0001
,
0000
0010
0000
0001
,
0000
0100
0100
0100
,
0000
1000
0000
1000
,
0000
0010
0010
0010
,
0000
0100
0000
0001
,
0000
0100
0100
0100
,
0000
0001
0000
1000
,
0000
0100
0100
0100
,
0000
1000
0000
0001
,
0000
1000
1000
1000
,
0000
0100
0000
0001
,
0000
0010
0010
0010
,
0000
0001
0000
1000
,
0000
0100
0100
0100
,
0000
0000
1000
1000
,
1000
0000
0001
0001
,
0001
0000
1000
1000
,
1000
0000
0001
0001
,
0001
0000
0100
0100
,
0100
0000
0010
0010
,
0010
0000
0100
0100
,
0100
0000
0010
0010
,
0020
0000
0000
0000
,
0000
0000
0000
0030
;
