#TITLE:CELEBRATE NITE;
#SUBTITLE:;
#ARTIST:N.M.R;
#TITLETRANSLIT:;
#SUBTITLETRANSLIT:;
#ARTISTTRANSLIT:;
#GENRE:;
#CREDIT:;
#BANNER:CELEBRATE NITE-bn.png;
#BACKGROUND:CELEBRATE NITE-bg.png;
#LYRICSPATH:;
#CDTITLE:;
#MUSIC:CELEBRATE NITE.ogg;
#OFFSET:0.000000;
#SAMPLESTART:28.308001;
#SAMPLELENGTH:20.000000;
#SELECTABLE:YES;
#DISPLAYBPM:144.000000;
#BPMS:0.000000=144.192001
,12.000000=144.117996
;
#STOPS:
;
#BGCHANGES:;
#KEYSOUNDS:;
#ATTACKS:;

//---------------dance-single - ----------------
#NOTES:
     dance-single:
     :
     Beginner:
     3:
     0.176493,0.230926,0.173194,0.000000,0.000000,107.000000,92.000000,15.000000,0.000000,0.000000,0.000000,0.176493,0.230926,0.173194,0.000000,0.000000,107.000000,92.000000,15.000000,0.000000,0.000000,0.000000:
0000
0000
0000
0000
,
0000
0000
0000
0000
,
0000
0000
0000
0000
,
0000
0000
0000
0000
,
0000
0000
0000
0000
,
0010
0010
0010
0000
,
0010
0010
0010
0000
,
1000
0000
0001
0000
,
0100
0000
0000
0000
,
0100
0000
0100
0000
,
0100
0000
0100
0000
,
0010
0000
0010
0000
,
0100
0000
0000
0110
,
0000
0010
0000
0100
,
0000
0010
0000
0100
,
0000
0010
0000
0100
,
0000
0000
0000
1001
,
0000
0100
0000
0110
,
0000
0010
0000
0110
,
0000
0010
0000
0010
,
0000
0110
0000
0000
,
0100
0000
0000
0000
,
0100
0000
0000
0000
,
1000
0000
0001
0000
,
1001
0000
1001
0000
,
0001
0001
0001
0000
,
0001
0001
0001
0000
,
1000
1000
1000
0000
,
0001
0001
0001
0000
,
1000
0000
0001
0000
,
1000
0000
0001
0000
,
1000
0000
0010
0000
,
0001
0000
0100
0000
,
0010
0000
0100
0000
,
0100
0000
0001
0000
,
1000
0000
0001
0000
,
0001
0000
1000
0000
,
1001
0000
0100
0000
,
1001
0000
0100
0000
,
1000
0000
0001
0000
,
1000
0000
0000
0110
,
0000
0001
0000
0110
,
0000
1000
0000
0110
,
0000
1000
0000
0100
,
0000
0010
0000
0001
,
0001
0000
0000
0000
,
0010
0000
0000
0000
,
0110
0000
0110
0000
,
0010
0010
0000
1001
,
0000
0001
0001
0001
,
0001
0000
0000
0000
,
0000
0000
0000
0000
;

//---------------dance-single - ----------------
#NOTES:
     dance-single:
     :
     Easy:
     6:
     0.334842,0.461851,0.369481,0.000000,0.000000,203.000000,171.000000,32.000000,0.000000,0.000000,0.000000,0.334842,0.461851,0.369481,0.000000,0.000000,203.000000,171.000000,32.000000,0.000000,0.000000,0.000000:
0000
0000
0000
0000
,
0000
0000
0000
0000
,
0000
0000
0000
0000
,
0000
0000
0000
0000
,
0000
0000
0000
0000
,
0010
0010
0010
0010
,
0010
0010
0010
0010
,
1000
1000
0001
0001
,
1000
1000
0100
0100
,
0001
0100
1000
0100
,
0001
0100
1000
0100
,
0001
0010
1000
0010
,
0001
0100
1000
0110
,
0001
0010
1000
0100
,
0001
0010
1000
0100
,
0001
0010
1000
0100
,
0001
0000
0000
1001
,
1000
0100
1000
0110
,
0001
0010
0001
0110
,
1000
0010
0001
0010
,
1001
0110
1001
0000
,
0100
1000
0100
1001
,
0100
0001
0100
1001
,
1000
0010
0001
0010
,
1001
0110
1001
0000
,
0001
0001
0001
0001
,
0001
0001
0001
0010
,
1000
1000
1000
0100
,
0001
0001
0001
0100
,
1000
0010
0001
0010
,
1000
0010
0001
0010
,
1000
0000
0010
0000
,
0001
0000
0100
0000
,
0010
1001
0100
1001
,
0100
0110
0001
0110
,
1000
0010
0001
0110
,
0001
0010
1000
0110
,
1001
0010
0100
0110
,
1001
0010
0100
0110
,
1000
0100
0001
0010
,
1000
0000
0000
0110
,
1000
0001
0010
0110
,
0001
1000
0010
0110
,
0100
1000
0100
0100
,
0001
0010
0001
0001
,
1000
0010
0001
0100
,
1000
0010
0001
0100
,
1001
0110
1001
0110
,
1001
0110
1000
1001
,
0001
0001
0001
0001
,
0100
0000
0000
0000
,
0000
0000
0000
0000
;

//---------------dance-single - ----------------
#NOTES:
     dance-single:
     :
     Medium:
     8:
     0.418965,0.490717,0.646592,0.000000,0.000000,254.000000,198.000000,56.000000,0.000000,0.000000,0.000000,0.418965,0.490717,0.646592,0.000000,0.000000,254.000000,198.000000,56.000000,0.000000,0.000000,0.000000:
0000
0000
0000
0000
,
0000
0000
0000
0000
,
0000
0000
0000
0000
,
0000
0000
0000
0000
,
0100
0100
0100
0100
,
1000
0000
0100
0000
0001
0000
0001
0010
,
1000
0000
0100
0000
0001
0000
0001
0010
,
1000
0010
0001
0010
,
1000
1000
1000
1000
0001
0001
0001
0001
,
0010
1001
0100
1001
,
0010
0000
0010
0000
1001
0100
0010
0000
,
1000
0110
0001
0110
,
1000
0000
1000
0000
0110
0001
1000
0000
,
1000
0000
0011
0000
1000
0010
0001
0000
,
0001
0000
1010
0000
0001
0010
1000
0000
,
0001
0010
1000
0100
,
0110
0000
0000
0000
0110
1000
0001
0000
,
0010
1100
0010
1100
,
0010
0101
0010
0101
,
0011
1100
0011
1100
,
1001
0110
1001
0000
,
0010
0101
0010
0101
,
0010
1100
0010
1100
,
1010
0101
1010
0101
,
0010
1000
0001
0100
1000
0000
0110
0000
,
0001
0000
0000
0000
,
1000
0000
0000
0000
,
0010
0000
0010
0000
,
0100
0100
0100
0100
,
0001
0010
1000
0000
0001
0100
0001
0000
,
1000
0010
0001
0000
1000
0100
1000
0000
,
0010
0010
0010
0010
,
0100
0000
0000
0000
0000
1001
0110
0000
,
1000
0000
1000
0000
0001
0010
1000
0000
,
0001
0000
0001
0000
1000
0010
0001
0000
,
0100
1010
0100
0011
,
0001
0010
1000
0110
,
0001
0000
0001
0000
1000
0100
0001
0000
,
1000
0000
1000
0000
0001
0100
1000
0000
,
1100
1001
0011
0110
,
1001
0000
0000
0000
0110
1000
0001
0000
,
1000
0100
0001
0100
,
0101
1100
0101
1100
,
0001
0100
1000
0100
,
0101
1100
0101
1100
,
0010
0000
0010
0000
0010
1000
0100
0000
,
0010
0000
0010
0000
0010
0001
0010
0000
,
1100
0011
0101
1010
,
0110
0000
1001
0000
0110
1000
0001
0000
,
1000
1000
1000
1000
,
0100
0000
0000
0000
,
0000
0000
0000
0000
;

//---------------dance-single - ----------------
#NOTES:
     dance-single:
     :
     Hard:
     11:
     0.512985,0.519582,0.392573,0.000000,0.046185,311.000000,277.000000,34.000000,0.000000,0.000000,0.000000,0.512985,0.519582,0.392573,0.000000,0.046185,311.000000,277.000000,34.000000,0.000000,0.000000,0.000000:
0000
0000
0000
0000
,
0000
0000
0000
0000
,
0000
0000
0000
0000
,
0000
0000
0000
0000
,
0000
0000
0000
0000
1001
0010
1001
0000
,
0100
0001
0010
0000
0100
1000
0010
1000
,
0001
1000
0100
0000
0010
0001
1000
0001
,
0010
1000
1100
0000
0010
0001
0011
0000
,
0110
0000
0000
0000
0000
0000
0000
0000
0010
0001
0010
0001
0010
0000
0000
0000
,
0001
0010
0001
0000
0001
0010
0001
0100
,
1000
0100
1000
0000
1000
0100
1000
0000
,
0101
0000
1010
0000
0100
0001
0010
0000
,
0011
0000
1100
0000
0010
0001
1000
0100
,
0010
1000
0010
0000
0010
0001
0010
1000
,
0001
0010
1000
0000
1000
0100
0001
0010
,
1100
0000
0011
0000
1000
0100
0001
0010
,
0100
0000
0000
0000
0000
0000
0000
0000
0000
0000
1000
0100
1000
0000
0000
0000
,
1000
0010
0001
0000
1000
0010
0001
0100
,
0001
0010
1000
0000
0001
0010
1000
0100
,
0001
0001
0011
0000
1000
1000
1100
0000
,
1001
0000
0110
0000
1001
0000
0010
0100
,
0001
1000
0100
0000
1000
0001
0010
0100
,
0010
0100
0001
0000
0010
0100
1000
0000
,
0110
0000
0110
0000
0010
0100
0010
0100
,
0010
0001
0100
1000
0001
0000
0110
0000
,
1000
0100
0001
0100
,
1000
0100
0001
0100
,
1000
0010
0001
0010
,
1000
0000
0000
0000
1000
0000
0000
0000
0010
0100
0010
0100
0010
0000
0000
0000
,
0001
0010
1000
0000
1000
0100
0001
0010
,
1000
0100
0001
0000
0001
0010
1000
0100
,
0011
1010
1100
0101
,
0110
0000
0000
0000
0000
0000
0000
0000
1000
0001
1000
0001
1000
0000
0000
0000
,
0001
0010
0001
0000
0010
0001
1000
0100
,
1000
0010
1000
0000
0010
1000
0001
0100
,
0010
0000
1100
0000
0010
0000
0101
1000
,
0010
0000
1100
0000
0010
1000
0101
0000
,
1000
0100
0001
0000
0001
0010
1000
0000
,
0010
0001
0100
0000
0100
1000
0010
0000
,
0011
0000
0011
0000
1000
0100
1000
0100
,
0001
0000
0000
0000
0000
0000
0000
0000
0000
0000
0100
0010
0100
0000
0000
0000
,
0001
0010
0100
0000
0100
0010
1000
0100
,
1000
0001
0010
0000
0010
1000
0100
0001
,
0010
1000
0100
0001
0010
1000
0100
0000
,
1010
0000
0101
0000
1000
0010
0100
0001
,
1000
0010
0100
0000
0001
0010
0100
0010
,
1000
0001
0010
0000
1000
0001
0010
0100
,
1000
1000
0010
0000
0001
0001
0010
0000
,
0110
0000
1001
0000
0010
0001
0100
0000
,
0100
1000
0100
0010
0001
0010
0001
0100
,
1000
0000
0000
0000
,
0000
0000
0000
0000
;

//---------------dance-double - ----------------
#NOTES:
     dance-double:
     :
     Easy:
     6:
     0.329894,0.404120,0.254018,0.000000,0.000000,200.000000,178.000000,22.000000,0.000000,0.000000,0.000000,0.329894,0.404120,0.254018,0.000000,0.000000,200.000000,178.000000,22.000000,0.000000,0.000000,0.000000:
00000000
00000000
00000000
00000000
,
00000000
00000000
00000000
00000000
,
00000000
00000000
00000000
00000000
,
00000000
00000000
00000000
00000000
,
00000000
00000000
01100000
10010000
,
00010000
00001000
00000100
00001001
,
00001000
00000100
00000001
00000100
,
00001000
00010000
01000000
10010000
,
00010000
01000000
10000000
01000000
,
00100000
10000000
01000000
00010000
,
00100000
10000000
01000000
00010000
,
00100000
00001000
00100000
00001000
,
00000010
00000001
00001000
00000110
,
00000010
00000001
00000100
00001000
,
00000010
00000001
00000100
00001000
,
00000010
00010000
00000010
00010000
,
01000000
00000000
00000000
01100000
,
10000000
00100000
00001000
01000000
,
10000000
00100000
00001000
01000000
,
00100000
10000000
01000000
00010000
,
10010000
01100000
00011000
00000000
,
00000001
00000010
00010000
00000100
,
00000001
00000010
00010000
00001000
,
00000010
00000001
00000100
00001000
,
00001001
00000110
00000001
00001000
,
00010000
01000000
00001000
00000100
,
00010000
01000000
00001000
00000100
,
00010000
00010000
00010000
00010000
,
00001000
00001000
00001000
00001000
,
00000001
00000100
00001000
00000100
,
00000001
00000100
00001000
00000100
,
00000001
00000001
00000001
00000001
,
00001000
00001000
00001000
00001000
,
00000010
00001000
00000001
00000110
,
00000010
00001000
00000001
00000110
,
00001000
00010000
10000000
00010000
,
00010000
00100000
10000000
01000000
,
00100000
00010000
10000000
01100000
,
00100000
00010000
10000000
01100000
,
00010000
00001000
00000001
00001000
,
00001001
00000000
00000000
00000110
,
00000001
00000100
00010000
00001000
,
00000001
00000100
00010000
00001000
,
00001000
00010000
10000000
00010000
,
00010000
00001000
00000001
00001000
,
00000001
00000100
00010000
00001000
,
00000001
00000100
00010000
00001000
,
00011000
01100000
10010000
01100000
,
10000000
01000000
00100000
10010000
,
00010000
00010000
00010000
00010000
,
00001000
00000000
00000000
00000000
,
00000000
00000000
00000000
00000000
;

//---------------dance-double - ----------------
#NOTES:
     dance-double:
     :
     Medium:
     8:
     0.385976,0.404120,0.300203,0.000000,0.000000,234.000000,208.000000,26.000000,0.000000,0.000000,0.000000,0.385976,0.404120,0.300203,0.000000,0.000000,234.000000,208.000000,26.000000,0.000000,0.000000,0.000000:
00000000
00000000
00000000
00000000
,
00000000
00000000
00000000
00000000
,
00000000
00000000
00000000
00000000
,
00000000
00000000
00000000
00000000
,
00000000
00000000
00000000
00000000
,
10000000
00010000
10000000
00010000
,
00001000
00000001
00001000
00000001
,
00001000
00010000
10000000
00010000
,
00001000
00000001
00001000
00000100
,
00000010
00011000
00001000
00000100
,
00000010
00011000
00001000
00000100
,
00000001
00000000
00001000
00000000
00000001
00001000
00000100
00000000
,
00010000
00000000
01000000
00000000
10000000
00010000
01000000
00000000
,
00100000
00100000
00010000
01000000
,
00100000
00010000
00001000
00000000
00001001
00000000
00000101
00000000
,
00000010
00000000
00001000
00000000
00000010
00010000
01000000
00000000
,
00010000
10000000
01000000
10000000
00100000
00000000
01010000
00000000
,
10000000
00000000
01010000
00000000
00100000
10000000
01000000
00000000
,
10000000
00000000
01010000
00000000
00100000
00010000
00000100
00000000
,
00000001
00001100
00000001
00011000
,
00000010
00010000
01000000
01000000
,
00010000
00001000
00000100
00000100
,
00000001
00000000
00001000
00000000
00000001
00001000
00000100
00000000
,
00001001
00000100
00011000
00100000
,
00010000
00000000
10000000
00000000
00010000
10000000
01000000
00000000
,
00010000
00010000
00010000
00010000
,
00001000
00001000
00000100
00000001
,
00000001
00001000
00000001
00001000
,
00000010
00000000
00000010
00000000
00010000
00001000
00010000
00000000
,
00001000
00000000
00000011
00000000
00001000
00000010
00000001
00000000
,
00000001
00000000
00001100
00000000
00000001
00000100
00001000
00000000
,
00001000
00000100
00000010
00000000
00000001
00000100
00000010
00000000
,
00000110
00001000
00010000
01000000
,
10010000
00000000
10010000
00000000
10000000
01000000
10000000
00000000
,
00010000
00100000
00010000
00000000
00011000
00000000
00000100
00000000
,
00000001
00001000
00000001
00001000
,
00010000
00000000
10000000
00000000
00010000
10000000
01000000
00000000
,
10000000
00000000
01000000
00000000
00010000
01000000
00010000
00000000
,
10000000
01000000
10000000
00000000
00100000
00000000
10010000
00000000
,
10000000
00010000
00001000
00000001
,
00000010
00001000
00000010
00000000
00010000
00000000
00000110
00000000
,
00000001
00000000
00000101
00000000
00000010
00001000
00000100
00000000
,
00010000
00000000
00100000
00000000
00010000
00100000
01000000
00000000
,
10010000
00001000
10010000
00001000
,
00010000
00001000
00000100
00000001
,
00001001
00010000
00001001
00010000
,
00001000
00010000
01000000
10000000
,
00100000
00000000
00100000
00000000
10000000
01000000
10000000
00000000
,
00010000
00000000
00001000
00000000
00000001
00000010
00001000
00000000
,
00001001
00000000
00000110
00000000
00000001
00000010
00000100
00001000
,
00000001
00000000
00000000
00000000
,
00000000
00000000
00000000
00000000
;

//---------------dance-double - ----------------
#NOTES:
     dance-double:
     :
     Hard:
     10:
     0.437109,0.461851,0.311749,0.000000,0.000000,265.000000,238.000000,27.000000,0.000000,0.000000,0.000000,0.437109,0.461851,0.311749,0.000000,0.000000,265.000000,238.000000,27.000000,0.000000,0.000000,0.000000:
00000000
00000000
00000000
00000000
,
00000000
00000000
00000000
00000000
,
00000000
00000000
00000000
00000000
,
00000000
00000000
00000000
00000000
,
00000000
00000000
00000000
00000000
,
00100000
10000000
00100000
00000000
00010000
00000100
00010000
00000000
,
00000010
00000001
00000010
00000000
00010000
00001000
00010000
00000000
,
01000000
00100000
00001000
00000100
,
00000001
00000000
00000000
00000000
00000000
00001001
00000100
00000000
,
00000010
00000001
00000010
00000001
00001000
00000100
00001000
00000000
,
00010000
00001000
00010000
00001000
01000000
00100000
01000000
00000000
,
10000000
01000000
10000000
00000000
00010000
01000000
00010000
00000000
,
00001000
00000100
00001000
00000100
00000010
00000001
00000100
00000000
,
00001000
00000010
00000100
00000000
00000100
00001000
00000100
00000000
,
00010000
00001000
00100000
01000000
10000000
00010000
01000000
00000000
,
10010000
00000000
01000000
00000000
00010000
00001000
00010000
00000000
,
00000110
00000000
00000001
00000000
00000000
00001001
00000100
00000000
,
00000011
00000000
00001001
00000000
00000010
00001000
00010000
00000000
,
00001100
00000000
00011000
00000000
00010000
00100000
10000000
00000000
,
11000000
00000000
11000000
00000000
10000000
00010000
01000000
00000000
,
00001000
00010000
00001000
00000100
00000001
00000100
00000001
00000000
,
00000001
00000000
00001100
00000000
00000010
00001000
00000100
00000000
,
00010000
00001000
00010000
01000000
10000000
00100000
01000000
00000000
,
00001000
00010000
00100000
01000000
,
00001000
00000000
00000100
00000000
00010000
01000000
10000000
00000000
,
10000000
00000000
10000000
00000000
10000000
00010000
01000000
00000000
,
00010000
00000000
00010000
00000000
00010000
00000100
00001000
00000000
,
00000010
00000000
00000010
00000000
00000010
00001000
00000100
00000000
,
00000001
00000000
00000000
00011000
,
00010000
00000100
00001000
00000000
00000010
00000001
00000100
00000000
,
00000010
00010000
00001000
00000000
00100000
00010000
01000000
00000000
,
10000000
01000000
00100000
00000000
00001000
00010000
00000100
00000000
,
00000001
00000000
00000000
00011000
,
00000010
00000000
00000100
00000000
00001000
00010000
01000000
00000000
,
00100000
00000000
01000000
00000000
00010000
00001000
00000100
00000000
,
00001100
00000000
00001001
00000000
00001000
00010000
00011000
00000000
,
00000001
00001000
00000010
00000100
00001000
00000010
00000001
00000000
,
00000010
00000000
00000100
00000000
00001000
00010000
01000000
00000000
,
00100000
00000000
01000000
00000000
00010000
00001000
00000100
00000000
,
00001000
01000000
00010000
00000100
,
00000001
00000100
00000010
00001000
00000000
00011000
00000100
00000000
,
00101000
00000000
10010000
00000000
00001000
01000000
00010000
00000000
,
01001000
00000000
10100000
00000000
00010000
00100000
01000000
00000000
,
00100000
00000000
01000000
00000000
00010000
00001000
00000100
00000000
,
00000010
00000000
00000100
00000000
00001000
00010000
01000000
00000000
,
00010010
00000000
00001100
00000000
00010000
00000010
00000100
00000000
,
00010100
00000000
00000011
00000000
00001000
00000010
00000001
00000000
,
00001000
00000100
00000001
00000100
,
00000011
00000000
00001100
00000000
00000010
00000100
00010000
00000000
,
00001000
00010000
01000000
10000000
01000000
00010000
01000000
10000000
,
00010000
00000000
00000000
00000000
,
00000000
00000000
00000000
00000000
;

//---------------dance-couple - ----------------
#NOTES:
     dance-couple:
     :
     Medium:
     7:
     0.298554,0.490717,0.346388,0.000000,0.000000,181.000000,151.000000,30.000000,0.000000,0.000000,0.000000,0.298554,0.490717,0.346388,0.000000,0.000000,181.000000,151.000000,30.000000,0.000000,0.000000,0.000000:
00000000
00000000
00000000
00000000
,
00000000
00000000
00000000
00000000
,
00000000
00000000
00000000
00000000
,
00000000
00000000
00000000
00000000
,
01000100
01000100
01000100
01000100
,
10001000
00000000
01000100
00000000
00010001
00000000
00010001
00100010
,
10001000
00000000
01000100
00000000
00010001
00000000
00010001
00100010
,
10001000
00100010
00010001
00100010
,
10001000
10001000
01000100
01000100
,
00010000
00100000
00010001
00000000
00010000
00100000
00010001
00000000
,
10000000
01000000
10000001
00000000
10000000
01000000
10000001
00000000
,
01010000
00000000
10100001
00000000
01000000
00010000
00100001
00000000
,
00110000
00000000
11000001
00000000
00100000
00010000
10000001
00000000
,
00000001
00000010
10000001
00000000
00000001
00000010
10000001
00000000
,
00001000
00000100
10001000
00000000
00001000
00000100
10001000
00000000
,
00000101
00000000
10001010
00000000
00000100
00000001
10000010
00000000
,
00000011
00000000
10001100
00000000
00000010
00000001
10001000
00000000
,
00100000
01010101
00100000
01010101
,
00100000
11000101
00100000
11000101
,
10100000
01010101
10100000
01010101
,
00100000
10000000
00010101
01000000
10000000
00000000
01100101
00000000
,
00000010
11000101
00000010
11000101
,
00000010
11001100
00000010
11001100
,
00001010
11000101
00001010
11000101
,
00000010
00001000
11000001
00000100
00001000
00000000
11000110
00000000
,
00010000
00010000
00010000
00010000
,
00001000
00001000
00001000
00001000
,
00010000
00010000
00010000
00010000
,
00001000
00001000
00001000
00001000
,
00000001
00000010
10001000
00000000
00000001
00000100
10000001
00000000
,
00001000
00000010
10000001
00000000
00001000
00000100
10001000
00000000
,
00010000
00100000
10000001
00000000
00010000
01000000
00010001
00000000
,
10000000
00100000
00010001
00000000
10000000
01000000
10000001
00000000
,
00001000
00000000
10001000
00000000
00000001
00000010
10001000
00000000
,
00000001
00000000
10000001
00000000
00001000
00000010
10000001
00000000
,
00000100
10001010
00000100
10000011
,
00000001
10000010
00001000
10000110
,
00010000
00000000
00010001
00000000
10000000
00100000
00010001
00000000
,
10000000
00000000
10000001
00000000
00010000
00100000
10000001
00000000
,
01000000
00110001
01000000
10100001
,
10000000
00100001
00010000
01100001
,
00001000
00000100
00000001
00000100
,
00000101
00001100
00000101
00001100
,
00010000
01000000
10000000
01000000
,
11000000
01010000
11000000
01010000
,
00000000
00000101
00000000
11000000
,
00000000
00001100
00000000
01010000
,
00000010
00000010
01000000
01000000
,
00000100
00000100
00100000
00100000
,
01000100
10001000
01000100
00100010
00010001
00100010
00010001
01000100
,
10001000
00000000
00000000
00000000
;

//---------------dance-solo - ----------------
#NOTES:
     dance-solo:
     :
     Easy:
     6:
     0.315048,0.404120,0.219379,0.000000,0.000000,191.000000,172.000000,19.000000,0.000000,0.000000,0.000000,0.315048,0.404120,0.219379,0.000000,0.000000,191.000000,172.000000,19.000000,0.000000,0.000000,0.000000:
000000
000000
000000
000000
,
000000
000000
000000
000000
,
000000
000000
000000
000000
,
000000
000000
000000
000000
,
000000
000000
000000
000000
,
000100
000100
000100
000100
,
000100
000100
000100
000100
,
010000
010000
000010
000010
,
100000
000001
100000
001000
,
010000
100000
000001
001000
,
000010
000001
100000
001000
,
000001
000100
100000
000100
,
000001
001000
100000
001100
,
000001
000010
100000
000100
,
000001
000010
100000
001000
,
000001
000010
100000
000100
,
000001
000000
000000
010010
,
100000
010000
100000
001000
,
000001
001000
100000
000001
,
100000
010000
100000
001000
,
000001
000100
100000
000001
,
001000
100000
001000
000001
,
100000
000100
000001
100000
,
010000
000100
000001
001000
,
100001
001100
100001
000000
,
000010
000010
000010
000001
,
000010
000010
000010
000100
,
100000
100000
100000
001000
,
000001
000001
000001
001000
,
100000
010000
000001
001000
,
000001
000010
100000
001000
,
100000
000000
000100
000000
,
000001
000000
001000
000000
,
100000
010010
000001
100001
,
001000
001100
000001
001100
,
100000
000100
000001
001100
,
000001
000100
100000
001100
,
100001
000100
001000
001100
,
100001
000100
001000
001100
,
100000
001000
000001
000100
,
100000
000000
000000
010010
,
100000
010000
100000
001000
,
000001
001000
100000
000001
,
100000
010000
100000
001000
,
000001
000100
000001
100000
,
000001
001000
100000
001000
,
100000
000100
000001
001000
,
100000
010000
000001
000010
,
100001
001100
100001
100000
,
000001
000001
000001
000100
,
001000
000000
000000
000000
;

//---------------dance-solo - ----------------
#NOTES:
     dance-solo:
     :
     Medium:
     8:
     0.418965,0.490717,0.669684,0.000000,0.000000,254.000000,196.000000,58.000000,0.000000,0.000000,0.000000,0.418965,0.490717,0.669684,0.000000,0.000000,254.000000,196.000000,58.000000,0.000000,0.000000,0.000000:
000000
000000
000000
000000
,
000000
000000
000000
000000
,
000000
000000
000000
000000
,
000000
000000
000000
000000
,
001000
001000
001000
001000
,
100000
000000
001000
000000
000001
000000
000100
000010
,
000001
000000
100000
000000
000001
000000
100000
000100
,
000010
010000
000001
000100
,
010000
010000
100000
000000
000010
000010
000001
000000
,
010000
100001
000010
100001
,
000100
000000
000100
000000
100001
001000
000100
000000
,
100000
001100
000001
001100
,
100000
000000
100000
000000
001100
000001
100000
000000
,
100000
000000
110000
000000
000100
010000
100000
000000
,
000001
000000
000011
000000
000100
000010
000001
000000
,
100000
000100
100000
001000
,
001100
000000
000000
000000
010010
100000
000100
000000
,
000100
101000
000100
101000
,
000100
001001
000100
001001
,
000101
101000
000101
101000
,
100001
001100
100001
000000
,
000100
000101
000100
000101
,
000100
101000
000100
101000
,
100100
001001
100100
001001
,
000100
010000
000010
100000
000001
000000
001100
000000
,
000001
000000
000000
000000
,
100000
000000
000000
000000
,
000010
000000
000010
000000
,
100000
100000
000010
010000
,
000010
000100
010000
000000
000001
000010
000001
000000
,
010000
000100
000010
000000
100000
010000
100000
000000
,
000100
000100
000100
000100
,
001000
000000
000000
000000
000000
100010
010001
000000
,
100000
000000
100000
000000
000001
000100
010000
000000
,
000001
000000
000001
000000
100000
000100
000010
000000
,
100000
100100
000001
000101
,
000001
000100
100000
001100
,
100000
000000
110000
000000
000100
010000
100000
000000
,
000001
000000
000011
000000
000100
000010
000001
000000
,
100100
100001
001001
100001
,
001100
000000
000000
000000
010010
000001
000100
000000
,
100000
001000
000001
001000
,
001001
101000
001001
101000
,
000001
001000
100000
001000
,
000101
101000
001001
100100
,
010000
000000
010000
000000
000100
010000
100000
000000
,
000010
000000
000010
000000
000100
000010
000001
000000
,
101000
000101
001001
100100
,
001100
000000
100001
000000
010010
100000
000001
000000
,
010000
010000
000010
000010
,
001000
000000
000000
000000
;

//---------------dance-solo - ----------------
#NOTES:
     dance-solo:
     :
     Hard:
     10:
     0.504737,0.548448,0.323296,0.000000,0.051958,306.000000,278.000000,28.000000,0.000000,0.000000,0.000000,0.504737,0.548448,0.323296,0.000000,0.051958,306.000000,278.000000,28.000000,0.000000,0.000000,0.000000:
000000
000000
000000
000000
,
000000
000000
000000
000000
,
000000
000000
000000
000000
,
000000
000000
000000
000000
,
000000
000000
000000
000000
010010
000100
100001
000000
,
000100
000001
100000
000000
001000
000001
001000
000000
,
100000
001000
000001
000000
001000
100000
000001
000000
,
000100
000010
000001
100000
001000
000001
001000
000000
,
001000
100000
001000
100000
000000
000000
000001
000100
000001
000100
000001
000100
000001
000000
000000
000000
,
000100
000010
000100
000000
000001
000100
000001
100000
,
001000
100000
001000
000000
100000
001000
100000
000000
,
001001
000000
100100
000000
001000
000001
000100
000000
,
000101
000000
101000
000000
000100
000010
010000
000100
,
100000
000001
000001
000000
000100
000010
010000
000100
,
100000
000100
000100
000000
100000
001000
000001
000100
,
101000
000000
000101
000000
100000
001000
000001
000100
,
001000
000000
000000
000000
000000
000000
000000
000000
000000
000000
010000
100000
010000
000000
000000
000000
,
010000
000100
000001
000000
010000
000100
000010
100000
,
000001
000100
100000
000000
000010
000100
100000
000001
,
000100
000100
000101
000000
100000
100000
101000
000000
,
100001
000000
001100
000000
010010
000000
000010
100000
,
000001
100000
001000
000000
100000
000001
000100
001000
,
000100
001000
000001
000000
000100
001000
100000
000000
,
001100
000000
001100
000000
000100
001000
000100
001000
,
000100
000001
001000
100000
000001
000000
001100
000000
,
100000
000000
000001
000000
,
010000
000000
000010
000000
,
010000
010000
000010
000010
,
100000
000000
000000
000000
100000
000000
000000
000000
000001
001000
000001
001000
000001
000000
000000
000000
,
000001
000100
100000
000000
100000
001000
000001
000100
,
100000
001000
000001
000000
000001
000100
100000
001000
,
000001
000100
100000
001000
000001
000100
100000
001000
,
000001
000001
000001
010100
,
000010
000100
000010
000000
000001
000100
000001
100000
,
001000
100000
001000
000000
100000
001000
100000
000000
,
001001
000000
100100
000000
001000
000001
000100
000000
,
000101
000000
101000
000000
000100
000010
010000
000100
,
100000
000001
000001
000000
000100
000010
010000
000100
,
100000
000100
000100
000000
001000
100000
000100
000000
,
000101
000000
000101
000000
100000
001000
100000
001000
,
000001
000000
000000
000000
000000
000000
000000
000000
000000
000000
001000
000100
001000
000000
000000
000000
,
000001
000100
001000
000000
000100
001000
100000
000100
,
000100
001000
000001
000000
000100
001000
000001
000000
,
000010
000001
100000
010000
100000
000001
000010
000000
,
100100
000000
001001
000000
100000
000100
001000
000001
,
100000
000100
001000
000001
100000
001000
000001
000000
,
100000
000100
000001
000000
100000
001000
000001
001000
,
100000
000010
010000
000001
100000
001000
000001
000000
,
001100
100001
010010
000000
,
010000
100000
000001
000010
000001
100000
010000
100000
,
000001
000000
000000
000000
;

//---------------dance-single - ----------------
#NOTES:
     dance-single:
     :
     Challenge:
     13:
     0.682880,0.728859,0.288657,0.069278,0.536902,414.000000,389.000000,25.000000,6.000000,0.000000,0.000000,0.682880,0.728859,0.288657,0.069278,0.536902,414.000000,389.000000,25.000000,6.000000,0.000000,0.000000:
0000
0000
0000
0000
,
0000
0000
0000
0000
,
0000
0000
0000
0000
,
0000
0000
0000
0000
,
0000
0000
0000
0000
,
0010
0000
1000
0000
0100
0000
0010
0001
0000
0100
0001
0000
1000
0000
0001
0000
,
1000
0000
0100
0000
0010
0000
0100
1000
0000
0001
1000
0000
0001
0000
0010
0000
,
0100
0000
0010
0000
0100
0000
1000
0010
0000
0100
0001
0000
1000
0000
0001
0000
,
0010
0000
0001
0000
1000
0000
0001
1000
0000
0100
0010
0000
0001
0000
0100
0000
,
0000
0000
0010
1000
0000
0001
0100
0000
0000
0100
0010
0000
1000
0000
0000
0000
,
0001
0010
0001
0010
0000
0100
1000
0000
0010
1000
0000
1000
0001
0100
0001
0000
,
0010
0000
0001
1000
0000
1000
0100
0010
0000
0001
1000
0001
0100
0000
0010
0000
,
1001
0000
0000
1001
0000
0000
0010
1000
0000
1000
0001
0000
0100
0000
0100
0000
,
1001
0000
0010
1000
0100
0000
0000
0000
1000
0000
0001
0010
0001
0010
0000
0100
,
0000
0000
1000
0001
1000
0000
0000
0000
0000
0000
0010
0100
0010
1000
0001
0000
,
0000
0000
1000
0010
1000
0010
0000
0100
0000
0001
1000
0000
0010
0000
0100
0000
,
0110
0000
0010
1000
0010
1000
0000
0100
0010
0001
0100
0000
1001
0000
0000
0000
,
0010
0000
0010
0000
1000
0000
0001
0000
1000
0100
0000
0010
0001
0000
0100
0000
,
0001
0000
0010
0000
0100
0000
1000
0000
0010
0000
1000
0001
0100
0001
1000
0000
,
0100
0000
0100
0000
1000
0000
0010
0000
0100
0001
0000
0001
0010
0000
0100
0000
,
1100
1100
0101
0101
1001
0100
1010
0000
,
0102
1000
2003
0000
3001
0100
0010
1000
,
0100
0000
1000
0001
0000
1000
0002
0000
0000
0000
0000
0000
0003
0000
0010
0000
,
0001
0100
0010
1000
0100
0010
0001
1000
,
0010
1000
0100
1000
0001
0100
1000
0000
,
0001
0010
1000
0010
0001
0010
1000
0010
,
0001
0100
1000
0100
0001
0100
1000
0100
,
0001
0010
1000
0010
0001
0100
1000
0100
,
0001
0000
0010
0000
0100
0000
1000
0000
0010
0100
0010
0100
0001
0000
1000
0000
,
0100
1000
0100
0001
0100
1000
0100
0001
,
0100
1000
0100
0010
0100
0001
0100
0010
,
0100
1000
0100
0001
0100
1000
0100
0001
,
1000
0000
0001
0000
0100
0000
0010
0000
1000
0001
0100
0000
0110
0000
0000
0000
,
0000
0000
0010
0100
0000
0100
0001
0000
0000
1000
0100
0000
0010
0000
0000
0000
,
0001
1000
0001
1000
0000
1000
0100
0000
0010
0001
0000
0100
0010
0100
0010
0000
,
1000
0000
0001
0010
0000
0010
0100
1000
0000
0001
0100
0001
1000
0000
0010
0000
,
0110
0000
0000
0110
0000
0000
0100
0001
0000
0001
1000
0000
0010
0000
0010
0000
,
1001
0000
0100
1000
0001
0000
0000
0000
0010
0000
0001
0100
0001
1000
0000
0010
,
0000
0000
0010
0100
0010
0000
0000
0000
0000
0000
1000
0001
0100
0001
1000
0000
,
0000
0001
0010
0001
0100
0000
0010
1000
0000
1000
0001
0000
1000
0000
0100
0000
,
0110
0000
0100
1000
0100
0010
0000
0010
0001
1000
0001
0000
1001
0000
0000
0000
,
0100
0000
0100
0000
0001
0000
0010
0000
0100
1000
0000
0001
1000
0000
0010
0000
,
1000
0000
0100
0000
0010
0000
0001
0000
1000
0000
0010
0100
0001
0100
0010
0000
,
0000
0000
1000
0000
1000
0000
0100
0010
0000
0010
0001
0000
0100
0000
0010
0000
,
1010
1010
0101
0101
0011
0100
1100
0000
,
0010
1000
0100
0001
0100
1000
0010
0001
,
0010
0000
1000
0001
0000
1000
0002
0000
0000
0000
0000
0000
0003
0000
0010
0000
,
0001
1000
0100
0010
1000
0001
0100
0010
,
1000
0001
0010
0100
0010
0100
1000
0000
,
0001
0000
0001
0000
0001
0000
1000
0100
0000
0100
1000
0000
0010
0000
0010
0000
,
2002
0000
3003
0000
;

//---------------dance-solo - ----------------
#NOTES:
     dance-solo:
     :
     Challenge:
     13:
     0.674632,0.732467,0.254018,0.057731,0.375254,409.000000,387.000000,22.000000,5.000000,0.000000,0.000000,0.674632,0.732467,0.254018,0.057731,0.375254,409.000000,387.000000,22.000000,5.000000,0.000000,0.000000:
000000
000000
000000
000000
,
000000
000000
000000
000000
,
000000
000000
000000
000000
,
000000
000000
000000
000000
,
000000
000000
000000
000000
,
001000
000000
100000
000000
000001
000000
001000
000010
000000
010000
000100
000000
001000
000000
000001
000000
,
000100
000000
000010
000000
001000
000000
000010
010000
000000
000001
100000
000000
001000
000000
000100
000000
,
000001
000000
100000
000000
000100
000000
010000
000010
000000
001000
000001
000000
000100
000000
001000
000000
,
100000
000001
100000
000000
000100
000000
010000
001000
000000
010000
000010
000000
000100
000000
000001
000000
,
100000
000000
000100
000000
001000
000010
001000
000000
000001
000000
010000
000000
000010
000000
000000
000000
,
100000
000000
000010
000000
001000
000000
000001
000000
000100
000000
001000
010000
001000
000000
000000
000000
,
100000
000000
000010
000100
000010
000000
001000
000000
000001
000000
010000
000010
010000
000000
001000
000000
,
101000
000000
000000
001001
000000
000000
100000
010000
000000
100000
010000
000000
000100
000000
001000
000000
,
000010
000000
100000
001000
100000
000000
000000
000000
000001
000000
010000
000100
010000
000000
000010
000000
,
100000
000000
000100
001000
000100
000000
000000
000000
000000
000000
010000
000010
010000
000010
010000
000000
,
000001
000000
001000
000000
000100
010000
000100
000000
100000
000000
000010
000100
000010
000000
001000
000000
,
000001
100000
001000
100000
001000
100000
000000
000100
001000
000001
001000
000000
010010
000000
000000
000000
,
100000
000000
000001
000000
000100
000000
001000
000000
010000
000100
000000
001000
000010
000000
100000
000000
,
000001
000100
001000
100000
000100
001000
000010
000000
,
010000
000000
000001
000000
100000
000000
000100
000000
000010
001000
000000
000100
010000
000000
001000
000000
,
101000
100000
100100
000100
001100
001000
001001
000000
,
000101
000001
100001
100000
100100
000100
010000
000010
,
100000
000000
000100
001000
000000
000100
002000
000000
000000
000000
000001
000000
003001
000000
100000
000000
,
000010
000100
000010
010000
001000
000100
100000
010000
,
100000
000001
000100
001000
000100
000010
010000
000000
,
000001
000100
001000
100000
000001
000100
001000
100000
,
000010
000100
001000
010000
000010
000100
001000
010000
,
000001
000100
001000
100000
000001
000100
001000
100000
,
000010
000000
000100
000000
001000
000000
010000
000000
000001
000010
000001
000010
000001
000000
100000
000000
,
010000
001000
000100
000010
010000
001000
000100
000010
,
100000
001000
000100
000001
100000
001000
000100
000001
,
010000
001000
000100
000010
010000
001000
000100
000010
,
100000
000000
001000
000000
000100
000000
000001
000000
010000
001000
010000
000000
001002
000000
000000
000000
,
100003
000000
000100
001000
000100
000000
010000
000000
000001
000010
000001
000000
100000
000000
000000
000000
,
001000
000000
100000
000000
000100
000000
001000
000000
000001
000000
010000
000010
010000
000010
001000
000000
,
000100
000000
100000
000000
001000
000000
000100
000000
000001
001000
000001
000000
000100
000000
001000
000000
,
101000
000000
000000
001001
000000
000000
000001
000010
000000
000001
000010
000000
001000
000000
100000
000000
,
000100
000000
100000
000001
100000
000000
000000
000000
001000
010000
001000
000000
100000
000000
000010
000000
,
001000
000000
000001
000100
000001
000000
000000
000000
000000
000000
010000
000010
010000
000010
010000
000000
,
000100
000000
100000
000000
001000
010000
001000
000000
000100
000000
000001
010000
000001
000000
100000
000000
,
000001
010000
001000
010000
001000
010000
000000
000010
100000
000010
100000
000000
010010
000000
000000
000000
,
000100
000000
100000
000000
001000
000000
010000
000000
000001
000100
000000
000010
001000
000000
000100
000000
,
100000
000010
000100
001000
010000
000001
001000
000000
,
000100
000000
100000
000000
100000
000000
001000
010000
000000
000010
010000
000000
000001
000000
001000
000000
,
001010
000010
010010
010000
010001
000001
100001
000000
,
011000
010000
010100
000100
001100
001000
000010
100000
,
000001
000000
010000
000100
000000
010000
000200
000000
000000
000000
001000
000000
001300
000000
000010
000000
,
100000
000001
000100
001000
010000
000010
100000
000010
,
001000
000100
100000
000001
000100
001000
010000
000000
,
000010
000000
000010
000000
000010
000000
100000
010000
000000
100000
000001
000000
001000
000000
000100
000000
,
200200
000000
000000
300300
;

//---------------dance-solo - ----------------
#NOTES:
     dance-solo:
     :
     Beginner:
     4:
     0.150102,0.230926,0.000000,0.000000,0.000000,91.000000,91.000000,0.000000,0.000000,0.000000,0.000000,0.150102,0.230926,0.000000,0.000000,0.000000,91.000000,91.000000,0.000000,0.000000,0.000000,0.000000:
// measure 0
000000
000000
000000
000000
,  // measure 1
000000
000000
000000
000000
,  // measure 2
000000
000000
000000
000000
,  // measure 3
000000
000000
000000
000000
,  // measure 4
000000
000000
000000
000000
,  // measure 5
001000
000000
001000
000000
,  // measure 6
001000
000000
001000
000000
,  // measure 7
001000
000000
001000
000000
,  // measure 8
001000
000000
001000
000000
,  // measure 9
000010
000010
000000
000000
,  // measure 10
010000
010000
000000
000000
,  // measure 11
000010
000010
000000
000000
,  // measure 12
010000
010000
000000
000000
,  // measure 13
001000
001000
000000
000000
,  // measure 14
001000
001000
000000
000000
,  // measure 15
001000
001000
000000
000000
,  // measure 16
001000
001000
000000
000000
,  // measure 17
010000
000010
010000
000000
,  // measure 18
000000
000000
000000
000000
,  // measure 19
010000
000010
010000
000000
,  // measure 20
000000
000000
000000
000000
,  // measure 21
001000
000000
001000
000000
,  // measure 22
010000
001000
010000
000000
,  // measure 23
001000
001000
001000
000000
,  // measure 24
000010
000010
010000
000000
,  // measure 25
001000
000000
000000
000000
,  // measure 26
001000
000000
000000
000000
,  // measure 27
000010
000000
000000
000000
,  // measure 28
000010
000000
000000
000000
,  // measure 29
010000
000000
000000
000000
,  // measure 30
010000
000000
000000
000000
,  // measure 31
010000
000000
000000
000000
,  // measure 32
010000
000000
000000
000000
,  // measure 33
001000
001000
000000
000000
,  // measure 34
001000
001000
000000
000000
,  // measure 35
000010
000010
000000
000000
,  // measure 36
010000
010000
000000
000000
,  // measure 37
001000
001000
000000
000000
,  // measure 38
001000
001000
000000
000000
,  // measure 39
001000
001000
000000
000000
,  // measure 40
000010
000010
000000
000000
,  // measure 41
010000
000010
010000
000000
,  // measure 42
000000
000000
000000
000000
,  // measure 43
001000
000000
001000
000000
,  // measure 44
010000
001000
010000
000000
,  // measure 45
001000
001000
001000
000000
,  // measure 46
000010
000010
010000
000000
,  // measure 47
001000
000010
001000
000010
,  // measure 48
001000
000010
010000
000000
,  // measure 49
001000
001000
001000
001000
,  // measure 50
000010
000000
000000
000000
;
