#TITLE:CASKADE;
#SUBTITLE:;
#ARTIST:Freezepond;
#TITLETRANSLIT:;
#SUBTITLETRANSLIT:;
#ARTISTTRANSLIT:;
#GENRE:;
#CREDIT:;
#BANNER:CASKADE-bn.png;
#BACKGROUND:CASKADE-bg.png;
#LYRICSPATH:;
#CDTITLE:;
#MUSIC:CASKADE.ogg;
#OFFSET:0.000000;
#SAMPLESTART:55.678902;
#SAMPLELENGTH:20.000000;
#SELECTABLE:YES;
#DISPLAYBPM:138.000000;
#BPMS:0.000000=138.000000
;
#STOPS:
;
#BGCHANGES:;
#KEYSOUNDS:;
#ATTACKS:;

//---------------dance-single - ----------------
#NOTES:
     dance-single:
     :
     Challenge:
     17:
     0.866484,0.904734,0.093674,0.405920,1.026510,777.000000,765.000000,12.000000,52.000000,0.000000,0.000000,0.866484,0.904734,0.093674,0.405920,1.026510,777.000000,765.000000,12.000000,52.000000,0.000000,0.000000:
0000
0000
0000
0000
,
0000
0000
0000
0000
,
0000
0000
0000
0000
,
0000
0000
0000
0000
,
1000
0100
1000
0100
1000
0100
1000
0100
0002
0000
0000
0000
0003
0000
0000
0000
,
0001
0100
0001
0100
0001
0100
0001
0100
2000
0000
0000
0000
3000
0000
0000
0000
,
1000
0010
1000
0010
1000
0010
1000
0010
0002
0000
0000
0000
0003
0000
0000
0000
,
0001
0010
0001
0010
0001
0010
0001
0010
2000
0000
0000
0000
3000
0000
0000
0000
,
1002
0000
1000
0000
1003
0100
0010
0002
,
0100
0000
0000
0000
0103
0000
0000
0001
1000
0000
0010
0000
1000
0000
0001
0000
,
0020
0000
0000
0000
0001
0000
0000
0031
0100
0000
0010
0000
1000
0000
0100
0000
,
0020
0000
0000
0000
0001
0000
0000
0000
0230
0000
0000
0000
1300
0001
1000
0001
,
0020
0000
0100
0000
0130
0010
0001
1000
,
0002
0000
0000
0000
0010
0000
0000
0013
0001
0000
1000
0000
0100
0000
1000
0000
,
0002
0000
0000
0000
0013
0000
0001
1000
0200
0000
0000
0000
1300
0000
0001
0100
,
0002
0000
0000
0000
1003
0000
0001
0100
0010
0100
0001
0000
1000
0010
1000
0000
,
1002
0000
1000
0000
0103
0000
0000
0000
0001
0010
0001
0000
1000
0000
0010
0000
,
0200
0000
0010
0000
0301
0000
0000
0100
0010
0000
1000
0000
0001
1000
0001
0000
,
0020
0000
1000
0000
0031
0000
0000
0010
0100
0000
1000
0000
0001
0000
0100
0000
,
0020
0000
1000
0000
0130
0000
0000
0000
0010
1000
0010
1000
0001
0100
0001
0100
,
0002
0000
1000
0000
0013
0000
0000
0001
0100
0010
0100
0010
1000
0001
1000
0100
,
2000
0000
0100
0000
3010
0000
0000
1000
0001
1000
0001
0000
0100
0001
0010
0000
,
0200
0000
0001
0000
1300
0000
0010
0100
0002
0000
0010
0000
0103
0000
0010
1000
,
0200
0000
1000
0000
0310
0000
1000
0001
0100
0001
1000
0000
0010
0100
0001
0000
,
0012
0000
1000
0000
0013
0000
0001
1000
0001
0000
0010
0000
0100
0000
2000
0000
,
0001
0000
0100
0000
3010
0000
1000
0100
0010
0000
0001
0000
0100
0001
1000
0000
,
1020
0000
0001
0000
0130
0000
0010
1000
0001
0000
0010
0000
0100
1000
0100
0000
,
2000
0000
0001
0000
3100
0000
0000
0000
0001
0010
0100
1000
0001
0100
0010
1000
,
0200
0000
0001
0000
0310
0000
0000
0100
1000
0010
0100
0010
1000
0001
0100
0001
,
2000
0000
0010
0000
3100
0000
0000
1000
0001
1000
0001
0000
0010
0100
0010
0000
,
0002
0000
0010
0000
0103
0000
0001
1000
0020
0000
1000
0000
0130
0000
1000
0001
,
2000
0000
0000
0000
3000
0000
0010
1000
0002
0000
0023
0000
0230
0000
2300
0000
,
3001
0100
0001
0100
0001
0100
0001
0100
1000
0000
0100
0000
0010
0000
0100
0000
,
1000
0100
1000
0100
1000
0100
1000
0100
0001
0000
0100
0000
0010
0000
1000
0000
,
0001
0010
0001
0010
0001
0010
0001
0010
1000
0010
0100
0000
0001
0000
0010
0000
,
1000
0010
1000
0010
1000
0010
1000
0010
0100
0010
0100
0010
0100
1000
0100
1000
,
0010
0001
0010
0001
0010
0001
0010
0001
0010
0000
1000
0000
0100
0000
1000
0000
,
0010
1000
0010
1000
0010
1000
0010
1000
0010
0000
0001
0000
0010
0000
1000
0000
,
0100
0001
0100
0001
0100
0001
0100
0001
0100
1000
0010
0000
0100
0000
0001
0000
,
0100
1000
0100
1000
0100
1000
0100
1000
0100
0010
0100
0001
1000
0000
0000
0000
,
2100
0000
0010
0000
3010
0000
1000
0001
0010
0000
0001
0000
1000
0000
0100
0000
,
1020
0000
0100
0000
0130
0000
0001
1000
0010
0000
0010
0000
0010
1000
0001
0000
,
0201
0000
0010
0000
0310
0000
0100
0001
1000
0000
0010
0000
1000
0000
0001
0000
,
0012
0000
1000
0000
1003
0000
0000
0000
0001
1000
0010
0100
0001
0010
0100
1000
,
0020
0000
1000
0000
1030
0000
0010
0100
0001
0010
0100
1000
0001
1000
0100
0010
,
0002
0000
0100
0000
0103
0000
0010
1000
0001
0000
0001
0000
0001
1000
0010
0000
,
0210
0000
0001
0000
0301
0000
0100
0010
2000
0000
0100
0000
3100
0000
1000
0010
,
0002
0000
0010
0000
0013
0000
1000
0100
0010
0001
0010
0001
1000
0100
1000
0100
,
2000
0010
3010
0000
0001
0010
0100
1000
,
1002
0000
0010
0000
0013
0000
0001
1000
0100
0000
0100
0000
0100
1000
0001
0000
,
0102
0000
0100
0000
0103
0000
0010
0001
1000
0000
1000
0000
1000
0001
0010
0000
,
0021
0000
0001
0000
0031
0000
0000
0000
1000
0100
1000
0100
0010
0001
0010
0100
,
2000
0000
0001
0000
3001
0000
0000
0000
0100
0010
0100
0010
1000
0010
1000
0100
,
0020
0000
0100
0000
0130
0000
0010
0001
1000
0000
1000
0000
1000
0001
0100
0000
,
0001
0010
0100
1000
0001
0100
0010
1000
0001
0010
0100
1000
0001
0100
0010
1000
,
0002
0000
0000
0000
0003
0000
0001
1000
0010
0100
0010
1000
0100
0001
0100
1000
,
0001
0010
0001
0010
0001
0010
0001
0010
1000
0000
0010
0000
0001
0000
0100
0000
,
1000
0100
1000
0100
1000
0100
1000
0100
0001
0100
0010
0000
1000
0000
0001
0000
,
0010
1000
0010
1000
0010
1000
0010
1000
0010
0001
1000
0001
0100
0000
0100
0000
,
0001
0100
0001
0100
0001
0100
0001
0100
1000
0100
0010
0100
1000
0100
0001
0010
,
0100
0001
0100
0001
0100
0001
0100
0001
0100
1000
0010
0000
1000
0001
0010
0000
,
1000
0010
1000
0010
1000
0010
1000
0010
0001
0010
0001
0000
1000
0010
1000
0000
,
0010
0001
0010
0001
0010
0001
0010
0001
0010
1000
0010
0100
0010
0001
0010
0000
,
1000
0100
1000
0100
1000
0100
1000
0100
0001
0100
1000
0100
0010
0100
1000
0010
,
0100
0010
0100
0010
0100
0010
0100
0010
1000
0001
0010
0000
0100
1000
0001
0000
,
1000
0001
1000
0001
1000
0001
1000
0001
0010
0100
1000
0000
0001
1000
0100
0000
,
0010
0100
0010
0100
0010
0100
0010
0100
1000
0010
0100
0000
0010
1000
0100
0000
,
1000
0010
1000
0010
1000
0100
1000
0100
0010
0001
0010
0001
0100
0001
0100
0001
,
0010
1000
0010
1000
0010
0001
0010
0001
0100
0010
1000
0000
0001
1000
0100
0000
,
0001
0100
0001
0100
1000
0010
1000
0010
1000
0001
0010
0000
0001
1000
0010
0000
,
0100
0010
0100
0010
0100
0010
0100
0010
0001
0010
1000
0010
0100
0010
1000
0000
,
0001
1000
0001
1000
0001
1000
0001
1000
0001
0010
0100
1000
0010
0100
0001
1000
,
0010
0100
0010
0100
0010
0100
0010
0100
0000
0000
0000
0000
0000
0000
0000
0000
;

//---------------dance-single - ----------------
#NOTES:
     dance-single:
     :
     Hard:
     15:
     0.756082,0.823452,0.031225,0.507400,0.796228,678.000000,674.000000,4.000000,65.000000,0.000000,0.000000,0.756082,0.823452,0.031225,0.507400,0.796228,678.000000,674.000000,4.000000,65.000000,0.000000,0.000000:
0000
0000
0000
0000
,
0000
0000
0000
0000
,
0000
0000
0000
0000
,
0000
0000
0000
0000
,
1000
0100
1000
0100
1000
0100
1000
0100
2000
0000
0000
0000
3000
0000
0000
0000
,
0001
0100
0001
0100
0001
0100
0001
0100
0002
0000
0000
0000
0003
0000
0000
0000
,
1000
0010
1000
0010
1000
0010
1000
0010
2000
0000
0000
0000
3000
0000
0000
0000
,
0001
0010
0001
0010
0001
0010
0001
0010
0002
0000
0000
0000
0003
0000
0000
0000
,
1002
0000
1000
0000
1003
0010
0100
0002
,
0010
0000
0000
0000
0013
0000
0000
0001
1000
0000
0001
0000
1000
0000
0100
0000
,
2000
0000
0000
0000
3010
0000
0000
1000
0100
0000
0010
0000
0001
0000
0100
0000
,
0020
0000
0000
0000
1000
0000
0000
0000
1000
0000
0000
0000
0130
0010
0100
0010
,
0200
0000
0000
0000
0001
0000
0000
0000
0301
0100
0001
0000
1000
0010
1000
0000
,
0002
0000
0000
0000
1003
0000
0000
0001
0010
0000
0100
0000
1000
0000
0100
0000
,
0020
0000
0000
0000
0000
0000
0031
1000
0002
0000
0000
0000
0000
0000
0103
0010
,
0200
0000
0000
0000
0000
0000
0310
1000
0010
0100
0010
0000
1000
0001
1000
0000
,
2001
0000
0000
0000
3100
0000
0000
1000
0010
0000
0100
0000
0001
0000
2000
0000
,
0001
0000
0000
0000
3100
0000
0000
1000
0001
0000
0010
0000
0100
0000
1000
0000
,
0020
0000
0000
0000
1030
0000
0000
0010
0100
0000
0001
0000
1000
0000
0100
0000
,
2000
0000
0000
0000
0001
0000
0000
0000
3010
0100
0010
0000
1000
0001
1000
0000
,
2100
0000
0000
0000
3001
0000
0000
0000
1000
0010
1000
0000
0001
0010
0001
0000
,
0200
0000
0000
0000
0301
0000
0000
0100
0010
0000
1000
0000
0001
0000
1000
0000
,
0002
0000
0000
0000
0013
0000
0001
1000
0002
0000
0000
0000
0103
0000
0010
1000
,
0020
0000
0000
0000
0030
0000
0100
0001
0100
0000
0010
0000
1000
0000
0001
0000
,
0021
0000
0000
0000
0031
0000
0000
0010
0100
0000
1000
0000
0001
0000
0200
0000
,
1000
0000
0000
0000
0301
0000
0000
0100
0010
0000
1000
0000
0100
0000
0010
0000
,
0002
0000
0000
0000
0103
0000
0001
1000
0010
0000
0100
0000
0010
0000
1000
0000
,
0200
0000
0000
0000
0001
0000
0000
0000
1300
0010
1000
0010
0100
0001
0100
0001
,
2000
0000
0000
0000
0100
0000
0000
0000
3010
0100
0010
0100
0001
1000
0001
1000
,
0002
0000
0000
0000
0103
0000
0000
0001
1000
0000
0010
0000
1000
0000
0100
0000
,
2000
0000
0000
0000
3010
0000
0100
0001
0200
0000
0000
0000
0310
0000
1000
0001
,
2000
0000
0000
0000
0000
0000
3010
0100
0020
0000
2030
0000
3002
0000
0203
0000
,
0301
0010
0001
0010
0001
0010
0001
0010
0001
0000
1000
0000
0010
0000
0100
0000
,
0001
0100
0001
0100
0001
0100
0001
0100
0001
0000
1000
0000
0100
0000
0010
0000
,
0100
1000
0100
1000
0100
1000
0100
1000
0100
0000
0010
0000
0001
0000
0100
0000
,
0010
1000
0010
1000
0010
1000
0010
1000
0010
0100
0001
0000
0100
0001
0100
0000
,
0010
0100
0010
0100
0010
0100
0010
0100
0010
0000
1000
0000
0001
0000
0100
0000
,
0001
1000
0001
1000
0001
1000
0001
1000
0001
0000
0100
0000
0010
0000
1000
0000
,
0100
0010
0100
0010
0100
0010
0100
0010
0100
0000
1000
0000
0001
0000
0010
0000
,
0001
0100
0001
0100
0001
0100
0001
0100
0001
0010
0100
0010
0002
0000
0000
0000
,
2003
0100
3100
0000
1000
0010
0100
0001
,
0200
0000
0010
0000
0310
0000
0100
0001
1000
0000
0001
0000
0010
0000
0100
0000
,
2000
0000
0001
0000
3001
0000
0010
0100
1000
0000
0001
0000
0100
0000
0010
0000
,
0200
0000
0001
0000
0301
0000
0000
0000
0010
0001
0010
0001
1000
0100
1000
0100
,
0020
0000
0100
0000
0130
0000
0000
0000
0010
0001
1000
0000
0010
1000
0001
0000
,
0200
0000
0010
0000
0310
0000
0000
1000
0001
0000
1000
0000
0010
0000
0100
0000
,
0002
0000
0010
0000
0013
0000
0001
1000
0200
0000
0010
0000
0310
0000
0100
1000
,
0020
0000
0000
0000
0000
0000
1030
0010
1000
0100
1000
0100
0010
0001
0010
0001
,
0200
0001
0301
0000
0200
0320
2030
3002
,
0023
0000
0100
0000
0130
0000
0010
0001
2000
0000
3020
0000
0230
0000
0302
0000
,
2003
0000
0001
0000
3001
0000
0100
0001
0020
0000
0230
0000
2300
0000
3020
0000
,
0230
0000
0010
0000
0310
0000
0000
0000
0100
0001
1000
0001
1000
0100
1000
0010
,
2000
0000
0001
0000
3001
0000
0000
0000
1000
0010
0100
0010
0100
0010
0100
0001
,
0020
0000
0001
0000
0031
0000
0000
1000
0001
0000
0100
0000
0010
0000
1000
0000
,
0010
0100
0010
0100
0010
1000
0010
1000
0001
0100
0001
0100
0001
1000
0001
1000
,
0020
0000
0000
0000
0030
0000
0010
0100
0001
1000
0001
1000
0100
0010
0100
1000
,
0010
1000
0010
1000
0010
1000
0010
1000
0010
0000
0100
0000
0001
0000
1000
0000
,
0100
0010
0100
0010
0100
0010
0100
0010
0100
0000
1000
0000
0010
0000
0100
0000
,
0001
0010
0001
0010
0001
0010
0001
0010
0001
0000
0010
0000
0100
0000
1000
0000
,
0001
1000
0001
1000
0001
1000
0001
1000
0001
0010
0100
0000
0010
0100
1000
0000
,
0010
0100
0010
0100
0010
0100
0010
0100
0010
0000
1000
0000
0001
0000
0100
0000
,
0001
0100
0001
0100
0001
0100
0001
0100
0001
0000
0010
0000
0100
0000
1000
0000
,
0001
0010
0001
0010
0001
0010
0001
0010
0001
0000
1000
0000
0100
0000
0010
0000
,
0100
1000
0100
1000
0100
1000
0100
1000
0100
0010
0001
1000
0010
0100
0001
0000
,
1000
0100
1000
0100
1000
0100
1000
0100
0010
0000
0001
0000
1000
0000
0010
0000
,
0100
0001
0100
0001
0100
0001
0100
0001
1000
0000
0010
0000
0100
0000
0001
0000
,
0010
0100
0010
0100
0010
0100
0010
0100
1000
0000
0010
0000
0100
0000
0001
0000
,
1000
0001
1000
0001
1000
0001
1000
0001
1000
0100
0010
0001
0100
0000
0010
0000
,
1000
0010
1000
0010
1000
0010
1000
0010
0100
0000
0010
0000
1000
0000
0001
0000
,
0010
0001
0010
0001
0010
0001
0010
0001
0100
0000
0010
0000
1000
0000
0001
0000
,
0010
0100
0010
0100
0010
0100
0010
0100
1000
0000
0010
0000
1000
0000
0001
0000
,
1000
0100
1000
0100
1000
0100
1000
0100
0010
0001
1000
0001
0100
0010
1000
0000
,
0020
0000
0000
0030
;

//---------------dance-single - ----------------
#NOTES:
     dance-single:
     :
     Medium:
     13:
     0.612226,0.676794,0.109286,0.405920,0.437145,549.000000,535.000000,14.000000,52.000000,0.000000,0.000000,0.612226,0.676794,0.109286,0.405920,0.437145,549.000000,535.000000,14.000000,52.000000,0.000000,0.000000:
0000
0000
0000
0000
,
0000
0000
0000
0000
,
0000
0000
0000
0000
,
0000
0000
0000
0000
,
1000
0100
1000
0000
0100
1000
0100
0000
0000
0000
0000
0000
0000
0000
0000
0000
,
0001
0100
0001
0000
0100
0001
0100
0000
0000
0000
0000
0000
0000
0000
0000
0000
,
1000
0010
1000
0000
0010
1000
0010
0000
0000
0000
0000
0000
0000
0000
0000
0000
,
0001
0010
0001
0000
0010
0001
0010
0000
0002
0000
0000
0000
0003
0000
0000
0000
,
2002
0000
3003
0000
1000
0010
0100
0002
,
0000
0000
0000
0000
0000
0000
0000
1003
0001
0000
1000
0000
0010
0000
0100
0000
,
0020
0000
0000
0000
0000
0000
0000
0130
0010
0000
1000
0000
0001
0000
1000
0000
,
0200
0000
0000
0000
0000
0000
0000
0000
0000
0000
0000
0000
1300
0001
1000
0001
,
2000
0000
0000
0000
0000
0000
0000
0000
3010
0100
0010
0000
0100
0010
0100
0000
,
0002
0000
0000
0000
0000
0000
0000
0103
0001
0000
0100
0000
0010
0000
1000
0000
,
0020
0000
0000
0000
0000
0000
1030
0010
2000
0000
0000
0000
0000
0000
3001
1000
,
0002
0000
0000
0000
0000
0000
0013
0001
0010
0000
0100
0000
1000
0000
0001
0000
,
1002
0000
0013
0000
0001
1000
0010
0200
,
1000
0000
0000
0000
0310
0000
0000
0100
0001
0000
1000
0000
0001
0000
0010
0000
,
0200
0000
0000
0000
1300
0000
0000
0010
1000
0000
0001
0000
0100
0000
0001
0000
,
0020
0000
0000
0000
0000
0000
0000
0000
0031
1000
0001
0000
1000
0001
1000
0000
,
0020
0000
0000
0000
0000
0000
0000
0000
1030
0010
1000
0000
0001
0010
0001
0000
,
0200
0000
0000
0000
0000
0000
0000
0310
0100
0000
0001
0000
1000
0000
0100
0000
,
2000
0000
0000
0000
0000
0000
3001
0100
0002
0000
0000
0000
0000
0000
0103
0010
,
0200
0000
0000
0000
0000
0000
0310
1000
0010
0000
0100
0000
0001
0000
1000
0000
,
2100
0000
3010
0000
1000
0001
0010
0200
,
0001
0000
1300
0000
0010
0100
0001
1000
,
0201
0000
0310
0000
1000
0100
0010
0001
,
0200
0000
0000
0000
0000
0000
0000
0000
0310
0100
0010
0000
1000
0001
1000
0000
,
0002
0000
0000
0000
1000
0000
0000
0000
1003
0100
1000
0000
0001
0100
0001
0000
,
0020
0000
0000
0000
0130
0000
0000
0010
0001
0000
1000
0000
0010
0000
1000
0000
,
0020
0000
0000
0000
0000
0000
0130
0001
0200
0000
0000
0000
0000
0000
0301
1000
,
0002
0000
0000
0000
0000
0000
1003
0010
1000
0000
0001
0000
0100
0000
0010
0000
,
1000
0100
1000
0000
0100
1000
0100
0000
1000
0000
0010
0000
0100
0000
0001
0000
,
0010
0001
0010
0000
0001
0010
0001
0000
0100
0000
0010
0000
1000
0000
0001
0000
,
1000
0010
1000
0000
0010
1000
0010
0000
0100
0000
0001
0000
1000
0000
0010
0000
,
0100
0001
0100
0000
0001
0100
0001
0000
1000
0000
0100
0000
0010
0000
0001
0000
,
1000
0001
1000
0000
0001
1000
0001
0000
0100
0000
0010
0000
1000
0000
0001
0000
,
0010
0100
0010
0000
0100
0010
0100
0000
0010
0000
0001
0000
1000
0000
0100
0000
,
1000
0010
1000
0000
0010
1000
0010
0000
0100
0000
0001
0000
1000
0000
0010
0000
,
0100
0001
0100
0000
0001
0100
0001
0000
1000
0000
0001
0000
0100
0000
0000
0000
,
0220
0000
0330
0000
1000
0010
0100
0001
,
0022
0000
0000
0000
0033
0000
0001
0100
0001
0000
0010
0000
0100
0000
1000
0000
,
2200
0000
0000
0000
3300
0000
1000
0010
1000
0000
0100
0000
0010
0000
0001
0000
,
0202
0000
0000
0000
0003
0000
0000
0000
0310
0100
0010
0000
1000
0100
1000
0000
,
0002
0000
0000
0000
0000
0000
0000
0000
0013
0001
0010
0000
0001
0100
0001
0000
,
2000
0000
0000
0000
0000
0000
0000
3100
1000
0000
0001
0000
0010
0000
0100
0000
,
0020
0000
0000
0000
0000
0000
0031
1000
0002
0000
0000
0000
0000
0000
1003
0001
,
2000
0000
0000
0000
0000
0000
3010
0100
0010
0100
0010
0000
1000
0001
1000
0000
,
2020
0000
0000
0000
3030
0000
0001
0010
0001
0000
1000
0000
0010
0000
0100
0000
,
0202
0000
0000
0000
0303
0000
0001
0010
0001
0000
1000
0000
0100
0000
0010
0000
,
0200
0000
0000
0000
0000
0000
1300
0001
1000
0000
0010
0000
0100
0000
0001
0000
,
2000
0000
0000
0000
0000
0000
0000
0000
3001
0100
0001
0100
0001
0000
1000
0000
,
2010
0000
0000
0000
0001
0000
0000
0000
3100
1000
0100
1000
0100
0000
0010
0000
,
0021
0000
0000
0000
0031
0000
0000
1000
0001
0000
1000
0000
0010
0000
0100
0000
,
0001
1000
0001
1000
0001
0000
0000
0000
0100
0010
0100
0010
0100
0000
0000
0000
,
0220
0000
0000
0000
0300
0000
1030
0010
1000
0010
1000
0010
1000
0000
0001
0000
,
0010
0001
0010
0000
0001
0010
0001
0000
1000
0000
0010
0000
0100
0000
0001
0000
,
1000
0100
1000
0000
0100
1000
0100
0000
1000
0000
0010
0000
0100
0000
0001
0000
,
1000
0010
1000
0000
0010
1000
0010
0000
1000
0000
0100
0000
0010
0000
0001
0000
,
0100
0001
0100
0000
0001
0100
0001
0000
1000
0000
0001
0000
0010
0000
0100
0000
,
1000
0001
1000
0000
0001
1000
0001
0000
1000
0000
0010
0000
0100
0000
0001
0000
,
0100
0010
0100
0000
0010
0100
0010
0000
1000
0000
0100
0000
0010
0000
0001
0000
,
0010
0001
0010
0000
0001
0010
0001
0000
1000
0000
0010
0000
0100
0000
0001
0000
,
1000
0010
1000
0000
0010
1000
0010
0000
0100
0000
0001
0000
1000
0000
0000
0000
,
0010
0100
0010
0000
1000
0001
1000
0000
0001
0000
0010
0000
0100
0000
1000
0000
,
0001
0100
0001
0000
1000
0100
1000
0000
0010
0000
1000
0000
0001
0000
0100
0000
,
0010
1000
0010
0000
0100
0001
0100
0000
0001
0000
1000
0000
0100
0000
0010
0000
,
0100
1000
0100
0000
0010
0001
0010
0000
0001
0000
1000
0000
0010
0000
0100
0000
,
0001
1000
0001
0000
1000
0100
1000
0000
0010
0000
0100
0000
0001
0000
1000
0000
,
0100
0010
0100
0000
0010
0001
0010
0000
0001
0000
1000
0000
0010
0000
0100
0000
,
0001
1000
0001
0000
0100
0001
0100
0000
0010
0000
0100
0000
0001
0000
1000
0000
,
0100
1000
0100
0000
1000
0010
1000
0000
0010
0000
0100
0000
0001
0000
0000
0000
,
1000
0001
1000
0000
1001
0000
0000
0000
0000
0000
0000
0000
0000
0000
0000
0000
;

//---------------dance-single - ----------------
#NOTES:
     dance-single:
     :
     Easy:
     10:
     0.424878,0.454318,0.202960,0.374696,0.000000,381.000000,355.000000,26.000000,48.000000,0.000000,0.000000,0.424878,0.454318,0.202960,0.374696,0.000000,381.000000,355.000000,26.000000,48.000000,0.000000,0.000000:
0000
0000
0000
0000
,
0000
0000
0000
0000
,
0000
0000
0000
0000
,
0000
0000
0000
0000
,
1000
0100
1000
0100
0000
0000
0000
0000
,
0001
0100
0001
0100
0000
0000
0000
0000
,
1000
0010
1000
0010
0000
0000
0000
0000
,
0001
0010
0001
0010
0000
0000
0000
0000
,
2002
3000
0100
1003
,
0020
0000
0130
0010
,
0220
0300
0001
0130
,
2000
0000
0000
0000
3010
0100
0010
0100
,
0020
0000
0000
0000
1030
0001
1000
0001
,
0200
0000
0000
0000
0301
0100
0001
0100
,
0002
0100
2003
0100
,
3020
0000
0000
0000
0130
0010
0100
0010
,
2000
3001
0100
0010
,
0200
0301
1000
0010
,
0200
0310
1000
0001
,
0020
0000
0000
0000
0031
0100
0001
0100
,
0020
0000
0130
0000
0001
1000
0001
1000
,
0002
0013
0100
1000
,
0020
1000
0230
0010
,
0302
0000
0000
0000
0013
0001
0010
0001
,
2000
0000
0000
0000
3010
0100
0010
0200
,
0000
0000
0000
0000
0301
1000
0001
1000
,
0020
0000
0000
0000
0130
0010
0100
0010
,
2000
3000
1100
0101
,
0002
0000
0000
0000
1003
0010
1000
0010
,
0200
0000
0000
0000
0310
0100
0010
0100
,
0002
1000
0203
1000
,
0320
0000
0000
0000
1030
0100
1000
0000
,
0001
0100
0001
0100
0001
0000
1001
0000
,
1000
0100
1000
0100
1000
0000
0110
0000
,
0001
0010
0001
0010
0001
0000
0110
0000
,
1000
0010
1000
0010
1000
0000
1001
0000
,
0010
0100
0010
0100
0010
0000
0101
0000
,
0001
1000
0001
1000
0001
0000
1100
0000
,
1000
0001
1000
0001
1000
0000
1010
0000
,
0100
0010
0100
0010
0100
0000
0101
0000
,
2002
0000
0003
0000
3001
1000
0100
0010
,
0002
0000
0000
1003
0001
1000
0010
0100
,
0020
0000
0000
0130
0010
1000
0100
0010
,
0002
0003
0011
1010
,
0220
0000
0030
0000
0301
0100
0010
1000
,
0002
0000
0003
0000
0001
0100
0010
0100
,
0020
0000
0030
1000
0002
0000
0003
0010
,
0200
0000
0300
1000
0010
0100
0010
1000
,
0002
0000
0000
0000
0103
0010
0100
0010
,
2000
0000
0000
0000
3001
1000
0100
1000
,
0020
0000
0000
0000
0130
0010
1000
0001
,
2000
3000
1001
0110
,
0002
0000
0000
0000
1003
0001
1000
0100
,
0020
0000
0000
0000
0031
1000
0001
0100
,
0001
0010
0100
1000
0001
0100
0010
1000
,
0002
0000
0000
0000
1000
1000
1000
1003
,
0001
0100
0001
0100
0001
0000
0011
0000
,
1000
0100
1000
0100
1000
0000
1010
0000
,
0001
0010
0001
0010
0001
0000
0110
0000
,
1000
0010
1000
0010
1000
0000
0101
0000
,
0100
0010
0100
0010
0100
0000
1001
0000
,
0010
0100
0010
0100
0010
0000
0101
0000
,
0001
1000
0001
1000
0001
0000
0011
0000
,
1000
0001
1000
0001
1000
0000
1100
0000
,
0010
0100
0001
0100
0010
0100
0001
0000
,
1000
0001
0010
0001
1000
0001
0010
0000
,
0001
1000
0100
1000
0001
1000
0100
0000
,
1000
0010
0100
0010
1000
0010
0100
0000
,
0001
1000
0010
0100
0001
0010
0100
0000
,
1000
0010
0100
0001
0010
0100
1000
0000
,
0001
1000
0010
0100
0010
1000
0001
0000
,
0010
0100
1000
0010
1000
0001
0100
0010
,
2000
0000
0000
3000
;

//---------------dance-single - ----------------
#NOTES:
     dance-single:
     :
     Beginner:
     5:
     0.186233,0.227159,0.078062,0.015612,0.000000,167.000000,157.000000,10.000000,2.000000,0.000000,0.000000,0.186233,0.227159,0.078062,0.015612,0.000000,167.000000,157.000000,10.000000,2.000000,0.000000,0.000000:
// measure 0
0000
0000
0000
0000
,  // measure 1
0000
0000
0000
0000
,  // measure 2
0000
0000
0000
0000
,  // measure 3
0000
0000
0000
0000
,  // measure 4
1000
1000
0000
0000
,  // measure 5
0010
0010
0000
0000
,  // measure 6
0100
0100
0000
0000
,  // measure 7
0001
0001
0000
0000
,  // measure 8
1001
0000
0100
0000
,  // measure 9
0100
0000
0100
0000
,  // measure 10
1001
0000
0010
0000
,  // measure 11
0010
0000
0010
0000
,  // measure 12
0110
0000
1000
0000
,  // measure 13
1000
0000
1000
0000
,  // measure 14
0110
0000
0001
0000
,  // measure 15
0001
0000
0001
0000
,  // measure 16
1001
0000
1000
1000
,  // measure 17
1000
0000
0010
0010
,  // measure 18
0010
0000
0100
0100
,  // measure 19
0100
0000
0001
0001
,  // measure 20
0001
0000
1000
1000
,  // measure 21
1000
0000
0010
0010
,  // measure 22
0010
0000
0100
0000
,  // measure 23
0110
0000
0001
0001
,  // measure 24
0001
0000
1000
0000
,  // measure 25
0010
0000
0100
0000
,  // measure 26
0010
0000
1000
0000
,  // measure 27
0001
0000
0100
0100
,  // measure 28
0100
0000
0010
0000
,  // measure 29
1000
0000
0001
0000
,  // measure 30
0010
0000
0100
0000
,  // measure 31
1000
0000
0001
0000
,  // measure 32
0001
0001
0000
0000
,  // measure 33
0010
0010
0000
0000
,  // measure 34
0100
0100
0000
0000
,  // measure 35
1000
1000
0000
0000
,  // measure 36
0010
0010
0000
0000
,  // measure 37
0100
0100
0000
0000
,  // measure 38
0001
0001
0000
0000
,  // measure 39
1000
1000
0000
0000
,  // measure 40
1001
0000
0001
1000
,  // measure 41
0001
0000
0100
0010
,  // measure 42
0100
0000
0010
1000
,  // measure 43
0001
0000
1000
0001
,  // measure 44
1001
0000
0100
0010
,  // measure 45
1000
0000
0100
0010
,  // measure 46
0001
0000
0100
0000
,  // measure 47
0110
0000
0100
0010
,  // measure 48
1000
0000
0001
1000
,  // measure 49
0010
0000
0010
0100
,  // measure 50
0010
0000
1000
0100
,  // measure 51
0001
0000
0010
0000
,  // measure 52
0110
0000
0100
0001
,  // measure 53
1000
0000
0010
0000
,  // measure 54
1000
1000
0001
0001
,  // measure 55
0020
0000
0030
0000
,  // measure 56
0001
0001
0000
0000
,  // measure 57
1000
1000
0000
0000
,  // measure 58
0010
0010
0000
0000
,  // measure 59
0100
0100
0000
0000
,  // measure 60
0010
0010
0000
0000
,  // measure 61
1000
1000
0000
0000
,  // measure 62
0001
0001
0000
0000
,  // measure 63
0100
0100
0000
0000
,  // measure 64
0001
0010
0000
0000
,  // measure 65
0100
1000
0000
0000
,  // measure 66
0010
1000
0000
0000
,  // measure 67
0001
0100
0000
0000
,  // measure 68
0010
0100
0000
0000
,  // measure 69
0001
1000
0000
0000
,  // measure 70
0100
0010
0000
0000
,  // measure 71
0100
1000
0000
0000
,  // measure 72
0002
0000
0000
0003
;
