#TITLE:Bring Me to Life;
#SUBTITLE:;
#ARTIST:Evanescence;
#TITLETRANSLIT:;
#SUBTITLETRANSLIT:;
#ARTISTTRANSLIT:;
#GENRE:;
#CREDIT:;
#BANNER:Bring Me to Life-bn.png;
#BACKGROUND:Bring Me to Life-bg.png;
#LYRICSPATH:;
#CDTITLE:;
#MUSIC:Bring Me to Life.ogg;
#OFFSET:2.200000;
#SAMPLESTART:52.115002;
#SAMPLELENGTH:20.000000;
#LASTBEATHINT:1.900000;
#SELECTABLE:YES;
#DISPLAYBPM:95.000000;
#BPMS:0.000000=95.000000
;
#STOPS:84.000000=0.631000
;
#BGCHANGES:;
#KEYSOUNDS:;
#ATTACKS:;

//---------------dance-single - ----------------
#NOTES:
     dance-single:
     :
     Hard:
     11:
     0.385048,0.429691,0.234377,0.500004,0.308596,345.000000,315.000000,30.000000,64.000000,0.000000,0.000000,0.385048,0.429691,0.234377,0.500004,0.308596,345.000000,315.000000,30.000000,64.000000,0.000000,0.000000:
0000
0000
0000
0000
,
0000
0000
0000
0000
,
0000
0000
0000
0000
,
0000
0000
0000
0000
,
0000
0000
0000
0000
,
0002
0000
0000
0000
1003
0001
0000
0200
,
0000
0000
0310
0200
0000
0302
0000
1003
,
0001
0000
0000
0010
2000
0001
0000
3200
,
0000
1000
0002
0003
1000
0002
0003
1300
,
0002
0000
0000
0000
1003
0020
0000
0230
,
0000
0000
0301
0020
0000
0230
0000
1300
,
0010
0000
0000
0001
2000
0100
0000
3020
,
0000
1030
0010
0200
0001
0000
0310
0000
,
1000
0001
0000
1000
0100
0000
0010
0000
0001
0000
0100
0000
0010
0000
2000
0000
,
0000
3001
1000
0000
0001
0010
0000
0010
0100
0000
0100
1000
0000
1000
0001
0000
,
0010
0001
0000
1000
0010
0000
0100
0000
0101
0000
1000
0000
0001
0000
0011
0000
,
0000
1100
0000
0110
0000
1001
0100
0010
,
1010
0000
0000
1000
0100
0000
0010
0000
0001
0000
0100
0000
0001
0000
2000
0000
,
0010
0001
3001
0200
0010
0320
1000
0130
,
1000
0001
1000
0000
0100
0000
0010
0000
0002
0000
1000
0000
0103
0000
0010
0000
,
1000
0001
1000
0000
0010
0100
0000
0100
0001
0000
0001
0010
0000
0100
1000
0000
,
0110
0000
0000
0000
2000
0000
3002
0000
0023
0000
0000
0031
0030
0100
0000
0010
,
0000
1000
0000
1000
0002
0000
3203
0000
0320
0000
0000
0130
0030
0001
0000
1000
,
0000
1000
0100
0000
1001
0000
0001
0000
2010
0000
0000
0000
3001
0000
0010
0000
,
0100
1000
1100
0000
0110
0000
0011
0000
,
1000
0001
0100
0010
2000
0000
3200
0000
0320
0000
0000
0031
0000
1000
0000
0001
,
0000
0010
0000
0100
2000
0000
3002
0000
0023
0000
0000
0130
0000
0010
0000
0001
,
0000
1000
0100
0000
1001
0000
0010
0000
0102
0000
0000
0000
1003
0000
0001
0000
,
0010
0100
1100
0000
0011
0000
0101
0000
,
1010
0000
0000
0000
1000
0001
0000
1000
0001
0000
1000
0001
0000
1000
0001
0000
,
1000
0001
0200
0000
0310
1000
0000
1000
0100
0000
0010
0000
0001
0000
0100
0300
,
0001
0000
2000
0000
0000
3010
1000
0000
0001
0000
0010
0000
0001
0000
0100
0000
,
0010
0000
1000
0000
0100
0010
0000
0010
0001
0000
1000
0000
0110
0000
0100
0000
,
0001
0000
2010
0000
0000
0000
3010
0100
0010
0000
0000
1000
0001
0000
0201
0000
,
0010
0000
0301
1000
0002
0000
0000
0013
0100
0000
0010
0000
0001
0000
0100
0000
,
0010
1000
0001
1000
0010
0100
0001
0010
,
0100
0000
1000
0000
0001
0100
0001
0000
1000
0000
0000
0000
1100
0000
0010
0000
,
0001
0100
1001
0010
1000
0100
0010
0001
,
1000
0000
0010
0100
0000
0001
0000
0001
0100
0000
0100
0010
0000
0010
2000
0000
,
0002
0000
3003
0000
0200
0000
0302
0000
0023
0000
0000
0031
0000
1000
0000
0010
,
0000
1000
0000
0100
2000
0000
3002
0000
0023
0000
0000
0031
0000
0100
0000
1000
,
0000
1000
0010
0000
0101
0000
1000
0000
0012
0000
0000
0000
0013
0000
0001
0000
,
0100
0010
1010
0000
0101
0000
1100
0000
,
0001
0010
0100
1000
0002
0000
2003
0000
3020
0000
0000
1030
0000
0100
0000
0010
,
0000
0001
0000
0100
0002
0000
0203
0000
0320
0000
0000
1030
0000
0010
0000
1000
,
0000
0001
0100
0000
1010
0000
0001
0000
1200
0000
0000
0000
1300
0000
0001
0000
,
0010
0100
2000
0000
3002
0000
0203
0000
,
0310
1000
0001
1000
0020
0000
0000
0000
0000
0000
0000
0000
2030
0000
0000
0000
,
0000
3200
0000
0320
,
0000
0032
0000
0000
,
0003
0000
0000
0000
;

//---------------dance-single - ----------------
#NOTES:
     dance-single:
     :
     Medium:
     8:
     0.255582,0.292971,0.078126,0.234377,0.082032,229.000000,219.000000,10.000000,30.000000,0.000000,0.000000,0.255582,0.292971,0.078126,0.234377,0.082032,229.000000,219.000000,10.000000,30.000000,0.000000,0.000000:
0000
0000
0000
0000
,
0000
0000
0000
0000
,
0000
0000
0000
0000
,
0000
0000
0000
0000
,
0000
0000
0000
0000
0000
0000
0000
0010
,
1000
0000
0001
0100
0000
0000
0001
0000
,
0000
1000
0000
0000
0100
0000
0000
1000
,
0001
0000
0100
0010
0000
0000
0100
0000
,
0000
0001
0000
0000
0010
0000
0000
0100
,
1000
0000
0001
0100
0000
0000
0010
0000
,
0000
1000
0000
0000
0001
0000
0000
1000
,
0001
0000
0010
0100
0000
0000
1000
0000
,
0000
0010
0000
0000
0200
0000
0300
0000
,
0001
0000
0000
1000
0000
0000
0001
0000
0000
0000
0100
0000
0010
0000
0000
0000
,
0000
0000
1000
0000
0001
0000
0000
0000
0010
0000
0000
0100
0000
0000
1000
0000
,
0010
0000
0000
0100
0000
0000
0001
0000
0000
0000
1000
0000
0100
0000
0000
0000
,
0000
0000
1000
0000
0010
0000
0000
0000
1000
0000
0000
0001
0000
0000
0100
0000
,
0001
0000
0000
0010
0000
0000
0100
0000
0000
0000
1000
0000
0001
0000
0000
0000
,
0000
0000
0010
0000
0001
0000
0000
0000
0100
0000
0000
0001
0000
0000
1000
0000
,
0001
0000
0000
0100
0000
0000
1000
0000
0000
0000
0010
0000
0100
0000
0000
0000
,
0000
0000
0010
0000
1000
0000
0000
0000
0100
0000
0000
0010
0000
0000
0001
0000
,
1001
0000
1000
0001
0020
0000
0031
0100
,
1000
0000
0001
0100
0020
0000
1030
0100
,
0001
0000
0011
0000
1100
0000
0001
0100
,
0010
1000
0002
0000
0023
0000
0230
0000
,
2300
0000
3100
1000
0020
0000
1030
0001
,
0100
0000
0001
1000
0020
0000
0130
0010
,
1000
0000
1010
0000
0101
0000
0010
1000
,
0001
0100
0002
0000
0023
0000
0230
0000
,
2300
3010
0010
0010
,
1000
0001
1000
0000
0010
0000
0000
1000
0000
0000
0010
0000
0000
0100
0000
0000
,
0001
0000
1000
0000
0000
0000
0100
0000
0010
0000
0000
0000
0001
0000
0000
0100
,
0000
0000
1000
0000
0001
0000
0000
0010
0000
0000
0100
0000
0000
1000
0000
0000
,
0010
0000
0100
0000
0000
0000
0100
0000
0001
0000
0000
0000
1000
0000
0000
0010
,
0000
0000
1000
0000
0100
0000
0000
0010
0000
0000
0100
0000
0000
1000
0000
0000
,
0001
0000
0010
0000
0000
0000
0001
0000
1000
0000
0000
0000
0001
0000
0000
0100
,
0000
0000
0010
0000
0100
0000
0000
0001
0000
0000
0010
0000
0000
0100
0000
0000
,
1000
0000
0001
0000
0000
0000
1000
0000
0010
0000
0000
0000
0100
0000
0000
0001
,
0000
1000
0100
0010
0001
0100
0010
1000
,
1001
3000
1003
0100
0020
0000
0130
0010
,
0001
0000
0100
0001
0020
0000
0031
1000
,
0100
0000
1100
0000
0101
0000
0001
1000
,
0010
0100
0002
0000
0023
0000
0230
0000
,
2300
0000
3001
1000
0020
0000
0130
0001
,
1000
0000
0100
1000
0020
0000
1030
3001
,
0010
0000
0011
0000
1010
0000
0100
0010
,
0001
1000
0002
0000
2003
0000
3020
0000
,
0230
0302
0000
2003
,
0000
3020
0000
0230
,
0000
0302
0000
0000
,
0003
0000
0000
0000
;

//---------------dance-single - ----------------
#NOTES:
     dance-single:
     :
     Easy:
     6:
     0.183037,0.234377,0.093751,0.281252,0.000000,164.000000,152.000000,12.000000,36.000000,0.000000,0.000000,0.183037,0.234377,0.093751,0.281252,0.000000,164.000000,152.000000,12.000000,36.000000,0.000000,0.000000:
0000
0000
0000
0000
,
0000
0000
0000
0000
,
0000
0000
0000
0000
,
0000
0000
0000
0000
,
0000
0000
0000
0000
,
0002
0003
2000
3000
,
0200
0300
0020
0030
,
0002
0003
0200
0300
,
2000
0000
0000
3000
,
0020
0030
2000
3300
,
0200
0300
0020
0030
,
0002
0003
0200
0300
,
0001
1000
0020
0030
,
1000
0001
0010
0100
,
0010
0001
0100
1000
,
0001
0100
0010
0100
,
0001
0010
1000
0100
,
1001
0000
0010
0100
,
0001
1000
0100
1000
,
0001
0000
0100
0000
,
0010
1000
0001
0100
,
0110
0000
0010
1000
0020
0000
0100
0000
,
0130
0000
0010
0001
0020
0000
0100
0000
,
0130
0110
0110
1000
,
0001
1000
0010
0100
,
0001
0000
0010
0001
0020
0000
0100
0000
,
0130
0000
0010
1000
0020
0000
0100
0000
,
0130
1001
1001
0010
,
1000
0001
0100
0010
,
1000
2002
0000
0000
,
3003
0020
0030
1000
,
0100
1000
0001
0010
,
0100
2000
3000
0010
,
1000
0001
0100
0010
,
2000
3200
0300
1000
,
0010
1000
0100
0001
,
0010
0002
0003
2000
,
3000
0010
0130
0001
,
1000
0220
0000
0000
,
0330
0000
0010
1000
0020
0000
0100
0000
,
0130
0000
0010
0001
0020
0000
0100
0000
,
0130
1001
1001
1000
,
0001
0010
0100
0010
,
0001
0000
0010
0001
0020
0000
0100
0000
,
0130
0000
0010
1000
0020
0000
0100
0000
,
0130
0110
0110
0001
,
0100
1000
0001
1000
,
0010
0100
0000
0200
,
0300
0020
0030
2000
,
3000
0002
0000
0000
,
0003
0000
0000
0000
;

//---------------dance-single - ----------------
#NOTES:
     dance-single:
     :
     Beginner:
     2:
     0.080358,0.115431,0.031250,0.000000,0.000000,72.000000,68.000000,4.000000,0.000000,0.000000,0.000000,0.080358,0.115431,0.031250,0.000000,0.000000,72.000000,68.000000,4.000000,0.000000,0.000000,0.000000:
0000
0000
0000
0000
,
0000
0000
0000
0000
,
0000
0000
0000
0000
,
0000
0000
0000
0000
,
0000
0000
0000
0000
,
0001
0000
0000
0000
,
0000
0000
0000
0000
,
0100
0000
0000
0000
,
0000
0000
0000
0000
,
0010
0000
0000
0000
,
0000
0000
0000
0000
,
1000
0000
0000
0000
,
0000
0000
0000
0000
,
0000
0000
0001
0000
,
1000
0000
0000
0000
,
0000
0000
0010
0000
,
1000
0000
0010
0000
,
0100
0000
0001
0000
,
1000
0000
0001
0000
,
0100
0000
0010
0000
,
1000
0000
0000
0000
,
1001
0010
0010
0000
,
0000
0010
0010
0000
,
0000
1000
1000
0000
,
0000
0001
0000
1000
,
0000
0010
0010
0000
,
0000
0010
0010
0000
,
0000
0100
0100
0000
,
0000
0001
0000
1000
,
0000
1001
0000
0000
,
0000
0010
0000
0010
,
0000
1000
0000
1000
,
0000
0001
0000
0010
,
0000
0100
0000
0000
,
0000
1000
0000
1000
,
0000
0001
0000
0001
,
0000
0100
0000
0100
,
0000
0010
0000
0000
,
0000
1001
0000
0000
,
0000
0010
0010
0000
,
0000
0010
0010
0000
,
0000
0001
0001
0000
,
0000
1000
0000
0001
,
0000
0010
0010
0000
,
0000
0010
0010
0000
,
0000
0100
0100
0000
,
0000
1000
0000
0001
,
0000
1001
0000
0000
,
0000
1000
0000
0000
,
0000
0001
0000
0000
;

//---------------dance-single - ----------------
#NOTES:
     dance-single:
     :
     Challenge:
     14:
     0.518977,0.507816,0.421878,0.156251,0.683599,465.000000,411.000000,54.000000,20.000000,0.000000,0.000000,0.518977,0.507816,0.421878,0.156251,0.683599,465.000000,411.000000,54.000000,20.000000,0.000000,0.000000:
// measure 0
0000
0000
0000
0000
,  // measure 1
0000
0000
0000
0000
,  // measure 2
0000
0000
0000
0000
,  // measure 3
0000
0000
0000
0000
,  // measure 4
0000
0000
0000
0000
0000
0000
0000
0010
,  // measure 5
1010
0000
0001
0011
0000
0100
1100
0000
,  // measure 6
0010
1001
0000
0100
0101
0001
1000
0100
,  // measure 7
0110
0000
0010
0011
0000
0001
1001
0000
,  // measure 8
0000
1100
0101
0010
1100
0101
0010
1100
,  // measure 9
0101
0000
1000
1010
0000
0001
0011
0000
,  // measure 10
0100
0110
0000
0010
1001
1000
0100
0010
,  // measure 11
0011
0000
0001
0101
0100
0010
1000
1100
,  // measure 12
0000
0001
1000
1020
0230
0001
0001
0000
,  // measure 13
0310
1000
0000
1000
0100
0000
0010
0001
0000
0001
0100
0000
0010
1000
0001
0000
,  // measure 14
0000
0010
0100
0000
0100
1000
0000
1000
0001
0000
0001
0010
0000
0010
0100
0000
,  // measure 15
1000
0001
0000
0001
0100
0000
0100
0010
0000
0010
1000
0000
0100
0010
0001
0000
,  // measure 16
0000
0010
0001
0000
0001
0100
0000
0100
0010
0000
0010
1000
0000
1000
0001
0000
,  // measure 17
0010
0001
0000
0001
1000
0000
0100
1000
0000
1000
0010
0000
0100
0001
1000
0000
,  // measure 18
0000
0010
1000
0000
0001
1000
0000
1000
0100
0000
0100
0010
0000
0010
0001
0000
,  // measure 19
1000
0001
0000
0010
0100
0000
1000
0010
0000
0100
0001
0000
0010
0001
0100
0000
,  // measure 20
0000
0001
0010
0000
0001
0100
0000
0010
1000
0000
0100
1000
0000
0001
0100
0000
,  // measure 21
0110
0000
0000
0000
0101
0000
1001
0000
1010
0000
0000
1000
0001
1000
0000
0010
,  // measure 22
0000
0100
0000
0001
0011
0000
0110
0000
1100
0000
0000
0010
1000
0001
0000
0010
,  // measure 23
0000
0100
0000
1000
0001
0100
0010
0000
1001
0000
0000
0010
1000
0100
0000
1000
,  // measure 24
0000
0001
0100
0000
0002
0010
0000
0000
2003
0010
0000
0000
3002
0010
0000
0000
,  // measure 25
1003
0100
0010
0001
0011
0000
1001
0000
1010
0000
0000
0100
0001
1000
0000
0100
,  // measure 26
0000
0010
0000
0001
0101
0000
1100
0000
0011
0000
1000
0001
0000
0010
0000
0100
,  // measure 27
0000
1000
0000
0001
0100
0010
1000
0000
0110
0000
0000
0010
1000
0001
0000
0010
,  // measure 28
0000
0100
1000
0000
0002
0010
0000
0000
2003
0010
0000
0000
3002
0010
0000
0000
,  // measure 29
1003
0010
0100
0001
1000
1000
0000
0001
0001
0000
0100
0100
0000
0010
0010
0000
,  // measure 30
1000
0001
1001
0000
0010
0001
0000
1000
0100
0000
1000
0010
0000
0100
0001
0000
,  // measure 31
0010
0100
1000
0001
0000
0001
0100
0000
0100
0010
0000
0010
1000
0000
1000
0001
,  // measure 32
0000
1000
0010
0000
0100
0001
0000
0001
1000
0000
0100
1000
0000
0010
0100
0000
,  // measure 33
0010
1000
0001
0010
0000
0010
0001
0000
0100
0010
0000
1000
0100
0000
0010
0001
,  // measure 34
0000
1000
0001
0000
0100
0010
0000
0010
0100
0000
0001
1000
0000
1000
0001
0000
,  // measure 35
1000
0010
0100
0001
0000
1000
0001
0000
0010
0100
0000
1000
0010
0000
1000
0001
,  // measure 36
0000
1000
0100
0000
0010
0001
0000
0001
0100
0000
0010
1000
0000
1000
0100
0000
,  // measure 37
0001
1000
0010
0100
0000
0010
0100
0000
0001
0010
0000
0100
1000
0000
0001
1000
,  // measure 38
0000
0010
0100
0002
0000
1000
0000
1000
1000
0000
1000
1000
0000
1000
1000
0000
,  // measure 39
2000
0000
0000
3003
1100
0000
0011
0000
0101
0000
0000
0001
0010
0100
0000
0010
,  // measure 40
0000
0001
0000
1000
1100
0000
1001
0000
0110
0000
0000
0100
0001
1000
0000
0010
,  // measure 41
0000
1000
0000
0100
0010
0001
0100
0000
1010
0000
0000
0001
1000
0100
0000
1000
,  // measure 42
0000
0010
0100
0000
0002
0010
0000
0000
2003
0010
0000
0000
3002
0010
0000
0000
,  // measure 43
1003
0001
0100
0010
0110
0000
0101
0000
1010
0000
0000
0010
1000
0001
0000
1000
,  // measure 44
0000
0100
0000
0010
0011
0000
1100
0000
0101
0000
0010
0100
0000
0001
0000
0010
,  // measure 45
0000
0100
0000
1000
0001
0010
0100
0000
0011
0000
0000
0010
0001
0100
0000
1000
,  // measure 46
0000
0010
0100
0000
0002
0010
0000
0000
2003
0010
0000
0000
3002
0010
0000
0000
,  // measure 47
1003
0010
0100
0001
1001
0000
0100
0000
0110
0000
0000
0000
2000
0000
0001
0000
,  // measure 48
0010
3100
0020
0001
0100
1030
0200
1000
,  // measure 49
0001
0310
0002
0000
0000
0000
0000
0000
,  // measure 50
0003
0000
0000
0000
;
