#VERSION:0.83;
#TITLE:Boom, Boom, Boom, Boom!!;
#SUBTITLE:;
#ARTIST:Vengaboys;
#TITLETRANSLIT:;
#SUBTITLETRANSLIT:;
#ARTISTTRANSLIT:;
#GENRE:;
#ORIGIN:;
#CREDIT:;
#BANNER:Boom, Boom, Boom, Boom!!-bn.png;
#BACKGROUND:Boom, Boom, Boom, Boom!!-bg.png;
#PREVIEWVID:;
#JACKET:Boom, Boom, Boom, Boom!!-jacket.png;
#CDIMAGE:;
#DISCIMAGE:;
#LYRICSPATH:;
#CDTITLE:;
#MUSIC:Boom, Boom, Boom, Boom!!.ogg;
#OFFSET:0.000000;
#SAMPLESTART:54.155998;
#SAMPLELENGTH:20.000000;
#SELECTABLE:YES;
#DISPLAYBPM:138.000000;
#BPMS:0.000=138.490;
#STOPS:;
#DELAYS:;
#WARPS:;
#TIMESIGNATURES:0.000=4=4;
#TICKCOUNTS:0.000=4;
#COMBOS:0.000=1;
#SPEEDS:0.000=1.000=0.000=0;
#SCROLLS:0.000=1.000;
#FAKES:;
#LABELS:0.000=Song Start;
#BGCHANGES:;
#KEYSOUNDS:;
#ATTACKS:
;

//---------------dance-single - ----------------
#NOTEDATA:;
#CHARTNAME:;
#STEPSTYPE:dance-single;
#DESCRIPTION:;
#CHARTSTYLE:;
#DIFFICULTY:Hard;
#METER:12;
#RADARVALUES:0.536287,0.511910,0.295770,0.455032,0.106174,495.000000,456.000000,39.000000,60.000000,0.000000,0.000000,0.000000,0.000000,0.000000,0.536287,0.511910,0.295770,0.455032,0.106174,495.000000,456.000000,39.000000,60.000000,0.000000,0.000000,0.000000,0.000000,0.000000;
#CREDIT:;
#DISPLAYBPM:138.000000;
#NOTES:
0000
0000
0000
0000
,
0000
0000
0000
0000
,
0000
0000
0000
0000
,
0000
0000
0000
0000
,
0020
0000
0031
0100
2000
0000
3010
0100
,
0001
0000
1000
0000
1000
0000
0000
0010
0100
0000
0001
0000
0001
0000
0000
0000
,
0020
0000
0031
0100
2000
0000
3010
0100
,
0001
0001
1000
1000
0010
0100
1001
0000
,
0020
0000
0031
0100
2000
0000
3001
0100
,
0010
0000
1000
0000
1000
0000
0000
0001
0100
0000
0010
0000
0010
0000
0000
0000
,
2000
0000
3010
0100
0002
0000
0103
0001
,
0010
0000
0100
0000
0100
0000
0000
0001
1000
0000
0001
0000
0001
0000
0000
0000
,
0020
0000
0031
1000
0200
0000
1300
0001
,
0010
0000
0001
0000
0001
0000
0000
0100
0010
0000
1000
0000
1000
0000
0000
0000
,
0200
0000
1300
0001
0200
0000
0301
0010
,
0100
0000
1000
0000
1000
0000
0000
0001
0010
0000
0100
0000
0100
0000
0000
0000
,
0010
0001
0010
1000
0100
0010
0100
0001
,
0100
1000
1000
0000
0010
0000
1001
0000
,
0000
1000
1000
0001
0010
0100
0001
0100
,
2100
3001
0012
1003
,
0010
0100
0001
0010
1000
0010
0100
1000
,
0010
0100
0100
0000
0001
0000
0110
0000
,
0000
0100
0100
0001
0010
0001
1000
0100
,
0010
0000
0001
0000
0001
0000
0000
1000
0001
0000
0100
0000
0100
0000
0000
0000
,
2000
0000
3100
0010
0002
0000
1003
0100
,
0010
0001
1000
0001
0100
0100
0110
0000
,
0020
0000
0130
0010
2000
0000
3001
0100
,
0000
0001
0001
1000
0020
0100
0130
0000
,
0020
0000
0130
0001
0200
0000
0301
1000
,
0010
0100
0001
0010
1000
1000
1100
0000
,
0020
0000
0031
1000
0200
0000
1300
0001
,
0100
0101
1100
0101
,
1001
0000
0010
1000
1000
0001
0010
0100
,
0110
0000
1000
0001
0001
0100
0010
1000
,
0001
0000
0000
1000
0000
0000
0100
0000
0100
0000
0001
0000
0010
0000
0100
0000
,
1000
0000
0000
0001
0100
0000
0000
0000
0011
0000
0000
0000
1010
0000
0000
0000
,
1001
0000
0010
0100
0100
0001
1000
0010
,
0110
0000
0100
0001
0001
1000
0100
0010
,
0001
0000
0000
1000
0000
0000
0010
0000
0100
0000
0001
0000
1000
0000
0100
0000
,
1100
0000
0000
0000
0000
0000
0001
1000
0001
0000
0100
0000
0100
0000
0100
0000
,
0020
0000
0000
2030
0000
0000
3100
0000
0010
0000
0010
0000
0001
0000
0001
0000
,
2000
0000
0000
3002
0000
0000
0103
0010
0100
0000
0001
0000
0001
0000
0001
0000
,
0020
0000
0000
0230
0000
0000
1300
0000
0001
0000
0001
0000
0100
0000
0100
0000
,
0002
0000
0000
0023
0000
0000
3031
1000
0001
0000
0100
0000
0100
0000
0100
0000
,
0020
0000
0000
0230
0000
0000
0301
0000
1000
0000
1000
0000
0010
0000
0010
0000
,
2000
0000
0000
3200
0000
0000
0310
0001
0010
0000
0100
0000
0100
0000
0100
0000
,
0020
0000
0000
0032
0000
0000
0103
0000
0010
0000
0010
0000
1000
0000
1000
0000
,
0002
0000
0000
2003
0000
0000
3010
0100
0010
0000
1000
0000
0110
0000
0000
0000
,
0002
0000
0013
0100
2000
0000
3010
0100
,
0001
0001
0100
0100
0010
1000
0101
0000
,
2000
0000
3100
0010
0002
0000
0103
0010
,
1000
1000
0001
0001
0100
0010
1001
0000
,
0002
0023
0230
2300
,
3010
1000
0100
0010
0001
0100
1000
0000
,
0002
0023
0230
2300
,
3010
1000
0100
0010
0002
0000
0003
0000
,
2000
3020
0230
0302
,
1003
0001
0010
0100
1000
0001
0100
0000
,
0020
0230
0302
2003
,
3001
0011
1100
0011
,
1001
0000
0010
1000
0100
0100
0010
0001
,
0101
0000
0010
1000
0001
0001
1000
0100
,
0010
0000
0000
0001
0000
0000
0100
0000
0010
0000
1000
0000
1000
0000
0100
0000
,
0010
0000
0000
0001
0100
0000
0000
0000
0101
0000
0000
0000
1010
0000
0000
0000
,
1001
0000
0100
1000
0010
0100
0001
1000
,
0110
0000
0010
0100
0001
0010
0100
1000
,
0001
0000
0000
0010
0000
0000
0100
0000
1000
0000
1000
0000
0100
0000
0010
0000
,
0001
0011
0110
1100
,
1001
0000
0010
1000
0010
0100
0001
0001
,
0011
0000
0100
1000
0010
0100
0001
0001
,
1000
0000
0000
0010
0100
0000
0001
0000
1000
0000
0010
0000
1000
0000
0001
0000
,
1000
0000
0000
0010
0100
0000
0000
0000
0101
0000
0000
0000
1100
0000
0000
0000
,
1001
0000
1000
0010
0100
0100
0001
0001
,
0110
0000
0001
1000
0100
0100
0010
0010
,
0001
0000
0000
0100
0010
0000
1000
0000
0001
0000
0001
0000
0010
0000
0100
0000
,
1100
0000
0000
0000
;

//---------------dance-single - ----------------
#NOTEDATA:;
#CHARTNAME:;
#STEPSTYPE:dance-single;
#DESCRIPTION:;
#CHARTSTYLE:;
#DIFFICULTY:Medium;
#METER:9;
#RADARVALUES:0.431197,0.455032,0.341274,0.470199,0.000000,398.000000,353.000000,45.000000,62.000000,0.000000,0.000000,0.000000,0.000000,0.000000,0.431197,0.455032,0.341274,0.470199,0.000000,398.000000,353.000000,45.000000,62.000000,0.000000,0.000000,0.000000,0.000000,0.000000;
#CREDIT:;
#DISPLAYBPM:138.000000;
#NOTES:
0000
0000
0000
0000
,
0000
0000
0000
0000
,
0000
0000
0000
0000
,
0000
0000
0000
0000
,
0020
0000
1030
0100
0020
0000
0031
0100
,
0000
0000
0000
0000
,
0020
0000
1030
0100
0020
0000
0031
0100
,
0001
1000
0001
1000
0010
0100
0010
0000
,
0002
0000
0013
0100
2000
0000
3010
0130
,
0001
0101
1000
1100
,
0002
0000
0103
0010
2000
0000
3100
0010
,
0001
0011
1000
1010
,
0200
0000
1300
0001
0200
0000
0301
1000
,
0010
1001
0100
0110
,
0002
0000
1003
0100
2000
0000
3001
0100
,
0000
0000
0000
0000
,
0000
0001
1000
0010
0200
0000
0310
0100
,
0001
1000
0001
0000
0000
0000
0000
0000
,
0000
1000
0010
0100
0002
0000
0013
0100
,
2000
3002
0203
0320
,
0030
0100
0001
1000
0200
0000
0310
0001
,
0100
0010
0100
0000
0000
0000
0000
0000
,
0000
0001
0010
0100
1000
0010
0100
0001
,
0000
0000
0000
0000
,
2000
0000
3100
0010
0002
0000
0103
0010
,
1000
0000
0001
0000
1000
0100
0100
0000
,
0020
0000
0130
1000
0020
0000
0130
0001
,
0000
1000
0001
1000
0002
0000
0003
0000
,
0020
0000
0031
1000
0020
0000
1030
3001
,
0100
0000
0010
0000
1000
0001
0001
0000
,
0020
0000
0031
1000
0020
0000
0130
0001
,
0000
1001
1001
1001
,
1001
0000
0000
0001
1000
0010
0100
0000
,
0110
0000
0000
0010
0100
0001
1000
0000
,
2000
0000
3020
0000
0130
0001
1000
0001
,
0100
0110
0110
0110
,
0110
0000
0000
0001
0010
0100
1000
0000
,
1001
0000
0000
0001
1000
0010
0100
0000
,
0002
0000
0023
0000
0130
1000
0001
1000
,
0200
0000
0300
1000
0001
1000
0001
0103
,
0010
0000
1010
0000
0001
0010
0100
1000
,
0001
0000
0101
0000
0010
0100
0010
1000
,
0100
0000
1100
0000
1000
0001
0010
0001
,
0100
0000
0110
0000
0001
1000
0001
0010
,
0100
0000
1100
0000
1000
0010
0100
0001
,
0010
0000
0011
0000
0001
0100
0010
1000
,
0100
0000
0110
0000
0001
1000
0010
0100
,
0001
1001
0000
0000
,
0002
0000
1003
0001
0200
0000
0310
0130
,
0001
0000
1000
0000
0001
0100
0100
0000
,
0020
0000
1030
0100
0020
0000
0031
0100
,
0001
1000
0001
1000
0010
0100
0010
0000
,
2000
3002
0203
0320
,
1030
0100
0001
0000
0010
0100
1000
0000
,
0020
0230
0302
2003
,
3000
1000
0100
0010
0002
0000
0003
0000
,
0020
0032
2003
3200
,
1300
0010
0001
0000
0100
0010
1000
0000
,
0200
0320
0032
2003
,
3000
1100
1100
1100
,
1100
0000
0000
0001
0010
0100
1000
0000
,
1010
0000
0000
0010
0100
0001
1000
0000
,
0200
0000
0320
0000
0031
0100
0010
1000
,
0001
0101
0101
0101
,
0101
0000
0000
0001
1000
0100
0010
0000
,
0011
0000
0000
1000
0001
0100
0010
0000
,
2000
0000
3002
0000
0013
0001
1000
0010
,
0100
1010
1010
1010
,
1010
0000
0000
1000
0100
0010
0001
0000
,
1001
0000
0000
0001
1000
0010
0100
0000
,
0020
0000
0230
0000
0301
1000
0100
1000
,
0001
0011
0011
0011
,
0011
0000
0000
0010
0001
1000
0100
0000
,
0110
0000
0000
0001
0100
0010
1000
0000
,
0002
0000
2003
0000
3010
0100
0010
0100
,
0110
0000
0000
0000
;

//---------------dance-single - ----------------
#NOTEDATA:;
#CHARTNAME:;
#STEPSTYPE:dance-single;
#DESCRIPTION:;
#CHARTSTYLE:;
#DIFFICULTY:Easy;
#METER:6;
#RADARVALUES:0.287103,0.341274,0.189596,0.546038,0.000000,265.000000,240.000000,25.000000,72.000000,0.000000,0.000000,0.000000,0.000000,0.000000,0.287103,0.341274,0.189596,0.546038,0.000000,265.000000,240.000000,25.000000,72.000000,0.000000,0.000000,0.000000,0.000000,0.000000;
#CREDIT:;
#DISPLAYBPM:138.000000;
#NOTES:
0000
0000
0000
0000
,
0000
0000
0000
0000
,
0000
0000
0000
0000
,
0000
0000
0000
0000
,
0020
0230
0320
0230
,
0300
0000
0000
0000
,
0002
2003
3002
2003
,
3010
0010
0100
1001
,
0002
0203
0302
0203
,
0300
0000
0000
0000
,
0020
2030
3020
2030
,
3000
0000
0000
0000
,
2000
3200
2300
3200
,
0300
0000
0000
0000
,
0020
0032
0023
0032
,
0003
0000
0000
0000
,
1000
0001
0010
0100
,
1000
0010
0100
0001
,
0010
0100
1000
0010
,
0100
0100
0100
0100
,
0001
0010
0001
0100
,
0010
1000
0100
0010
,
0001
0100
0010
1000
,
0100
0010
0001
1001
,
2000
3020
2030
3020
,
0130
0001
0010
1000
,
0002
0203
0302
0203
,
0300
0110
1001
0000
,
0002
0023
0032
0023
,
0130
0010
0001
1000
,
0200
2300
3200
2300
,
3000
1001
1001
1001
,
1001
0000
0010
0100
,
0001
0000
0010
0100
,
1000
0000
0001
0100
,
0010
0110
0110
0110
,
0110
0000
0001
0010
,
1000
0000
0100
0010
,
0001
0000
0100
0010
,
1000
0000
0010
0100
,
0001
0001
1000
0100
,
0010
0010
0100
1000
,
0001
0001
1000
0010
,
1000
1000
0001
0010
,
0100
0100
0010
0100
,
1000
1000
0010
0100
,
0001
0001
1000
0001
,
0010
0010
0000
0000
,
0002
2003
3002
2003
,
3010
1000
0100
0110
,
0020
0230
0320
0230
,
1300
1000
0001
1001
,
0020
2030
3020
2030
,
3100
0100
0100
0100
,
0002
0203
0302
0203
,
0300
1001
0110
0000
,
2000
3200
2330
3200
,
0310
0010
0010
0010
,
0002
0023
0032
0023
,
0030
1001
1001
1001
,
1001
0000
1000
0100
,
1000
0000
0010
0100
,
0001
0000
0010
0001
,
0100
0110
0110
0110
,
0110
0000
0010
1000
,
0100
0000
1000
0001
,
0010
0000
0001
0100
,
0010
2000
3002
2003
,
3002
0003
0010
0100
,
1000
3000
0001
0100
,
0010
0010
1000
0001
,
1000
0020
0230
0320
,
0230
0300
0001
1000
,
0100
0000
0010
0100
,
1000
1000
0001
0100
,
1001
0000
0000
0000
;

//---------------dance-single - ----------------
#NOTEDATA:;
#CHARTNAME:;
#STEPSTYPE:dance-single;
#DESCRIPTION:;
#CHARTSTYLE:;
#DIFFICULTY:Beginner;
#METER:3;
#RADARVALUES:0.131092,0.170637,0.083422,0.000000,0.000000,121.000000,110.000000,11.000000,0.000000,0.000000,0.000000,0.000000,0.000000,0.000000,0.131092,0.170637,0.083422,0.000000,0.000000,121.000000,110.000000,11.000000,0.000000,0.000000,0.000000,0.000000,0.000000,0.000000;
#CREDIT:;
#DISPLAYBPM:138.000000;
#NOTES:
// measure 0
0000
0000
0000
0000
,  // measure 1
0000
0000
0000
0000
,  // measure 2
0000
0000
0000
0000
,  // measure 3
0000
0000
0000
0000
,  // measure 4
0010
0000
0100
0000
,  // measure 5
0000
0000
0000
0000
,  // measure 6
0001
0000
1000
0000
,  // measure 7
1001
0000
0000
0000
,  // measure 8
0001
0000
0001
0000
,  // measure 9
0000
0000
0000
0000
,  // measure 10
0010
0000
0010
0000
,  // measure 11
0000
0000
0000
0000
,  // measure 12
0100
0000
0100
0000
,  // measure 13
0000
0000
0000
0000
,  // measure 14
1000
0000
1000
0000
,  // measure 15
0000
0000
0000
0000
,  // measure 16
0010
0000
1000
0000
,  // measure 17
0001
0001
0000
0000
,  // measure 18
0000
0000
0010
0000
,  // measure 19
0100
0000
1000
0000
,  // measure 20
0001
0000
0100
0000
,  // measure 21
0010
0010
0000
0000
,  // measure 22
0000
0000
1000
0000
,  // measure 23
0100
0000
0000
0000
,  // measure 24
1000
0000
1000
0000
,  // measure 25
0010
0000
0100
0000
,  // measure 26
0001
0000
0001
0000
,  // measure 27
0000
0000
1001
0000
,  // measure 28
0100
0000
0100
0000
,  // measure 29
0001
0000
1000
0000
,  // measure 30
0010
0000
0010
0000
,  // measure 31
0000
0000
0000
0000
,  // measure 32
1001
0000
0000
0000
,  // measure 33
0010
0000
0000
0000
,  // measure 34
1000
0000
0100
0000
,  // measure 35
0001
0000
0000
0000
,  // measure 36
1001
0000
0000
0000
,  // measure 37
1000
0000
0000
0000
,  // measure 38
0100
0000
0010
0000
,  // measure 39
0001
0000
1000
0000
,  // measure 40
0010
0000
0010
0000
,  // measure 41
0100
0000
0100
0000
,  // measure 42
0001
0000
0001
0000
,  // measure 43
1000
0000
1000
0000
,  // measure 44
0100
0000
0010
0000
,  // measure 45
0001
0000
1000
0000
,  // measure 46
0001
0000
1000
0000
,  // measure 47
0010
0000
0000
0000
,  // measure 48
0100
0000
0010
0000
,  // measure 49
1000
0000
0000
0000
,  // measure 50
1000
0000
0001
0000
,  // measure 51
1001
0000
0000
0000
,  // measure 52
0001
0000
0001
0000
,  // measure 53
1000
0000
0100
0000
,  // measure 54
1000
0000
1000
0000
,  // measure 55
0000
0000
1001
0000
,  // measure 56
0010
0000
0010
0000
,  // measure 57
0100
0000
0001
0000
,  // measure 58
0100
0000
0100
0000
,  // measure 59
0000
0000
0000
0000
,  // measure 60
1001
0000
0000
0000
,  // measure 61
0001
0000
0000
0000
,  // measure 62
0100
0000
0010
0000
,  // measure 63
1000
0000
0000
0000
,  // measure 64
1001
0000
0000
0000
,  // measure 65
1000
0000
0000
0000
,  // measure 66
0001
0000
0010
0000
,  // measure 67
0100
0000
1000
0000
,  // measure 68
1001
0000
0001
0000
,  // measure 69
1000
0000
0001
0000
,  // measure 70
0100
0000
0100
0000
,  // measure 71
0010
0000
0010
0000
,  // measure 72
1001
0000
1000
0000
,  // measure 73
0100
0000
1000
0000
,  // measure 74
0001
0000
0001
0000
,  // measure 75
1001
0000
0000
0000
;
