#VERSION:0.83;
#TITLE:Bombay Bomb;
#SUBTITLE:;
#ARTIST:Jena Rose;
#TITLETRANSLIT:;
#SUBTITLETRANSLIT:;
#ARTISTTRANSLIT:;
#GENRE:;
#ORIGIN:;
#CREDIT:;
#BANNER:Bombay Bomb-bn.png;
#BACKGROUND:Bombay Bomb-bg.png;
#PREVIEWVID:;
#JACKET:Bombay Bomb-jacket.png;
#CDIMAGE:;
#DISCIMAGE:;
#LYRICSPATH:;
#CDTITLE:;
#MUSIC:Bombay Bomb.ogg;
#OFFSET:0.000000;
#SAMPLESTART:8.270000;
#SAMPLELENGTH:20.000000;
#SELECTABLE:YES;
#DISPLAYBPM:145.000000;
#BPMS:0.000=145.161,
4.000=145.004;
#STOPS:;
#DELAYS:;
#WARPS:;
#TIMESIGNATURES:0.000=4=4;
#TICKCOUNTS:0.000=4;
#COMBOS:0.000=1;
#SPEEDS:0.000=1.000=0.000=0;
#SCROLLS:0.000=1.000;
#FAKES:;
#LABELS:0.000=Song Start;
#BGCHANGES:;
#KEYSOUNDS:;
#ATTACKS:
;

//---------------dance-single - ----------------
#NOTEDATA:;
#CHARTNAME:;
#STEPSTYPE:dance-single;
#DESCRIPTION:;
#CHARTSTYLE:;
#DIFFICULTY:Beginner;
#METER:2;
#RADARVALUES:0.152596,0.227643,0.043777,0.000000,0.000000,122.000000,117.000000,5.000000,0.000000,0.000000,0.000000,0.000000,0.000000,0.000000,0.152596,0.227643,0.043777,0.000000,0.000000,122.000000,117.000000,5.000000,0.000000,0.000000,0.000000,0.000000,0.000000,0.000000;
#CREDIT:;
#DISPLAYBPM:145.000000;
#NOTES:
0000
0000
0000
0000
,
0000
0000
0000
0000
,
0000
0000
0000
0000
,
0000
0000
0000
0000
,
0000
0000
0000
0000
,
1000
0000
0000
0000
,
0010
0000
0000
0000
,
0001
0000
0000
0000
,
0010
0000
0000
0000
,
1000
0000
0000
0000
,
0100
0000
0000
0000
,
0001
0000
0000
0000
,
0100
0000
0000
0000
,
1000
0000
1000
0000
,
0010
0000
0010
0000
,
0100
0000
0100
0000
,
0001
0000
0001
0000
,
0100
0000
0100
0000
,
1000
0000
1000
0000
,
0001
0000
0001
0000
,
0010
0000
0010
0000
,
1000
0000
1000
0000
,
1001
0000
1001
0000
,
0001
0000
0001
0000
,
1001
0000
1001
0000
,
0010
0000
0010
0000
,
0100
0000
0100
0000
,
1000
0000
1000
0000
,
0001
0000
0001
0000
,
0010
0000
0010
0000
,
0001
0000
0001
0000
,
1000
0000
1000
0000
,
0100
0000
0100
0000
,
0010
0010
0000
0000
,
1000
1000
0000
0000
,
0010
0010
0000
0000
,
0001
0001
0000
0000
,
0100
0100
0000
0000
,
1000
1000
0000
0000
,
0100
0100
0000
0000
,
0001
0001
0000
0000
,
0010
0010
0000
0000
,
1000
1000
0000
0000
,
0001
0001
0000
0000
,
0100
0100
0000
0000
,
0010
0010
0000
0000
,
1000
1000
0000
0000
,
0100
0100
0000
0000
,
0001
0001
0000
0000
,
1000
0000
1000
0000
,
0001
0000
0001
0000
,
0010
0000
0010
0000
,
0100
0000
0100
0000
,
1000
0000
1000
0000
,
0001
0000
0001
0000
,
0010
0000
0010
0000
,
0100
0000
0100
0000
,
1000
1000
0000
0000
,
0100
0100
0000
0000
,
0001
0001
0000
0000
,
0100
0100
0000
0000
,
1000
1000
1000
0000
,
0010
0010
0010
0000
,
0001
0001
0001
0000
,
0010
0010
0010
0000
,
1001
0000
0000
0000
,
0000
0000
0000
0000
;

//---------------dance-single - ----------------
#NOTEDATA:;
#CHARTNAME:;
#STEPSTYPE:dance-single;
#DESCRIPTION:;
#CHARTSTYLE:;
#DIFFICULTY:Easy;
#METER:6;
#RADARVALUES:0.242652,0.313009,0.113821,0.280176,0.000000,194.000000,181.000000,13.000000,32.000000,0.000000,0.000000,0.000000,0.000000,0.000000,0.242652,0.313009,0.113821,0.280176,0.000000,194.000000,181.000000,13.000000,32.000000,0.000000,0.000000,0.000000,0.000000,0.000000;
#CREDIT:;
#DISPLAYBPM:145.000000;
#NOTES:
0000
0000
0000
0000
,
0000
0000
0000
0000
,
0000
0000
0000
0000
,
0000
0000
0000
0000
,
0000
0000
0000
0000
,
1000
0000
0001
0100
,
0010
0000
1000
0100
,
0010
0000
0001
0100
,
0001
0000
1000
0100
,
2000
3000
0001
0100
,
0020
0030
1000
0100
,
0020
0030
0001
0100
,
0002
0003
1000
0100
,
1000
1000
0001
0100
,
0010
0010
1000
0100
,
0010
0010
0001
0100
,
0001
0001
1000
0100
,
2000
0000
0000
0000
,
0000
0000
0010
3001
,
0010
0002
0000
0000
,
0010
1000
0010
0003
,
0001
0002
0000
0003
,
0100
0200
0000
0300
,
1000
2000
0000
3000
,
0010
0020
0000
0030
,
1001
0000
0100
0000
,
1001
0000
0100
0000
,
1010
1000
0010
1000
,
0101
0100
0001
0100
,
0010
1000
0001
0100
,
0010
1000
0001
0100
,
1000
0100
0001
0100
,
1000
0100
0001
0100
,
1000
0100
0000
0000
0000
0000
0000
0000
,
0001
0100
0000
0000
0000
0000
0000
0000
,
0010
1000
0000
0000
0000
0000
0000
0000
,
0001
0010
0000
0000
0000
0000
0000
0000
,
1000
0100
0000
0000
1000
0000
0100
0000
,
0010
0001
0000
0000
0010
0000
0001
0000
,
1000
0100
0000
0000
1000
0000
0100
0000
,
0010
0001
0000
0000
0010
0000
0001
0000
,
1000
0100
2200
3300
,
0001
0100
0202
0303
,
0010
1000
2020
3030
,
0001
0010
0022
0033
,
0022
0033
0001
0010
,
2200
3300
1000
0100
,
2020
3030
0010
1000
,
0202
0303
0001
0100
,
2000
0000
0000
0000
,
0000
0000
0010
3001
,
0010
0002
0000
0000
,
0010
1000
0010
0003
,
0001
0002
1000
0103
,
0010
0020
1000
0130
,
1000
2000
0010
3001
,
0100
0200
0010
0301
,
1000
0100
0000
0000
0000
0000
0000
0000
,
0001
0100
0000
0000
0000
0000
0000
0000
,
0010
1000
0000
0000
0000
0000
0000
0000
,
0001
0010
0000
0000
0000
0000
0000
0000
,
1000
0100
0000
0000
1000
0000
0100
0000
,
0010
0001
0000
0000
0010
0000
0001
0000
,
1000
0100
0000
0000
1000
0000
0100
0000
,
0010
0001
0000
0000
0010
0000
0001
0000
,
1001
0000
0000
0000
,
0000
0000
0000
0000
;

//---------------dance-single - ----------------
#NOTEDATA:;
#CHARTNAME:;
#STEPSTYPE:dance-single;
#DESCRIPTION:;
#CHARTSTYLE:;
#DIFFICULTY:Medium;
#METER:10;
#RADARVALUES:0.410257,0.455286,0.008755,0.000000,0.000000,328.000000,327.000000,1.000000,0.000000,0.000000,0.000000,0.000000,0.000000,0.000000,0.410257,0.455286,0.008755,0.000000,0.000000,328.000000,327.000000,1.000000,0.000000,0.000000,0.000000,0.000000,0.000000,0.000000;
#CREDIT:;
#DISPLAYBPM:145.000000;
#NOTES:
0000
0000
0000
0000
,
0000
0000
0000
0000
,
0000
0000
0000
0000
,
0000
0000
0000
0000
,
0000
0000
0000
0000
,
0010
0000
0001
0000
0100
0010
1000
0000
,
0010
0000
1000
0000
0100
0010
0001
0000
,
0100
0000
0010
0000
1000
0001
0100
0000
,
0001
0000
1000
0000
0100
0010
0001
0000
,
0100
0000
0010
0000
1000
0100
0001
0000
,
0010
0000
0100
0000
0010
0001
1000
0000
,
0010
0000
1000
0000
0100
0001
1000
0000
,
0100
0000
0001
0000
0010
1000
0001
0000
,
0010
0000
1000
0000
0010
0001
0100
0000
,
1000
0000
0010
0000
0100
0001
0010
0000
,
0001
0000
1000
0000
0100
0010
1000
0000
,
0001
0000
0100
0000
0010
0001
0100
0000
,
1000
0000
0010
0000
0100
1000
0001
0000
,
0010
0000
1000
0100
0010
0000
0001
0000
,
0010
0000
0010
0001
0100
0000
1000
0000
,
0010
0000
1000
0100
0010
0000
1000
0000
,
0001
0000
1000
0010
0100
0000
0001
0000
,
0100
0000
0010
0001
0100
0000
1000
0000
,
0100
0000
0010
0001
1000
0000
0100
0000
,
0010
0000
0100
0001
1000
0000
0010
0000
,
1000
0000
0010
0001
0100
1000
0010
0000
,
0100
0000
0010
0001
1000
0100
0010
0000
,
0100
0000
0010
0001
1000
0100
0010
0000
,
1000
0000
0010
0001
1000
0100
0010
0000
,
1000
0000
0010
0001
0100
0010
1000
0000
,
0001
0000
0010
0001
0100
0010
1000
0000
,
0100
0000
1000
0100
0010
0001
0100
0000
,
1000
0000
0010
0001
0100
1000
0001
0000
,
0100
0010
0100
0001
0010
1000
0001
0000
,
0010
0001
0100
1000
,
0010
1000
0100
0001
,
0100
1000
0010
0001
,
0010
0001
0100
0001
0010
1000
0100
0000
,
0010
0000
1000
0100
0010
0000
0100
0000
,
0010
0000
1000
0001
0100
0000
1000
0000
,
0100
0000
1000
0100
0010
0000
1000
0000
,
1000
0001
0010
0001
1000
0100
0010
0000
,
0100
0001
1000
0010
0100
0001
1000
0000
,
0010
1000
0100
0001
,
0010
0001
0100
1000
,
0100
0001
1000
0010
0100
0001
1000
0000
,
0010
0001
0100
0010
1000
0100
0010
0000
,
1000
0010
0100
1000
,
0010
0100
1000
0010
,
0100
1000
0010
0001
0100
0010
1000
0000
,
0010
0001
0100
1000
,
0100
1000
0010
0001
,
0010
1000
0100
0001
,
0010
0000
0100
0001
0010
0000
1000
0000
,
0010
0000
0100
0001
0010
0000
1000
0000
,
0010
0001
0100
1000
,
0010
1000
0100
0001
,
0100
0010
0100
1000
0010
0001
0100
0000
,
1000
0001
0100
1000
0010
0001
0100
0000
,
0010
1000
0010
0001
0100
1000
0001
0000
,
0100
1000
0010
0001
1000
0100
0001
0000
,
0100
1000
0010
0001
0100
1000
0010
0000
,
0100
1000
0010
0001
1000
0100
0010
0000
,
1000
0100
0010
0001
1000
0100
0010
0000
,
1000
0100
0010
0001
0010
1000
0100
0000
,
1001
0000
0000
0000
,
0000
0000
0000
0000
;

//---------------dance-single - ----------------
#NOTEDATA:;
#CHARTNAME:;
#STEPSTYPE:dance-single;
#DESCRIPTION:;
#CHARTSTYLE:;
#DIFFICULTY:Hard;
#METER:12;
#RADARVALUES:0.556599,0.569107,0.008755,0.000000,0.140088,445.000000,444.000000,1.000000,0.000000,0.000000,0.000000,0.000000,0.000000,0.000000,0.556599,0.569107,0.008755,0.000000,0.140088,445.000000,444.000000,1.000000,0.000000,0.000000,0.000000,0.000000,0.000000,0.000000;
#CREDIT:;
#DISPLAYBPM:145.000000;
#NOTES:
0000
0000
0000
0000
,
0000
0000
0000
0000
,
0000
0000
0000
0000
,
0000
0000
0000
0000
,
0000
0000
0000
0000
,
1000
0100
0010
0001
1000
0000
0001
0000
,
1000
0010
0100
0001
1000
0000
0100
0000
,
0010
0001
1000
0001
0100
0000
0010
0000
,
1000
0001
0010
0100
1000
0000
0001
0000
,
0100
0001
0100
0010
1000
0000
0001
0000
,
1000
0100
0010
0001
1000
0000
0001
0000
,
0100
0001
1000
0001
0100
0000
0010
0000
,
1000
0010
0100
0001
1000
0000
0001
0000
,
1000
0100
0010
0001
0100
0000
0001
0000
,
0100
0010
1000
0001
0100
0000
0010
0000
,
1000
0100
0010
0001
1000
0000
0001
0000
,
0100
0001
0100
0010
1000
0000
0001
1000
,
0001
0000
0100
0000
0010
0000
1000
0000
0001
0000
0000
1000
0001
0000
0000
0000
,
1000
0000
0100
0000
0010
0000
0001
0000
1000
0000
0000
0001
1000
0000
0000
0000
,
0001
0000
0010
0000
0100
0000
1000
0000
0001
0000
0000
1000
0001
0000
0000
0000
,
1000
0000
1000
0000
0001
0000
1000
0000
0001
0000
0000
0100
0001
0000
0000
0000
,
1000
0000
1000
0000
0100
0000
0010
0000
0001
0000
0000
1000
0001
0000
0000
0000
,
0100
0000
0100
0000
0010
0000
1000
0000
0001
0000
0000
1000
0001
0000
0000
0000
,
1000
0000
0100
0000
0010
0000
0001
0000
1000
0000
0000
0001
1000
0000
0000
0000
,
0001
0000
0100
0000
0010
0000
1000
0000
0100
0000
0000
1000
0100
0000
0000
0000
,
1000
0000
0100
0000
0010
0000
0001
0000
0100
0000
0000
0001
0100
0000
0001
0000
,
1000
0000
0100
0000
1000
0000
0001
0000
0100
0000
0000
0001
0100
0000
0010
0000
,
1000
0000
0001
0000
0100
0000
0010
0000
1000
0000
0000
0001
1000
0000
0100
0000
,
0010
0000
0001
0000
1000
0000
0001
0000
0100
0000
0000
0001
0100
0000
0010
0000
,
1000
0000
0001
0000
1000
0000
0001
0000
1000
0000
0000
0100
0010
0000
0001
0000
,
0010
0000
0100
0000
1000
0000
0001
0000
0100
0000
0000
0001
0100
0000
0010
0000
,
1000
0000
0100
0000
0010
0000
0001
0000
1000
0000
0000
0001
1000
0000
0001
0000
,
0100
0000
0001
0000
0100
0000
0010
0000
1000
0000
0000
0001
0010
0000
0100
0000
,
1000
1000
0001
0001
1000
0100
0010
0001
,
0010
0010
0100
0100
1000
0001
0100
0010
,
1000
0010
1000
0001
1000
0100
0010
0001
,
0100
0001
0100
0010
1000
0001
0100
0010
,
1000
1000
0001
0001
1000
0001
0100
0001
,
1000
1000
0100
0010
0001
1000
0010
0100
,
0001
1000
0100
0010
0001
1000
0001
1000
,
0100
1000
0100
0010
0001
1000
0010
0100
,
0001
0000
0100
0000
0010
0000
1000
0000
0001
0000
0000
0001
1000
0000
0001
0000
,
1000
0000
0100
0000
0010
0000
0001
0000
1000
0000
0000
1000
0001
0000
1000
0000
,
0001
0000
0100
0000
0001
0000
1000
0000
0100
0000
0000
0100
1000
0000
0100
0000
,
1000
0000
0001
0000
0100
0000
0010
0000
1000
0000
0000
1000
0001
0000
1000
0000
,
0100
0000
0010
0000
0001
0000
1000
0000
0001
0000
0000
0001
1000
0000
0001
0000
,
0100
0000
0001
0000
1000
0000
0010
0000
1000
0000
0000
1000
0001
0000
1000
0000
,
0100
0000
0010
0000
0001
0000
1000
0000
0001
0000
0000
0001
0100
0000
0010
0000
,
1000
0000
0100
0000
0010
0000
0001
0000
0100
0000
0000
0100
0001
0000
1000
0000
,
0001
0000
1000
0001
0100
0010
1000
0001
,
0010
0100
0100
1000
,
0001
0000
0100
0001
0100
0010
1000
0001
,
0010
0001
0100
1000
,
0010
0100
0001
1000
0100
0000
0010
0001
,
1000
0100
0010
0001
1000
0000
0001
1000
,
0001
0100
0010
1000
0001
0000
1000
0001
,
1000
0100
0010
0001
0010
0000
0001
0010
,
0001
0000
1000
0000
0010
0000
0100
0000
0001
0000
0100
0010
0100
0000
0001
0000
,
1000
0000
0100
0000
0010
0000
0100
0000
1000
0000
0010
1000
0010
0000
0100
0000
,
0001
0000
0010
0000
0100
0000
1000
0000
0001
0000
1000
0001
1000
0000
0001
0000
,
1000
0000
0100
0000
0010
0000
0001
0000
1000
0000
0010
0100
0010
0000
1000
0000
,
0010
0000
0100
0000
0001
0000
1000
0000
0100
0000
0010
0001
0010
0000
0001
0000
,
1000
0000
0001
0000
0100
0000
0010
0000
1000
0000
0001
0010
0001
0000
1000
0000
,
0001
0000
0010
0000
0100
0000
1000
0000
0001
0000
1000
0001
1000
0000
0100
0000
,
0010
0000
0001
0000
1000
0000
0001
0000
0100
0000
0010
0100
0010
0000
0100
0000
,
1001
0000
0000
0000
,
0000
0000
0000
0000
;

//---------------dance-double - ----------------
#NOTEDATA:;
#CHARTNAME:;
#STEPSTYPE:dance-double;
#DESCRIPTION:;
#CHARTSTYLE:;
#DIFFICULTY:Easy;
#METER:6;
#RADARVALUES:0.252659,0.313009,0.113821,0.262665,0.000000,202.000000,189.000000,13.000000,30.000000,0.000000,0.000000,0.000000,0.000000,0.000000,0.252659,0.313009,0.113821,0.262665,0.000000,202.000000,189.000000,13.000000,30.000000,0.000000,0.000000,0.000000,0.000000,0.000000;
#CREDIT:;
#DISPLAYBPM:145.000000;
#NOTES:
00000000
00000000
00000000
00000000
,
00000000
00000000
00000000
00000000
,
00000000
00000000
00000000
00000000
,
00000000
00000000
00000000
00000000
,
00000000
00000000
00000000
00000000
,
00100000
00000000
00010000
00001000
,
00000100
00000000
00000001
00000100
,
00001000
00000000
00010000
01000000
,
10000000
00000000
01000000
00010000
,
00002000
00003000
00000100
00000001
,
00000200
00000300
00001000
00010000
,
02000000
03000000
10000000
01000000
,
00020000
00030000
00001000
00000100
,
00000001
00000001
00000100
00001000
,
00010000
00010000
00100000
10000000
,
00100000
00100000
00010000
00001000
,
00000010
00000010
00000001
00000010
,
00001000
00001000
00010000
00010000
,
00100000
00100000
00010000
00001000
,
00000100
00000001
00000100
00001000
,
00010000
00010000
00100000
00100000
,
00010000
00020000
00000000
00030000
,
00001000
00002000
00000000
00003000
,
00000100
00000200
00000000
00000300
,
00000001
00000002
00000000
00000003
,
00000101
00000000
00000100
00000000
,
00001100
00000000
00001000
00000000
,
00011000
00010000
00100000
00010000
,
00110000
00001000
00000100
00000001
,
00000100
00001000
00010000
01000000
,
10000000
01000000
00010000
00001000
,
00000010
00000001
00000010
00001000
,
00010000
00100000
10000000
00100000
,
00010000
00001000
00000000
00000000
00000000
00000000
00000000
00000000
,
00000100
00000001
00000000
00000000
00000000
00000000
00000000
00000000
,
00000100
00001000
00000000
00000000
00000000
00000000
00000000
00000000
,
00010000
01000000
00000000
00000000
00000000
00000000
00000000
00000000
,
10000000
01000000
00000000
00000000
10000000
00000000
01000000
00000000
,
00010000
00001000
00000000
00000000
00010000
00000000
00001000
00000000
,
00000100
00000001
00000000
00000000
00000100
00000000
00001000
00000000
,
00010000
00100000
00000000
00000000
10000000
00000000
00100000
00000000
,
00010000
00001000
00022000
00033000
,
00000010
00001000
00002020
00003030
,
00010000
00001000
00022000
00033000
,
00010000
00100000
00220000
00330000
,
00220000
00330000
00001000
00000100
,
00002200
00003300
00000001
00000100
,
00000202
00000303
00001000
00010000
,
00022000
00033000
00010000
01000000
,
20000000
00000000
00000000
00000000
,
00000000
00000000
00100000
30010000
,
00001000
00000200
00000000
00000000
,
00000000
00000010
00000001
00000310
,
00000100
00002000
00010000
00013000
,
00100000
00200000
10000000
01300000
,
10000000
20000000
00100000
30010000
,
00001000
00002000
00000001
00003100
,
00001000
00000100
00000000
00000000
00000000
00000000
00000000
00000000
,
00001000
00010000
00000000
00000000
00000000
00000000
00000000
00000000
,
00100000
10000000
00000000
00000000
00000000
00000000
00000000
00000000
,
00010000
01000000
00000000
00000000
00000000
00000000
00000000
00000000
,
00010000
00001000
00000000
00000000
00000010
00000000
00000001
00000000
,
00000010
00000001
00000000
00000000
00000010
00000000
00001000
00000000
,
00010000
01000000
00000000
00000000
10000000
00000000
01000000
00000000
,
00010000
00001000
00000000
00000000
00000010
00000000
00001000
00000000
,
00001010
00000000
00000000
00000000
,
00000000
00000000
00000000
00000000
;

//---------------dance-double - ----------------
#NOTEDATA:;
#CHARTNAME:;
#STEPSTYPE:dance-double;
#DESCRIPTION:;
#CHARTSTYLE:;
#DIFFICULTY:Medium;
#METER:10;
#RADARVALUES:0.410257,0.455286,0.008755,0.000000,0.000000,328.000000,327.000000,1.000000,0.000000,0.000000,0.000000,0.000000,0.000000,0.000000,0.410257,0.455286,0.008755,0.000000,0.000000,328.000000,327.000000,1.000000,0.000000,0.000000,0.000000,0.000000,0.000000,0.000000;
#CREDIT:;
#DISPLAYBPM:145.000000;
#NOTES:
00000000
00000000
00000000
00000000
,
00000000
00000000
00000000
00000000
,
00000000
00000000
00000000
00000000
,
00000000
00000000
00000000
00000000
,
00000000
00000000
00000000
00000000
,
00100000
00000000
00010000
00000000
01000000
00100000
10000000
00000000
,
01000000
00000000
00010000
00000000
00001000
00000100
00000010
00000000
,
00000001
00000000
00000100
00000000
00000010
00001000
00010000
00000000
,
01000000
00000000
00100000
00000000
10000000
00010000
01000000
00000000
,
00010000
00000000
00001000
00000000
00000100
00000010
00000001
00000000
,
00000100
00000000
00000010
00000000
00001000
00010000
01000000
00000000
,
00100000
00000000
01000000
00000000
10000000
00010000
01000000
00000000
,
00010000
00000000
00001000
00000000
00000100
00000010
00000001
00000000
,
00000100
00000000
00001000
00000000
00010000
01000000
00100000
00000000
,
01000000
00000000
00010000
00000000
00001000
00000100
00000010
00000000
,
00000001
00000000
00000010
00000000
00000100
00001000
00010000
00000000
,
01000000
00000000
00100000
00000000
10000000
00010000
01000000
00000000
,
00010000
00000000
00001000
00000000
00000100
00000010
00001000
00000000
,
00000100
00000000
00001000
00010000
01000000
00000000
00100000
00000000
,
10000000
00000000
01000000
00010000
00001000
00000000
00000100
00000000
,
00000010
00000000
00000001
00000100
00001000
00000000
00010000
00000000
,
01000000
00000000
00100000
01000000
10000000
00000000
01000000
00000000
,
00010000
00000000
00001000
00000100
00000010
00000000
00001000
00000000
,
00010000
00000000
01000000
00010000
00100000
00000000
10000000
00000000
,
00100000
00000000
01000000
00010000
00001000
00000000
00000100
00000000
,
00000010
00000000
00001000
00000001
00000100
00000010
00001000
00000000
,
00010000
00000000
01000000
00010000
10000000
01000000
00100000
00000000
,
00010000
00000000
00001000
00000100
00000010
00000100
00000001
00000000
,
00000100
00000000
00000010
00000100
00001000
00010000
01000000
00000000
,
00100000
00000000
10000000
00010000
01000000
00100000
01000000
00000000
,
00010000
00000000
00001000
00000100
00000010
00000001
00001000
00000000
,
00000100
00000000
00000010
00000100
00001000
00010000
01000000
00000000
,
00100000
00000000
10000000
00010000
00100000
01000000
00010000
00000000
,
00001000
00000100
00000010
00000100
00001000
00000010
00001000
00000000
,
00010000
01000000
00100000
01000000
,
00010000
00001000
00000100
00000010
,
00001000
00010000
01000000
00100000
,
01000000
00010000
01000000
00010000
00001000
00000100
00000010
00000000
,
00000100
00000000
00001000
00010000
01000000
00000000
00100000
00000000
,
01000000
00000000
00010000
00001000
00000100
00000000
00000010
00000000
,
00000001
00000000
00000100
00001000
00010000
00000000
01000000
00000000
,
00100000
00010000
01000000
00010000
00001000
00000100
00000010
00000000
,
00000001
00001000
00000100
00001000
00010000
01000000
00100000
00000000
,
10000000
00100000
01000000
00010000
,
00001000
00000100
00000010
00000001
,
00000100
00001000
00010000
01000000
00100000
01000000
10000000
00000000
,
00100000
00010000
01000000
00100000
10000000
01000000
00010000
00000000
,
00001000
00000100
00000010
00000001
,
00000100
00001000
00010000
01000000
,
01000000
10000000
00100000
00010000
01000000
00100000
01000000
00000000
,
00010000
00001000
00000100
00000010
,
00000100
00001000
00010000
01000000
,
00100000
10000000
01000000
00010000
,
00001000
00000000
00000100
00000010
00000100
00000000
00000001
00000000
,
00000100
00000000
00000010
00000100
00001000
00000000
00010000
00000000
,
01000000
00100000
01000000
00010000
,
00001000
00000100
00000010
00000001
,
00000010
00000100
00001000
00010000
01000000
00100000
01000000
00000000
,
10000000
00010000
01000000
10000000
00100000
00010000
00001000
00000000
,
00000100
00000010
00000100
00000001
00001000
00000100
00000010
00000000
,
00001000
00010000
01000000
00100000
01000000
00100000
00010000
00000000
,
01000000
10000000
00100000
00010000
00001000
00000100
00000010
00000000
,
00000100
00000010
00000100
00001000
00010000
01000000
00100000
00000000
,
10000000
01000000
00100000
00010000
00001000
00000100
00000010
00000000
,
00000100
00000010
00000001
00001000
00000100
00001000
00010000
00000000
,
01100000
00000000
00000000
00000000
,
00000000
00000000
00000000
00000000
;

//---------------dance-double - ----------------
#NOTEDATA:;
#CHARTNAME:;
#STEPSTYPE:dance-double;
#DESCRIPTION:;
#CHARTSTYLE:;
#DIFFICULTY:Hard;
#METER:12;
#RADARVALUES:0.551596,0.569107,0.008755,0.000000,0.140088,441.000000,440.000000,1.000000,0.000000,0.000000,0.000000,0.000000,0.000000,0.000000,0.551596,0.569107,0.008755,0.000000,0.140088,441.000000,440.000000,1.000000,0.000000,0.000000,0.000000,0.000000,0.000000,0.000000;
#CREDIT:;
#DISPLAYBPM:145.000000;
#NOTES:
00000000
00000000
00000000
00000000
,
00000000
00000000
00000000
00000000
,
00000000
00000000
00000000
00000000
,
00000000
00000000
00000000
00000000
,
00000000
00000000
00000000
00000000
,
10000000
01000000
00010000
00001000
00000100
00000000
00000001
00000000
,
00001000
00000100
00000010
00000001
00000100
00000000
00000010
00000000
,
00000100
00001000
00010000
01000000
10000000
00000000
00010000
00000000
,
10000000
01000000
00010000
00001000
00000100
00000000
00000001
00000000
,
00000100
00000010
00000100
00001000
00010000
00000000
01000000
00000000
,
10000000
01000000
00100000
00010000
00001000
00000000
00000010
00000000
,
00000100
00000001
00000100
00001000
00010000
00000000
01000000
00000000
,
10000000
00010000
00100000
01000000
00010000
00000000
00001000
00000000
,
00000100
00000001
00001000
00000010
00010000
00000000
00001000
00000000
,
00100000
00010000
10000000
01000000
00010000
00000000
00001000
00000000
,
00000010
00000001
00001000
00000001
00000100
00000000
00001000
00000000
,
00010000
01000000
10000000
00100000
01000000
00000000
00010000
01000000
,
00010000
00000000
00001000
00000000
00000010
00000000
00000100
00000000
00000001
00000000
00000000
00000100
00001000
00000000
00000000
00000000
,
00010000
00000000
01000000
00000000
10000000
00000000
00010000
00000000
10000000
00000000
00000000
01000000
00010000
00000000
00000000
00000000
,
00001000
00000000
00000100
00000000
00000001
00000000
00000010
00000000
00000100
00000000
00000000
00001000
00000010
00000000
00000000
00000000
,
00000100
00000000
00001000
00000000
00010000
00000000
01000000
00000000
10000000
00000000
00000000
01000000
10000000
00000000
00000000
00000000
,
01000000
00000000
00010000
00000000
00001000
00000000
00000100
00000000
00000001
00000000
00000000
00000100
00000001
00000000
00000000
00000000
,
00000100
00000000
00001000
00000000
00010000
00000000
00100000
00000000
10000000
00000000
00000000
00100000
10000000
00000000
00000000
00000000
,
00100000
00000000
10000000
00000000
01000000
00000000
00010000
00000000
00001000
00000000
00000000
00000100
00000001
00000000
00000000
00000000
,
00000100
00000000
00000010
00000000
00000100
00000000
00001000
00000000
00010000
00000000
00000000
01000000
10000000
00000000
00000000
00000000
,
01000000
00000000
00010000
00000000
00001000
00000000
00000010
00000000
00000001
00000000
00000000
00001000
00000001
00000000
00001000
00000000
,
00000001
00000000
00000100
00000000
00000010
00000000
00001000
00000000
00010000
00000000
00000000
01000000
00010000
00000000
10000000
00000000
,
01000000
00000000
00010000
00000000
00001000
00000000
00000100
00000000
00000001
00000000
00000000
00000100
00000001
00000000
00001000
00000000
,
00000010
00000000
00000100
00000000
00001000
00000000
00010000
00000000
01000000
00000000
00000000
10000000
00010000
00000000
10000000
00000000
,
01000000
00000000
00100000
00000000
01000000
00000000
00010000
00000000
00001000
00000000
00000000
00000100
00000001
00000000
00001000
00000000
,
00000010
00000000
00000100
00000000
00001000
00000000
00010000
00000000
01000000
00000000
00000000
10000000
01000000
00000000
00100000
00000000
,
01000000
00000000
00010000
00000000
00001000
00000000
00000100
00000000
00000001
00000000
00000000
00000010
00000001
00000000
00000100
00000000
,
00000010
00000000
00000100
00000000
00001000
00000000
00010000
00000000
01000000
00000000
00000000
10000000
00010000
00000000
00100000
00000000
,
01000000
00010000
00001000
00000100
00000001
00001000
00000010
00000100
,
00000001
00000100
00001000
00010000
01000000
10000000
00010000
01000000
,
00100000
10000000
01000000
00010000
00001000
00000100
00000001
00001000
,
00000100
00000010
00000001
00000100
00001000
00010000
01000000
10000000
,
00010000
10000000
01000000
00100000
00010000
00001000
00000100
00000010
,
00000100
00001000
00000010
00000100
00001000
00010000
01000000
10000000
,
00010000
01000000
10000000
00010000
00100000
00010000
00001000
00000100
,
00000001
00000010
00000100
00001000
00010000
00100000
01000000
10000000
,
00010000
00000000
10000000
00000000
01000000
00000000
00100000
00000000
01000000
00000000
00000000
01000000
00010000
00000000
00001000
00000000
,
00000100
00000000
00000001
00000000
00000010
00000000
00001000
00000000
00000010
00000000
00000000
00000010
00001000
00000000
00000010
00000000
,
00000001
00000000
00000100
00000000
00001000
00000000
00010000
00000000
01000000
00000000
00000000
01000000
10000000
00000000
00010000
00000000
,
10000000
00000000
01000000
00000000
00010000
00000000
00001000
00000000
00010000
00000000
00000000
00010000
00001000
00000000
00000100
00000000
,
00000001
00000000
00000010
00000000
00000100
00000000
00001000
00000000
00010000
00000000
00000000
00010000
01000000
00000000
00010000
00000000
,
10000000
00000000
00100000
00000000
01000000
00000000
00010000
00000000
00001000
00000000
00000000
00001000
00000010
00000000
00001000
00000000
,
00000001
00000000
00000100
00000000
00000010
00000000
00001000
00000000
00000001
00000000
00000000
00000001
00000100
00000000
00001000
00000000
,
00010000
00000000
01000000
00000000
10000000
00000000
00010000
00000000
10000000
00000000
00000000
10000000
01000000
00000000
00010000
00000000
,
00001000
00000000
00000100
00000001
00000010
00000100
00001000
00000001
,
00000100
00000000
00001000
00000000
00010000
00000000
00100000
10000000
,
01000000
00000000
00010000
00001000
00000100
00000001
00001000
00000001
,
00000100
00000000
00001000
00000000
00010000
00000000
00100000
10000000
,
00010000
01000000
00100000
10000000
01000000
00000000
00010000
00001000
,
00000100
00000001
00001000
00000001
00000010
00000000
00001000
00010000
,
01000000
10000000
00010000
10000000
00010000
00000000
00100000
01000000
,
00010000
00001000
00000100
00000001
00000010
00000000
00000100
00001000
,
00000010
00000000
00000100
00000000
00001000
00000000
00010000
00000000
01000000
00000000
10000000
01000000
10000000
00000000
00000000
00000000
,
00010000
00000000
01000000
00000000
00100000
00000000
00010000
00000000
00001000
00000000
00000100
00000010
00000100
00000000
00000000
00000000
,
00000001
00000000
00000100
00000000
00000010
00000000
00001000
00000000
00010000
00000000
01000000
00100000
01000000
00000000
00000000
00000000
,
00100000
00000000
10000000
00000000
01000000
00000000
00100000
00000000
00010000
00000000
01000000
00010000
01000000
00000000
00000000
00000000
,
00001000
00000000
00000100
00000000
00000001
00000000
00001000
00000000
00000010
00000000
00000100
00000010
00000100
00000000
00000000
00000000
,
00000001
00000000
00000010
00000000
00000100
00000000
00001000
00000000
00010000
00000000
00100000
01000000
00100000
00000000
00000000
00000000
,
00010000
00000000
10000000
00000000
01000000
00000000
00010000
00000000
00001000
00000000
00010000
00001000
00010000
00000000
00000100
00000000
,
00000010
00000000
00000001
00000000
00000100
00000000
00000010
00000000
00000100
00000000
00001000
00010000
00001000
00000000
00010000
00000000
,
00011000
00000000
00000000
00000000
,
00000000
00000000
00000000
00000000
;

//---------------dance-single - ----------------
#NOTEDATA:;
#CHARTNAME:;
#STEPSTYPE:dance-single;
#DESCRIPTION:;
#CHARTSTYLE:;
#DIFFICULTY:Challenge;
#METER:14;
#RADARVALUES:0.715449,0.759758,0.481552,0.332709,0.525330,572.000000,517.000000,55.000000,38.000000,0.000000,0.000000,0.000000,0.000000,0.000000,0.715449,0.759758,0.481552,0.332709,0.525330,572.000000,517.000000,55.000000,38.000000,0.000000,0.000000,0.000000,0.000000,0.000000;
#CREDIT:;
#DISPLAYBPM:145.000000;
#NOTES:
// measure 0
0000
0000
0000
0000
,  // measure 1
0000
0000
0000
0000
,  // measure 2
0000
0000
0000
0000
,  // measure 3
0000
0000
0000
0000
,  // measure 4
0000
0000
0000
0000
,  // measure 5
1010
0000
1000
0000
0100
0000
0010
0000
0001
0100
0001
0000
1000
0000
0000
0000
,  // measure 6
0101
0000
0001
0000
0010
0000
0001
0000
1000
0010
1000
0000
0100
0000
0000
0000
,  // measure 7
0011
0000
0010
0000
0100
0000
1000
0000
0001
0100
0001
0000
0010
0000
0000
0000
,  // measure 8
1100
0000
0100
0000
0010
0000
0100
0000
1000
0001
1000
0000
0010
0000
0000
0000
,  // measure 9
0101
0000
0010
0000
1000
0000
0001
0000
1000
0100
1000
0000
0010
0000
0000
0000
,  // measure 10
1100
0000
0010
0000
1000
0000
0100
0000
0010
0100
0010
0000
0001
0000
0000
0000
,  // measure 11
0011
0000
0100
0000
0001
0000
1000
0000
0010
1000
0010
0000
0100
0000
0000
0000
,  // measure 12
1010
0000
1000
0000
0001
0000
0010
0000
0001
0100
0001
0000
1000
0000
0000
0000
,  // measure 13
1001
0000
0001
0100
0001
0000
0010
0000
0100
1000
0100
0000
0010
0000
0001
0000
,  // measure 14
0100
0000
0010
1000
0010
0000
0100
0000
0001
0010
0001
0000
1000
0000
0010
0000
,  // measure 15
1000
0000
0001
0100
0001
0000
0010
0000
0100
1000
0100
0000
0010
0000
0001
0000
,  // measure 16
1000
0000
0010
0100
0010
0000
0100
0000
0001
0010
0001
0000
1000
0000
0001
0000
,  // measure 17
0010
0000
0001
0100
0001
0000
1000
0000
0100
0010
0100
0000
1000
0000
0001
0000
,  // measure 18
0100
0000
0010
1000
0010
0000
1000
0000
0100
0001
0100
0000
0001
0000
0010
0000
,  // measure 19
1000
0000
0001
0100
0001
0000
0010
0000
0100
1000
0100
0000
0010
0000
0100
0000
,  // measure 20
1000
0000
0001
0010
0001
0000
1000
0000
0100
1000
0100
0000
0010
0000
0001
0000
,  // measure 21
1000
0100
0000
0100
1000
0000
0102
0000
0000
0000
0013
0000
0001
0000
0000
0000
,  // measure 22
0100
0001
0000
0001
0100
0000
0120
0000
0000
0000
1030
0000
0010
0000
0000
0000
,  // measure 23
1000
0001
0000
0001
1000
0000
2100
0000
0000
0000
3010
0000
0100
0000
0000
0000
,  // measure 24
0010
1000
0000
1000
0010
0000
1200
0000
0000
0000
0301
0000
0100
0000
0000
0000
,  // measure 25
1100
0000
0000
0000
0101
0000
0000
1000
0001
0100
0000
0001
1000
0000
0000
0000
,  // measure 26
0011
0000
0000
0000
1010
0000
0000
1000
0001
0010
0000
0001
1000
0000
0000
0000
,  // measure 27
0011
0000
0000
0000
1100
0000
0000
0010
1000
0100
0000
1000
0010
0000
0000
0000
,  // measure 28
0101
0000
0000
0000
1010
0000
0000
0001
0100
0010
0000
0100
0001
0000
0000
0000
,  // measure 29
0110
1000
0010
0100
0001
0010
0100
1000
,  // measure 30
0001
1000
0010
0100
0001
0100
1000
0010
,  // measure 31
1000
0001
0010
0100
1000
0001
0100
0010
,  // measure 32
1000
0100
0001
0010
0100
0010
1000
0001
,  // measure 33
1001
0000
0100
0000
0010
0000
0001
0000
0100
0010
1000
0000
0001
1000
0100
0000
,  // measure 34
1100
0000
1000
0000
0010
0000
0100
0000
0001
0010
0100
0000
0010
0100
1000
0000
,  // measure 35
1010
0000
0010
0000
0100
0000
0010
0000
0100
0001
1000
0000
0001
1000
0010
0000
,  // measure 36
0110
0000
0100
0000
0001
0000
0010
0000
0100
1000
0001
0000
1000
0100
0010
0000
,  // measure 37
0011
0000
0001
0000
0100
0000
1000
0000
0010
1000
0100
0000
1000
0001
0010
0000
,  // measure 38
0110
0000
0100
0000
0010
0000
0100
0000
1000
0010
0100
0000
0001
1000
0001
0000
,  // measure 39
1010
0000
1000
0000
0001
0000
0010
0000
0100
0010
0001
0000
0010
0001
1000
0000
,  // measure 40
0101
0000
1000
0000
0100
0000
0010
0000
0001
0100
0001
0000
0010
0100
1000
0000
,  // measure 41
0001
0010
0001
0010
0100
0000
2100
0000
0000
0000
3002
0000
0000
0000
0103
0000
,  // measure 42
0010
1000
0010
1000
0001
0000
0012
0000
0000
0000
0203
0000
0000
0000
0310
0000
,  // measure 43
0100
0001
0100
0001
1000
0000
1020
0000
0000
0000
2030
0000
0000
0000
3100
0000
,  // measure 44
0010
0001
0010
0001
1000
0000
1200
0000
0000
0000
0320
0000
0000
0000
0031
0000
,  // measure 45
0100
0010
1000
0010
0100
0000
0120
0000
0000
0000
2030
0000
0000
0000
3001
0000
,  // measure 46
0010
0001
1000
0001
0010
0000
0102
0000
0000
0000
0023
0000
0000
0000
0130
0000
,  // measure 47
1000
0001
0100
0001
1000
0000
0210
0000
0000
0000
0302
0000
0000
0000
0013
0000
,  // measure 48
0001
0100
0010
0100
0001
0000
2001
0000
0000
0000
3200
0000
0000
0000
1300
0000
,  // measure 49
1100
0000
0000
0000
0011
0000
0000
0100
0001
1000
0000
0001
0100
0000
0000
0000
,  // measure 50
1010
0000
0000
0000
0101
0000
0000
1000
0010
0100
0000
0010
1000
0000
0000
0000
,  // measure 51
1001
0000
0000
0000
0110
0000
0000
0001
0010
0100
0000
0010
0001
0000
0000
0000
,  // measure 52
0110
0000
0000
0000
1001
0000
0000
0010
1000
0001
0000
1000
0010
0000
0000
0000
,  // measure 53
0001
0100
0000
1000
0100
0000
0002
0000
0000
0000
2003
0000
3020
0000
0230
0000
,  // measure 54
0310
1000
0000
0001
0010
0000
0200
0000
0000
0000
2300
0000
3002
0000
0023
0000
,  // measure 55
0031
0100
0000
0010
0100
0000
0020
0000
0000
0000
0230
0000
0302
0000
2003
0000
,  // measure 56
3010
1000
0000
1000
0001
0000
2000
0000
0000
0000
3020
0000
0230
0000
0302
0000
,  // measure 57
1003
0100
0000
0100
0010
0000
0001
0000
1000
0010
1000
0000
0001
0000
0100
0000
,  // measure 58
0001
1000
0000
0001
0010
0000
0100
0000
1000
0010
1000
0000
0100
0000
0010
0000
,  // measure 59
0100
0001
0000
1000
0010
0000
0100
0000
0001
0010
0001
0000
1000
0000
0010
0000
,  // measure 60
0100
0001
0000
1000
0100
0000
1000
0000
0010
0100
0010
0000
1000
0000
0001
0000
,  // measure 61
0010
0001
0010
0100
1000
0000
1100
0000
0001
0100
0010
0000
0110
0000
0000
0000
,  // measure 62
1000
0001
0010
0001
0100
0000
0110
0000
0010
1000
0001
0000
0101
0000
0000
0000
,  // measure 63
1000
0100
0010
0001
0100
0000
1010
0000
1000
0001
0010
0000
1001
0000
0000
0000
,  // measure 64
0100
0001
0010
0001
1000
0000
0110
0000
0010
1000
0100
0000
0011
0000
0000
0000
,  // measure 65
2002
0000
0000
0000
,  // measure 66
0000
0000
0000
3003
;
