#TITLE:Bang the Drum All Day;
#SUBTITLE:;
#ARTIST:Todd Rundgren;
#TITLETRANSLIT:;
#SUBTITLETRANSLIT:;
#ARTISTTRANSLIT:;
#GENRE:;
#CREDIT:;
#BANNER:Bang the Drum All Day-bn.png;
#BACKGROUND:Bang the Drum All Day-bg.png;
#LYRICSPATH:;
#CDTITLE:;
#MUSIC:Bang the Drum All Day.ogg;
#OFFSET:0.850000;
#SAMPLESTART:20.941000;
#SAMPLELENGTH:20.000000;
#SELECTABLE:YES;
#DISPLAYBPM:143.000000;
#BPMS:0.000000=143.179993
;
#STOPS:
;
#BGCHANGES:;
#KEYSOUNDS:;
#ATTACKS:;

//---------------dance-single - ----------------
#NOTES:
     dance-single:
     :
     Challenge:
     13:
     0.585393,0.611269,0.181025,0.181025,0.135769,498.000000,476.000000,22.000000,22.000000,0.000000,0.000000,0.585393,0.611269,0.181025,0.181025,0.135769,498.000000,476.000000,22.000000,22.000000,0.000000,0.000000:
0000
0000
0000
0000
,
0000
0000
0000
0000
,
0000
0000
0000
0000
,
0000
0000
0000
0000
,
0010
0010
0010
0010
0010
0010
0010
0000
,
1000
0010
0000
0001
0010
0100
1000
0001
,
0000
0001
0000
0010
1000
0001
0010
0100
,
0000
0100
0000
0001
0100
0001
1000
0010
,
0000
0000
1000
0100
1000
0000
0000
0000
0010
0000
0010
0000
0010
0000
0010
0000
,
0000
0100
0000
0001
1000
0010
1000
0001
,
0000
0001
0000
0010
0100
1000
0010
0100
,
0000
0000
0100
0000
0000
0000
0010
0000
0100
0000
0001
0000
0010
0000
0001
1000
,
0001
0000
0100
0000
0100
0000
0100
0000
0010
1000
0010
1000
0010
0000
0100
0000
,
0002
1000
1003
0000
0010
0100
0001
1000
,
0000
1100
0000
1000
0010
0100
0001
0010
,
0011
0000
1000
0001
1000
0100
0010
0002
,
0000
0103
0000
0001
1000
0010
1000
0100
,
0020
0001
0031
0000
1000
0001
1000
0100
,
0000
1010
0000
0001
0001
1000
0010
0100
,
0101
0000
0001
0010
0001
0100
0010
2000
,
0000
0000
3010
0000
0000
0000
1000
0000
0001
0100
0000
0001
0100
0000
0010
0000
,
1000
0100
0001
0100
1000
0100
0001
0100
,
1000
0100
0010
0100
1000
0100
0010
0100
,
0001
0100
0010
0100
0001
0100
0010
0100
,
0001
0100
1000
0100
0010
0100
1000
0100
,
0010
0001
0010
1000
0010
0001
0010
1000
,
0010
0001
0010
0100
0010
0001
0010
0100
,
0010
1000
0010
0100
0010
1000
0010
0100
,
0010
0010
0100
0100
1000
1000
0001
0001
,
0200
0010
0310
0000
0001
0100
0001
1000
,
0000
1010
0000
0101
0001
1000
0100
0010
,
1002
0000
0103
0010
1000
0100
0010
0001
,
0000
0010
0000
1000
0001
0100
0010
1000
,
0020
0100
0130
0000
0001
0100
0001
1000
,
0000
1100
0000
0011
0010
0100
1000
0001
,
0210
0000
0301
0010
0001
0100
0010
1000
,
0000
0000
0010
0000
0000
0000
0001
0000
1000
0100
0000
1000
0100
0000
0010
0001
,
2000
0000
3010
0100
0001
0010
0100
2000
,
0000
3010
0100
0001
1000
0100
0010
0000
,
0100
0010
1000
0010
1000
0100
0010
0001
,
0000
0000
0101
0000
0101
0000
0101
0000
0000
0000
1000
0010
1000
0000
0001
0000
,
0010
0010
0001
0100
0001
1000
0010
0200
,
0000
0310
1000
0100
1000
0001
0010
0000
,
1000
1000
0001
1000
0010
0100
0001
0010
,
0000
0000
0011
0000
0011
0000
0000
0000
1001
0000
0000
1000
0010
0000
0100
0000
,
0001
0001
1000
0010
1000
0100
0010
0002
,
0000
0013
0001
1000
0001
0100
0010
0000
,
0100
0000
0100
0000
1000
0000
0010
0000
0100
0000
0001
0000
0001
0000
1000
0010
,
1000
0000
1000
0000
0001
0000
0001
0000
1000
0010
0000
0010
0100
0000
0001
0000
,
0020
0000
0031
1000
0010
1000
0100
0020
,
0000
0031
0010
0001
0100
0010
1000
0000
,
1000
0010
0100
0010
1000
0100
0010
0001
,
1000
0001
0000
1000
0001
0000
0100
0010
1000
0001
0000
1000
0001
0000
0010
0000
,
0001
0100
0001
1000
0100
0010
0001
2000
,
0000
3100
1000
0010
0100
0001
1000
0000
,
1000
1000
0100
1000
0010
0100
0100
0002
,
0000
0000
1000
0000
1003
0000
0001
0100
0001
0000
0100
0010
0100
0000
0100
0000
,
0001
0010
0100
1000
0010
1000
0001
0200
,
0000
0310
0100
1000
0010
1000
0001
0000
,
0001
0010
0100
1000
0001
0100
0010
1000
,
0010
0100
0010
1000
0100
1000
0001
0100
0001
1000
0001
0010
,
0002
1000
1003
0000
1000
0100
0010
0001
,
0000
0101
0000
1100
1000
0010
0100
0001
,
0210
0000
0310
0100
0001
0010
0100
1000
,
0000
1000
0010
1000
0001
0010
0100
1000
,
0020
0100
0130
0010
1000
0100
0010
0001
,
0000
0011
0000
1010
1000
0001
0010
0100
,
2001
0000
3010
1000
0100
0010
0001
1000
,
0000
0000
0000
0010
0000
0000
0010
0000
0000
0010
0000
0000
1000
0000
0001
0000
1000
0000
0001
0000
1000
0000
0001
0000
,
0200
0000
0000
0000
,
0000
0000
0000
0300
;

//---------------dance-single - ----------------
#NOTES:
     dance-single:
     :
     Hard:
     10:
     0.471371,0.523945,0.181025,0.148112,0.004114,401.000000,379.000000,22.000000,18.000000,0.000000,0.000000,0.471371,0.523945,0.181025,0.148112,0.004114,401.000000,379.000000,22.000000,18.000000,0.000000,0.000000:
0000
0000
0000
0000
,
0000
0000
0000
0000
,
0000
0000
0000
0000
,
0000
0000
0000
0000
,
0010
0100
0010
0100
0010
0100
0010
0000
,
1000
0001
0000
0010
0001
1000
0000
0100
,
0000
0010
0000
0001
1000
0001
0000
1000
,
0000
0010
0000
0100
0010
1000
0000
0001
,
0000
0010
0000
0001
0100
0010
0000
0100
,
0000
0010
0000
1000
0100
1000
0000
0001
,
0000
1000
0000
0001
0010
0100
0000
1000
,
0000
0010
0000
1000
0100
0010
0000
0001
,
0000
1000
0000
0001
0100
0010
0000
1000
,
0002
0000
0000
0000
1003
0010
0100
0001
,
0000
0000
0000
0000
1001
0000
1000
0010
,
0200
0000
0310
0100
0001
1000
0000
1100
,
0000
0000
0000
0001
0100
0001
0000
1000
,
0020
0000
0000
0000
1030
0010
0100
0001
,
0000
0000
0000
1000
0001
0000
0100
0010
,
2000
0000
3010
1000
0001
0100
0000
0110
,
0000
0000
0000
0000
0000
0000
0000
0000
0001
0000
0000
1000
0000
0000
0001
0000
,
0100
0000
0100
0010
1000
0001
0010
0100
,
1000
1000
1000
0000
0000
0000
0000
0001
,
0200
0000
0301
0010
0001
1000
0000
1000
,
0010
0100
0001
1000
0000
0100
0000
0010
,
0001
0100
0001
1000
0010
0000
0100
0001
,
1000
0001
0010
0100
0000
0000
0000
0100
,
0010
0001
0100
0001
0000
1000
1000
0001
,
0100
0010
0100
0010
1000
0001
0010
0100
,
2000
0000
3010
0000
1000
0001
0010
0100
,
0000
1000
0000
0001
0010
0000
0001
0100
,
0020
0000
1030
0001
0010
0100
0000
1000
,
0000
0010
0000
0100
0001
0100
0000
0010
,
2000
0000
3100
0000
1000
0001
0100
0010
,
0000
0100
0000
0001
1000
0000
0001
0100
,
0002
0000
0013
0100
1000
0001
0000
0100
,
0000
0001
1000
0010
1000
0001
0010
0100
,
2000
0000
3010
0100
0001
0010
0001
1000
,
0000
0001
0100
0010
1000
0000
1100
0000
,
1000
0010
1000
0010
1000
0100
0010
0001
,
0000
0001
1000
0010
0100
0000
1001
0000
,
0011
0000
0001
1000
0001
0010
0100
1000
,
0000
1000
0001
0010
0100
0000
0110
0000
,
0010
0001
0010
0001
1000
0010
0100
0001
,
0000
1000
0001
0100
0010
1000
0100
0000
,
1000
0001
1000
0001
0100
0010
1000
0001
,
0000
0010
0001
1000
0100
0000
1010
0000
,
0100
0010
0100
0010
1000
0001
1000
0100
,
0000
1000
0001
0100
0010
0000
0101
0000
,
1010
0000
0001
1000
0001
0010
0100
1000
,
0000
0001
1000
0100
0010
0000
0110
0000
,
0010
0001
0010
0001
0100
0010
1000
0001
,
0000
1000
0100
1000
0010
0100
0001
0000
,
1000
0010
1000
0010
0100
0010
1000
0001
,
0000
0001
0010
0100
1000
0000
1001
0000
,
1000
0001
1000
0001
0010
0001
0100
0010
,
0000
0100
0001
1000
0100
0000
1100
0000
,
0001
0100
0001
0100
0001
0010
0100
1000
,
0000
1000
0001
0010
0100
0000
0011
0000
,
0001
0010
0001
1000
0010
0100
0001
1000
,
1010
0101
1010
0101
,
2002
0000
0003
0000
3001
0010
0100
1000
,
0000
0010
0000
1000
0001
0000
0100
0001
,
0012
0000
1003
0010
1000
0001
0000
0100
,
0000
0010
1000
0010
1000
0100
0010
0000
,
0220
0000
0300
0000
0031
1000
0010
0100
,
0000
0001
0000
0010
0001
0000
1000
0100
,
2000
0000
3010
0100
0001
0010
0000
0001
,
0000
1000
0001
1000
0010
0100
0001
0000
,
2002
0000
0000
0000
,
0000
0000
0000
3003
;

//---------------dance-single - ----------------
#NOTES:
     dance-single:
     :
     Easy:
     6:
     0.297399,0.407513,0.197482,0.115198,0.000000,253.000000,229.000000,24.000000,14.000000,0.000000,0.000000,0.297399,0.407513,0.197482,0.115198,0.000000,253.000000,229.000000,24.000000,14.000000,0.000000,0.000000:
0000
0000
0000
0000
,
0000
0000
0000
0000
,
0000
0000
0000
0000
,
0000
0000
0000
0000
,
0010
0100
0010
0100
,
0001
0000
1000
0000
,
0010
0000
0100
0000
,
0001
0000
0010
0000
,
0100
1000
0001
0100
,
0010
0000
0100
0000
,
0001
0000
1000
0000
,
0001
0000
0100
0000
,
0010
0100
0001
1000
,
2002
3003
1000
0001
,
0100
0000
0001
1000
,
0010
0010
1000
0001
,
0100
0000
0001
0000
,
0220
0330
1000
0010
,
0100
0000
0001
0010
,
0001
0001
1000
0010
,
0100
0000
0001
1000
,
0001
0010
0001
0010
,
0001
0100
0001
0100
,
0001
1000
0001
1000
,
0001
0001
0001
0001
,
1000
0010
1000
0010
,
1000
0100
1000
0100
,
1000
0001
1000
0001
,
1000
1000
1000
1000
,
2002
3003
0010
0100
,
0001
0000
1000
0100
,
1100
0101
1000
0001
,
0100
0100
0010
1000
,
0220
0330
0010
1000
,
0001
0000
0010
0100
,
1100
0101
0001
0010
,
0100
0100
1000
0001
,
1000
0010
1000
0001
,
0010
0100
1000
0001
,
0100
0001
0010
0100
,
0000
0110
0000
1001
,
0010
0100
0001
1000
,
0001
0100
1000
0100
,
0001
0010
1000
0010
,
0010
1000
0010
0001
,
0010
1000
0100
0010
,
0001
0100
0001
0010
,
0001
0100
0010
1000
,
0100
0010
0001
0001
,
1000
0001
0010
0100
,
1000
0010
0100
0001
,
0010
0100
1000
0001
,
0010
0001
1000
0100
,
1000
0010
0100
0010
,
0100
0001
0010
0100
,
1000
0001
1000
0010
,
0000
0101
1100
0101
,
1000
1000
1000
1000
,
0001
0001
0001
0001
,
0100
0010
0100
0010
,
0110
1001
0110
1001
,
0220
0330
1000
0100
,
0001
0000
0010
0100
,
1100
0101
0001
1000
,
0100
0000
0010
0000
,
2002
3003
0001
0100
,
1000
0000
0010
0100
,
0101
1100
0001
1000
,
0010
0010
0100
0010
,
2002
0000
0000
0000
,
0000
0000
0000
3003
;

//---------------dance-single - ----------------
#NOTES:
     dance-single:
     :
     Medium:
     8:
     0.430229,0.523945,0.460792,0.106969,0.000000,366.000000,310.000000,56.000000,13.000000,0.000000,0.000000,0.430229,0.523945,0.460792,0.106969,0.000000,366.000000,310.000000,56.000000,13.000000,0.000000,0.000000:
0000
0000
0000
0000
,
0000
0000
0000
0000
,
0000
0000
0000
0000
,
0000
0000
0000
0000
,
0010
0100
0010
0000
0100
0010
0100
0000
,
0001
1000
0010
0010
,
1000
0001
0100
0100
,
0001
0010
0100
1000
,
0010
0100
0001
1000
,
0100
0010
0100
0010
,
0001
0100
0001
1000
,
0010
1000
0100
0010
,
0001
0100
0001
1000
,
2001
0000
3010
0000
1000
0100
1000
0000
,
0010
0001
0102
1003
,
1001
0000
0110
0000
0001
0100
0001
0000
,
1000
0000
0010
0000
0100
0010
0100
0000
,
0102
0000
0013
0000
0001
1000
0001
0000
,
0100
0010
2010
3001
,
1100
0000
0011
0000
0100
0010
0100
0000
,
0001
0000
0010
0000
0001
1000
0001
1000
,
0000
0010
0000
0100
0000
0010
0000
0100
,
0000
0001
0000
0010
0000
0001
0000
1000
,
0000
0010
0000
0100
0000
0001
0000
0010
,
0000
0001
0000
0100
0000
0010
0000
1000
,
0000
0100
0000
1000
0000
0001
0000
0100
,
0000
0001
0000
0010
0000
0100
0000
1000
,
0000
0010
0000
0100
0000
0010
0000
1000
,
0001
1000
0001
0000
1000
0001
1000
0000
,
0210
0000
0301
0000
0010
0100
1000
0000
,
0010
0100
0011
1100
,
1001
0000
0100
0010
1000
0000
0001
0000
,
0011
0000
1100
0000
0010
0100
0010
0000
,
0201
0000
0310
0000
1000
0001
0100
0000
,
0001
1000
1010
0101
,
0110
0000
0010
1000
0001
0000
0010
0000
,
0100
1000
0001
0000
0100
0001
1000
0000
,
1001
0000
0100
0000
0001
1000
0001
0010
,
0000
0001
2000
0000
0010
0000
3100
0000
,
1000
0000
0001
0000
0100
0010
0100
0010
,
0000
1000
0100
1000
0000
0001
0100
0001
,
0010
0000
1100
0000
0001
0100
0010
1000
,
0000
1100
0001
0101
,
1000
1010
0001
0011
,
0100
0110
0010
1001
,
1000
0000
0001
0000
0010
0001
1000
0100
,
0000
1000
0020
0000
0001
0000
0130
0000
,
1010
0000
0101
0000
0001
1000
0010
0100
,
0000
0001
1000
0001
1000
0010
0100
0001
,
0010
0011
1000
1010
,
0010
1100
0001
0101
,
1000
1001
0100
0110
,
1000
0011
0001
1100
,
0001
0010
0001
0000
1000
0010
1000
0100
,
0000
0000
1000
0010
0100
0000
0001
0000
,
0010
0001
0010
0000
0001
1000
0001
0100
,
0000
0010
1000
0010
1000
0100
0010
0001
,
0100
0011
1100
1001
,
0101
1010
0110
0101
,
1100
0011
1010
0110
,
1001
1100
1001
0101
,
2002
0000
3003
0000
0001
0010
0100
1000
,
0000
0000
0000
0000
0110
0000
0010
0100
,
0001
0000
0001
1000
0010
0100
0000
0101
,
0000
1000
0000
0010
0100
0010
0000
1000
,
0020
0000
0030
0000
0010
1000
0001
0100
,
0000
0000
0000
0001
1000
0000
0010
0100
,
0001
0000
0001
1000
0010
0100
0000
0101
,
0000
1000
0001
1000
0010
0100
0010
0000
,
0220
0000
0000
0000
,
0000
0000
0000
0330
;

//---------------dance-single - ----------------
#NOTES:
     dance-single:
     :
     Beginner:
     4:
     0.166919,0.227104,0.057599,0.000000,0.000000,142.000000,135.000000,7.000000,0.000000,0.000000,0.000000,0.166919,0.227104,0.057599,0.000000,0.000000,142.000000,135.000000,7.000000,0.000000,0.000000,0.000000:
// measure 0
0000
0000
0000
0000
,  // measure 1
0000
0000
0000
0000
,  // measure 2
0000
0000
0000
0000
,  // measure 3
0000
0000
0000
0000
,  // measure 4
0010
0010
0010
0010
,  // measure 5
0010
0000
1000
0000
,  // measure 6
0100
0000
1000
0000
,  // measure 7
0001
0000
0010
0000
,  // measure 8
0001
0000
0100
0000
,  // measure 9
0001
0000
0001
0000
,  // measure 10
1000
0000
1000
0000
,  // measure 11
0010
0000
0010
0000
,  // measure 12
0100
0000
0100
0000
,  // measure 13
0110
0000
0001
0000
,  // measure 14
1000
0000
0100
0000
,  // measure 15
1000
0000
0001
0000
,  // measure 16
0100
0000
0000
0000
,  // measure 17
1001
0000
0001
0000
,  // measure 18
0010
0000
0100
0000
,  // measure 19
1000
0000
0010
0000
,  // measure 20
1000
0000
0000
0000
,  // measure 21
0000
0001
0001
0001
,  // measure 22
0001
0001
0000
0000
,  // measure 23
0100
0100
0100
0000
,  // measure 24
0010
0010
0010
0000
,  // measure 25
0000
1000
1000
1000
,  // measure 26
1000
1000
1000
0000
,  // measure 27
0001
0001
0001
0000
,  // measure 28
0100
0100
0100
0000
,  // measure 29
1001
0000
0001
0000
,  // measure 30
0100
0000
0010
0000
,  // measure 31
0100
0000
0001
0000
,  // measure 32
1000
0000
0000
0000
,  // measure 33
0110
0000
0100
0000
,  // measure 34
0001
0000
0010
0000
,  // measure 35
0100
0000
1000
0000
,  // measure 36
0001
0000
0000
0000
,  // measure 37
1000
0000
1000
0000
,  // measure 38
0010
0000
0010
0000
,  // measure 39
0100
0000
0001
0000
,  // measure 40
1000
0000
0010
0000
,  // measure 41
0100
0000
0001
0000
,  // measure 42
0010
0000
0100
0000
,  // measure 43
1000
0000
0010
0000
,  // measure 44
1000
0000
0001
0000
,  // measure 45
0010
0000
0010
0000
,  // measure 46
0001
0000
0100
0000
,  // measure 47
0001
0000
1000
0000
,  // measure 48
0001
0000
0010
0000
,  // measure 49
0001
0000
0100
0000
,  // measure 50
0100
0000
0010
0000
,  // measure 51
0100
0000
0001
0000
,  // measure 52
0010
0000
0100
0000
,  // measure 53
1000
0000
1000
0000
,  // measure 54
0010
0000
1000
0000
,  // measure 55
0100
0000
0010
0000
,  // measure 56
0001
0000
0100
0000
,  // measure 57
0001
0000
0010
0000
,  // measure 58
0001
0000
0100
0000
,  // measure 59
1000
0000
0001
0000
,  // measure 60
0100
0100
0100
0000
,  // measure 61
0110
0000
0001
0000
,  // measure 62
1000
0000
0100
0000
,  // measure 63
0010
0000
0001
0000
,  // measure 64
1000
0000
0000
0000
,  // measure 65
1001
0000
0001
0000
,  // measure 66
1000
0000
0001
0000
,  // measure 67
0010
0000
0100
0000
,  // measure 68
1000
0000
0000
0000
,  // measure 69
0110
0000
0000
0000
;
