#VERSION:0.83;
#TITLE:Badboy flygirl;
#SUBTITLE:;
#ARTIST:U.M.E.D.Y.;
#TITLETRANSLIT:;
#SUBTITLETRANSLIT:;
#ARTISTTRANSLIT:;
#GENRE:;
#ORIGIN:;
#CREDIT:;
#BANNER:Badboy flygirl-bn.png;
#BACKGROUND:Badboy flygirl-bg.png;
#PREVIEWVID:;
#JACKET:Badboy flygirl-jacket.png;
#CDIMAGE:;
#DISCIMAGE:Badboy flygirl.png;
#LYRICSPATH:;
#CDTITLE:;
#MUSIC:Badboy flygirl.ogg;
#OFFSET:-0.062500;
#SAMPLESTART:59.491001;
#SAMPLELENGTH:20.000000;
#SELECTABLE:YES;
#DISPLAYBPM:105.000000;
#BPMS:0.000=105.000;
#STOPS:;
#DELAYS:;
#WARPS:;
#TIMESIGNATURES:0.000=4=4;
#TICKCOUNTS:0.000=4;
#COMBOS:0.000=1;
#SPEEDS:0.000=1.000=0.000=0;
#SCROLLS:0.000=1.000;
#FAKES:;
#LABELS:0.000=Song Start;
#BGCHANGES:;
#KEYSOUNDS:;
#ATTACKS:
;

//---------------dance-single - ----------------
#NOTEDATA:;
#CHARTNAME:;
#STEPSTYPE:dance-single;
#DESCRIPTION:;
#CHARTSTYLE:;
#DIFFICULTY:Hard;
#METER:11;
#RADARVALUES:0.563320,0.589437,0.699466,0.017487,0.192353,451.000000,371.000000,80.000000,2.000000,0.000000,0.000000,0.000000,0.000000,0.000000,0.563320,0.589437,0.699466,0.017487,0.192353,451.000000,371.000000,80.000000,2.000000,0.000000,0.000000,0.000000,0.000000,0.000000;
#CREDIT:;
#DISPLAYBPM:105.000000;
#NOTES:
0000
0000
0000
0000
,
0000
0000
0000
0000
,
0010
1000
0100
0001
0100
0000
1001
0000
,
0001
0010
0100
1000
0010
0100
0001
1000
,
0100
0001
0100
1000
0010
0000
0110
0010
,
1000
0001
0010
0100
1000
0010
1001
0100
,
1001
0010
1000
0001
0100
0001
0101
1000
,
0010
0100
0001
1000
0100
0010
0001
1000
,
0010
0100
0001
1000
1100
1100
1001
0000
,
0001
0000
0011
0000
0000
0000
1010
0000
0000
0000
0001
1000
0001
0000
0000
0000
,
1000
0010
1000
0000
0100
0000
0010
0000
0001
0000
0100
0000
0001
0000
1000
0000
,
0010
0000
1000
0100
1000
0000
0001
0000
0100
0000
0010
0000
1000
0000
0001
0000
,
0000
0000
0010
0001
0010
0000
0100
0000
1000
0000
0001
0000
0101
0000
1100
0000
,
0000
0000
1000
0100
1000
0000
0010
0000
0110
0000
1001
0000
0000
0001
1000
0000
,
0000
0000
0010
0100
0010
0000
1000
0000
0001
0100
0000
0000
0101
0000
1010
0000
,
0000
0000
1000
0001
0000
1000
0001
0000
0010
0000
0100
0000
1100
0000
0011
0000
,
1001
0000
0000
0010
0001
0000
0100
0000
0010
0000
1000
0000
1100
0000
0001
0000
,
0001
0000
0100
0000
1010
0000
0100
0000
0001
0000
1000
0010
1000
0010
1000
0000
,
0110
0000
0000
0000
0110
0000
0000
0001
0000
1000
0000
0001
0100
0000
0010
0000
,
1000
0000
0100
0000
1000
0000
0001
0100
0000
0100
0001
0000
0010
0000
0010
0000
,
0011
0000
0000
0101
0000
0000
1001
0000
0000
0000
0100
0001
0100
0000
0000
0000
,
1100
0000
0001
1000
0101
0000
0010
0100
,
0000
0000
0001
0010
0001
0000
0100
0000
0010
0000
1001
0000
1000
0100
1000
0100
,
1000
0000
0011
0000
0100
0000
0010
0000
1000
0000
0001
0100
0001
0000
0010
0000
,
1000
0001
1000
0001
1000
0000
0010
0000
0100
0000
0001
0000
1010
0000
0000
0000
,
1001
0000
1001
0000
0110
0000
0110
0000
1001
0000
1000
0001
0100
0000
0000
0000
,
0010
1000
0100
0001
0100
1000
1001
0011
,
0010
0100
1000
0010
0100
0001
0101
1100
,
1000
0010
0001
0010
1000
0100
0110
0011
,
0001
0000
0010
0000
1000
0000
0010
0000
0001
0000
1000
0100
1000
0100
0000
0000
,
1000
0100
0001
0100
1000
0010
0110
1010
,
0010
0001
0010
1000
0100
0010
0011
1100
,
0001
1000
0010
0001
0010
1000
1001
1100
,
0010
0000
0001
0000
0100
0000
0010
0000
1000
0000
0001
1000
0001
0000
0110
0000
,
1000
0010
0100
0001
,
0010
0000
0001
0000
0100
0000
1000
0000
0000
0000
0010
0100
0000
0000
0001
0000
,
1100
0001
1100
0001
0000
0100
1010
0000
,
0001
0000
0101
0000
0000
0000
1100
0000
0000
0000
0010
0000
1000
0001
0000
0001
,
0100
0000
0010
0000
1001
0000
0000
0101
0000
0000
1000
0000
0000
0000
0010
0100
,
0010
0000
0000
0101
0000
0000
0001
1000
0000
0000
0010
0100
0000
0000
0001
0000
,
1001
0010
0000
0100
1001
0010
0000
0100
,
0001
0010
0001
0010
0001
0000
0000
0000
1000
0010
1000
0010
1000
0000
0000
0000
,
0010
0100
0101
0010
1000
0001
0011
0010
,
0100
1000
1001
0010
1000
1100
0110
0011
,
0100
0010
1010
1100
1000
0001
0011
0101
,
0100
0001
1001
0110
0010
1001
0100
0001
,
1002
0000
0010
0000
1000
0000
0103
0001
,
1001
0000
1001
0000
0010
1000
0100
0001
,
0011
1001
1010
0010
1000
1100
0001
1000
,
0120
0000
0100
0000
0100
0000
0100
0000
0100
0000
0130
0000
0001
1000
0001
1000
;

//---------------dance-single - ----------------
#NOTEDATA:;
#CHARTNAME:;
#STEPSTYPE:dance-single;
#DESCRIPTION:;
#CHARTSTYLE:;
#DIFFICULTY:Medium;
#METER:9;
#RADARVALUES:0.412185,0.414270,0.367220,0.017487,0.000000,330.000000,288.000000,42.000000,2.000000,0.000000,0.000000,0.000000,0.000000,0.000000,0.412185,0.414270,0.367220,0.017487,0.000000,330.000000,288.000000,42.000000,2.000000,0.000000,0.000000,0.000000,0.000000,0.000000;
#CREDIT:;
#DISPLAYBPM:105.000000;
#NOTES:
0000
0000
0000
0000
,
0000
0000
0000
0000
,
0010
1000
0100
0001
0100
0000
0000
0000
,
1000
0000
0010
0100
0001
0010
0100
1000
,
0010
1000
0100
0001
0100
0000
0000
0000
,
1000
0000
0001
0010
0100
1000
0001
0100
,
0010
1000
0100
0001
0100
0000
0000
0000
,
1000
0000
0010
0100
0001
1000
0001
0100
,
0010
1000
0100
0001
0100
0000
0000
0000
,
0000
1100
0000
0101
0000
1000
0001
0000
,
0010
0001
0100
0000
0010
1000
0100
0000
,
1000
0001
0010
0100
1000
0001
0100
0010
,
0000
0010
1000
0100
1000
0001
1001
1001
,
0000
0001
0100
0010
0110
0110
0000
1000
,
0000
0001
0010
0100
1000
0000
1000
0001
,
0000
0011
0000
1000
0010
0100
0001
1000
,
1010
0000
0101
0000
1000
0001
0100
0000
,
0010
0100
0001
1000
0001
0010
0100
1000
,
1001
0000
1001
0000
0001
0010
0100
1000
,
0010
0100
0010
0100
0001
1000
0100
1000
,
0010
0100
0010
0100
0000
0001
1000
0000
,
0011
0000
1000
0010
1100
0000
0001
0100
,
0000
0010
1000
0001
0010
0100
1000
0010
,
0100
0010
1000
0100
0010
0001
1000
0001
,
0010
0001
1000
0010
1000
0001
0101
0000
,
1010
0000
1000
0100
0010
0001
1001
0000
,
0010
1000
0000
0001
0100
0000
1100
1100
,
1000
0010
0000
0100
0001
0000
0011
0011
,
0010
0001
0000
1000
0100
0000
0110
0110
,
0010
0100
0001
1000
0100
0010
0001
0000
,
1000
0001
0000
0100
0010
0000
1010
1010
,
1000
0010
0000
0001
0100
0000
0101
0101
,
0001
1000
0000
0010
0100
0000
1001
1001
,
0010
0100
0001
1000
0100
0010
0001
1000
,
0010
0100
0001
1000
,
0001
0010
0001
1000
0000
0010
0000
0100
,
0001
1000
0001
1000
0000
0010
0100
0000
,
0000
0011
0000
1010
0000
0001
1000
0010
,
1000
0100
0010
0001
0100
0010
0000
1000
,
0001
0000
1000
1001
0000
0110
0000
1000
,
0001
0100
0000
0100
0010
1000
0000
1000
,
0001
0001
0011
0000
1000
1000
1010
0000
,
0000
1000
0001
0010
0000
0001
0100
0010
,
0000
1000
0100
0010
0000
0001
1000
0001
,
0000
1000
0010
0100
0000
0001
1000
0100
,
0000
1000
0100
0010
0000
1001
0000
0001
,
0202
0000
0000
0000
0000
0000
0303
0100
,
0110
0000
0110
0000
0000
0000
0000
1000
,
1100
1100
1100
0000
0000
0011
0000
1000
,
0010
0010
0010
0010
0010
0010
0010
0010
;

//---------------dance-single - ----------------
#NOTEDATA:;
#CHARTNAME:;
#STEPSTYPE:dance-single;
#DESCRIPTION:;
#CHARTSTYLE:;
#DIFFICULTY:Easy;
#METER:6;
#RADARVALUES:0.306016,0.304486,0.533343,0.034973,0.000000,245.000000,184.000000,61.000000,4.000000,0.000000,0.000000,0.000000,0.000000,0.000000,0.306016,0.304486,0.533343,0.034973,0.000000,245.000000,184.000000,61.000000,4.000000,0.000000,0.000000,0.000000,0.000000,0.000000;
#CREDIT:;
#DISPLAYBPM:105.000000;
#NOTES:
0000
0000
0000
0000
,
0000
0000
0000
0000
,
0010
1000
0100
1001
,
0010
0001
1000
0010
,
0100
0001
1000
0110
,
0011
0001
1000
1001
,
1001
0010
1000
0110
,
0001
0100
0010
1000
,
0010
0100
0001
1001
,
2020
0000
3030
0110
,
0001
0001
1000
0010
,
0100
0001
1000
0100
,
1000
0010
0100
0101
,
0001
1000
1100
0010
,
0001
1000
0001
0010
,
0100
1000
0010
0100
,
0110
0001
0011
1100
,
0001
1000
0001
0100
,
0110
0110
0001
1000
,
1001
0100
1000
0001
,
0011
1010
0001
1000
,
0101
0010
1100
0010
,
0001
1000
0100
0100
,
1000
0010
0100
0001
,
0011
0001
1000
0100
,
1000
0010
0100
0110
,
0001
0001
1000
1001
,
0010
0010
0100
0110
,
0010
1000
0100
1100
,
1000
0001
0100
0101
,
0100
0100
0010
1001
,
1000
1000
0001
0110
,
0001
1000
0010
1010
,
1000
0100
0010
0011
,
1001
0100
1000
0100
,
1000
1010
0100
0001
,
1001
1001
0100
0010
,
1000
0001
1000
1100
,
0001
0011
0101
1000
,
1010
1100
1000
0010
,
0110
0001
1000
0100
,
1000
1100
0001
0101
,
0010
1001
0010
1100
,
0010
0101
0010
1010
,
0001
0011
1000
1100
,
0010
0110
0100
1001
,
2200
0000
0000
3300
,
0110
0110
0000
0000
,
0011
0011
0011
0000
0000
0000
0000
0000
,
1001
1001
1001
1001
;

//---------------dance-single - ----------------
#NOTEDATA:;
#CHARTNAME:;
#STEPSTYPE:dance-single;
#DESCRIPTION:;
#CHARTSTYLE:;
#DIFFICULTY:Beginner;
#METER:3;
#RADARVALUES:0.141142,0.173992,0.078690,0.026230,0.000000,113.000000,104.000000,9.000000,3.000000,0.000000,0.000000,0.000000,0.000000,0.000000,0.141142,0.173992,0.078690,0.026230,0.000000,113.000000,104.000000,9.000000,3.000000,0.000000,0.000000,0.000000,0.000000,0.000000;
#CREDIT:;
#DISPLAYBPM:105.000000;
#NOTES:
0000
0000
0000
0000
,
0000
0000
0000
0000
,
0010
0000
0100
0000
,
0001
0000
1000
1000
,
1000
0000
0001
0000
,
1001
0000
0000
0100
,
0100
0000
0010
0000
,
1000
0000
0001
0001
,
0001
0000
0100
0000
,
0110
0000
0000
0001
,
0001
0000
1000
0000
,
0010
0000
0100
0000
,
0000
0001
0001
0001
,
0000
0010
0010
0000
,
0000
0001
0000
1000
,
0000
0100
0000
1000
,
0010
0010
0010
0000
,
0100
0100
0000
0001
,
0010
0010
0000
0000
,
1000
1000
0000
0000
,
0001
0001
0000
0000
,
1001
0000
0110
0000
,
0000
1000
1000
1000
,
1000
0000
0010
0010
,
0010
0000
0100
0000
,
0001
0001
0001
0001
,
1000
0000
0001
0000
,
0010
0000
0100
0000
,
1000
0000
0010
0000
,
0100
0000
0001
0000
,
0010
0000
0001
0000
,
1000
0000
0010
0000
,
0100
0000
0001
0000
,
1000
0000
0100
0000
,
1001
0000
0000
0000
,
0000
0110
0000
0000
,
0100
0100
0000
0001
,
0000
1000
0000
1000
,
0100
0100
0100
0000
,
0110
0000
0000
0000
,
1001
0000
0001
0000
,
1000
1000
1000
1000
,
0000
0010
0000
0010
,
0000
0010
0000
0010
,
0000
1000
0000
0001
,
0000
1000
0000
0000
,
0020
0000
0030
0000
,
0100
0100
0000
0000
,
0001
0001
0001
0000
0000
0000
0000
0000
,
2002
0000
0000
3003
;

//---------------dance-single - ----------------
#NOTEDATA:;
#CHARTNAME:;
#STEPSTYPE:dance-single;
#DESCRIPTION:;
#CHARTSTYLE:;
#DIFFICULTY:Challenge;
#METER:14;
#RADARVALUES:0.768163,0.720422,1.049199,0.113663,0.861217,615.000000,495.000000,120.000000,13.000000,0.000000,0.000000,0.000000,0.000000,0.000000,0.768163,0.720422,1.049199,0.113663,0.861217,615.000000,495.000000,120.000000,13.000000,0.000000,0.000000,0.000000,0.000000,0.000000;
#CREDIT:;
#DISPLAYBPM:105.000000;
#NOTES:
0000
0000
0000
0000
,
0000
0000
0000
0000
,
0010
0000
0010
0000
1000
0001
0000
0001
0100
0000
0010
0000
1010
0000
0000
0000
,
0001
0000
0001
0000
1000
0010
0000
0100
0000
0001
1000
0000
1100
0000
0001
0000
,
1000
0000
1000
0000
0010
0100
0000
0100
0001
0000
1000
0000
1001
0000
0010
0000
,
0101
0000
1000
0000
0010
0100
0000
0001
0000
1000
0010
0000
0110
0000
0001
0000
,
0110
0000
1000
0000
0100
0010
0000
0010
0001
0000
1000
0000
0011
0000
0100
0000
,
0010
0000
0010
0000
1000
0100
0000
1000
0000
0001
0100
0000
1001
0000
0001
0000
,
0010
0000
0010
0000
0001
1000
0000
0001
0011
0000
1100
0000
0101
0000
0010
0000
,
1000
0000
1100
0000
0001
0000
0101
0000
0010
0000
1000
0001
1001
0000
0000
0000
,
1000
0010
1000
0010
0000
0100
0001
0010
0100
1000
0001
1000
0000
0010
0100
0001
,
0010
0000
0001
1000
0010
0000
1000
0100
0000
0100
0010
0001
0100
0010
1000
0000
,
0000
0001
1000
0001
0010
0100
1000
0010
1000
0001
0100
0010
2010
0000
0001
3001
,
0000
1000
0010
0100
0001
0010
0100
1000
1002
0000
0100
0103
0000
0001
1000
0000
,
0000
0010
1000
0010
0100
0001
1000
0100
0010
0001
0000
0001
1000
0100
1000
0001
,
0000
0010
0001
1000
0000
0001
0010
0100
1000
0010
1000
0100
1100
0000
0011
0000
,
1001
0001
0000
0100
0010
1000
0000
0010
1000
0001
0000
0101
0000
0000
0110
0000
,
1001
0000
0110
0000
1001
0000
1000
0001
0100
0010
1000
0100
0001
0100
1000
0000
,
1001
0000
0000
0000
1001
0000
0000
0010
0000
0001
0000
0100
0010
1000
0010
1000
,
0001
0000
1010
0000
0100
1000
0100
2000
0000
0001
3001
0000
0010
0001
1000
0010
,
0210
0000
0001
0302
0000
1000
2003
0000
0000
3001
0010
0100
1100
0000
0000
0011
,
0000
1001
0000
0000
0010
0000
1000
0100
0000
1100
0000
0001
0011
0000
0110
0000
,
0000
1000
0100
0010
0100
0010
0001
0100
0020
0000
1030
0001
1000
0010
0100
0001
,
0020
0000
0032
0000
1003
0010
0100
0010
0000
1000
0001
1000
0001
0100
0010
1000
,
0001
0010
0001
1000
0010
0100
0001
1000
0000
1000
0001
0100
0101
0000
0000
0000
,
1010
0000
0010
0100
0101
0000
0001
2000
0000
3020
0000
0130
1001
0000
0000
0000
,
1100
0000
0101
0000
0000
0011
0000
1100
0000
1000
0010
0100
0001
0010
0100
1000
,
1010
0000
0011
0000
0000
0101
0000
1010
0000
0010
0100
0001
1001
0000
0110
0000
,
1010
0000
0101
0000
0000
0011
0000
1010
0000
0010
0100
0001
1000
0100
0010
0001
,
0011
0000
1100
0000
0000
0101
0000
1100
0000
1000
0010
0100
0001
0010
1000
0000
,
1010
0000
1100
0000
0000
0011
0000
0101
0000
0010
0001
1000
0010
0100
0001
1000
,
1100
0000
0011
0000
0000
0101
0000
1010
0000
1000
0010
0100
0110
0000
1001
0000
,
0011
0000
1010
0000
0000
0011
0000
0101
0000
0100
0010
1000
0001
1000
0010
0100
,
0101
0000
1100
0000
0000
1010
0000
1100
0000
1000
0010
0100
0010
0100
0001
1000
,
0001
0000
1000
0000
0010
1000
0000
0001
0100
0000
0010
0000
1000
0000
0001
0000
,
0010
0000
0011
0000
1100
0000
0101
0000
0010
0000
1000
0001
0000
1000
0100
0000
,
1100
0000
0101
0000
1100
0000
0101
0000
0000
0000
0010
0100
0002
0000
0000
0000
,
0013
0000
1001
0000
0100
0000
1001
0000
0010
0000
1001
0000
1000
0001
0000
1000
,
1010
0000
0101
0000
0011
0000
0000
1100
0000
0001
1000
0010
0000
1000
0001
0100
,
0110
0000
0000
1010
0000
0000
0001
0010
0000
0000
0100
1000
0000
0000
0010
0100
,
0110
0000
1001
0000
0000
0000
1000
0001
0101
0000
1100
0000
0010
0000
0000
0100
,
0001
0010
1000
0010
0001
0100
0010
0100
0001
0010
1000
0010
0001
0100
0010
1000
,
0001
0000
1000
0001
0011
0000
1100
0000
0010
0000
0100
0001
1001
0000
1100
0000
,
0010
0000
0100
0001
0011
0000
1100
0000
0010
0000
1000
0001
0010
0100
1000
0000
,
0010
0100
0001
1000
0100
0010
0011
0000
0001
0100
0010
1000
0001
1000
1010
0000
,
0010
0100
0001
1000
0100
0010
0110
0000
0001
0000
1001
0000
1000
0010
0110
0000
,
2001
0100
0100
0000
0001
0001
3001
0011
,
1001
0000
1001
0000
0010
1000
0001
0011
,
1100
0000
0101
0000
1100
0000
0010
0000
1000
0000
0110
0000
0001
1000
0100
0000
,
1010
0000
1100
0000
0011
0000
0101
0000
1001
0000
0110
0000
1000
0010
0100
0001
;

//---------------dance-double - ----------------
#NOTEDATA:;
#CHARTNAME:;
#STEPSTYPE:dance-double;
#DESCRIPTION:;
#CHARTSTYLE:;
#DIFFICULTY:Easy;
#METER:6;
#RADARVALUES:0.249809,0.260988,0.375963,0.034973,0.000000,200.000000,157.000000,43.000000,4.000000,0.000000,0.000000,0.000000,0.000000,0.000000,0.249809,0.260988,0.375963,0.034973,0.000000,200.000000,157.000000,43.000000,4.000000,0.000000,0.000000,0.000000,0.000000,0.000000;
#CREDIT:;
#DISPLAYBPM:105.000000;
#NOTES:
00000000
00000000
00000000
00000000
,
00000000
00000000
00000000
00000000
,
00000001
00000100
00001001
00000000
,
00010000
00000100
00010000
00001000
,
00100000
01000000
10010000
00000000
,
10100000
00010000
01000000
00011000
,
00011000
00000010
00001000
00000000
,
00000001
00000010
00000001
00001000
,
00000100
00010000
00010010
00000000
,
00101000
00000000
00000000
00000000
00000000
00010000
01000000
00000000
,
00100000
10000000
01000000
00100000
,
00010000
01000000
00001000
00011000
,
00000000
00000100
00000010
00000101
,
00001000
00000010
00000110
00001001
,
00000000
00000001
00000100
00000010
,
00010000
00001000
00100000
01000000
,
00110000
00010000
01000000
11000000
,
00100000
01000000
00001000
00010000
,
00001001
00001001
00000010
00001000
,
00000100
00000010
00000001
00000100
,
00000010
00010010
00010000
01000000
,
01100000
00010000
10100000
00001000
,
00000000
00000100
00000001
00001000
,
00000010
00000100
00000010
00001000
,
00000100
00010000
00001000
01010000
,
00100000
10000000
01000000
00011000
,
00100000
01000000
10000000
01010000
,
00001000
00010000
00000100
00001010
,
00000001
00000010
00001000
00010010
,
00010000
00001000
01000000
00101000
,
00100000
01000000
10000000
00110000
,
00010000
01000000
00001000
00010100
,
00000010
00000001
00000100
00001001
,
00000100
00000000
00000001
00000011
,
00001000
00000000
00100000
00000000
,
10000000
11000000
00010000
01000000
,
00011000
00011000
00000000
01000000
,
00000000
00010000
00000000
00100000
,
00001000
00011000
00001010
00000000
,
00001100
00000001
00000000
00000000
,
00000010
00000000
00000100
00000000
,
00000001
00000101
00001000
00001010
,
00000000
00010000
00000000
01000000
,
00000000
00000000
10000000
00000000
00000000
00000000
00100000
00100000
,
00000000
10000000
00000000
00010000
,
00000000
01000000
00000000
00001000
,
00022000
00000000
00033000
00000000
,
00000110
00000110
00000000
00000000
,
00000101
00000101
00000101
00000000
00000000
00000000
00000000
00000000
,
00220000
00000000
00000000
00330000
;

//---------------dance-double - ----------------
#NOTEDATA:;
#CHARTNAME:;
#STEPSTYPE:dance-double;
#DESCRIPTION:;
#CHARTSTYLE:;
#DIFFICULTY:Medium;
#METER:9;
#RADARVALUES:0.385955,0.457877,0.454653,0.087433,0.008743,309.000000,257.000000,52.000000,10.000000,0.000000,0.000000,0.000000,0.000000,0.000000,0.385955,0.457877,0.454653,0.087433,0.008743,309.000000,257.000000,52.000000,10.000000,0.000000,0.000000,0.000000,0.000000,0.000000;
#CREDIT:;
#DISPLAYBPM:105.000000;
#NOTES:
00000000
00000000
00000000
00000000
,
00000000
00000000
00000000
00000000
,
10000000
00000000
00100000
01000000
00001000
00000000
00000000
00000000
,
00010000
00000000
00000010
00000000
00001000
00000001
00000100
00000000
,
00000010
00000000
00001000
00000100
00010000
00000000
00000000
00000000
,
10010000
00000000
10000000
00100000
01000000
00000000
00011000
00000000
,
00011000
00000000
00001000
00100000
01000000
00000000
00000000
00000000
,
10000000
00000000
00100000
00000000
10000000
00010000
01000000
00000000
,
00001000
00000000
00010000
00000000
00000010
00000010
00001001
00000000
,
00000000
00000020
00000000
00000230
00000000
00000301
00001000
00000000
,
00000001
00000010
00001000
00000000
00000100
00010000
00100000
00000000
,
10000000
00010000
10000000
00100000
01000000
00000000
01010000
00000000
,
00000000
10000000
01000000
00000000
10000000
00100000
01000000
01100000
,
00000000
00001000
00100000
00010000
00000100
00000110
00000000
00000001
,
00000000
00000010
00000001
00001000
00000010
00000000
00001000
00001010
,
00000000
00010000
00000000
00001000
01000000
00000000
00100000
00100000
,
10010000
00000000
01100000
00000000
00010000
10000000
01000000
00000000
,
00100000
00001000
00010000
00000010
00001000
00000100
00010000
00001000
,
00011000
00000000
00011000
00000000
00001000
01000000
00100000
00000000
,
10000000
00010000
00100000
01000000
00100000
00000000
00001000
00000010
,
00000002
00000000
00000000
00002003
00000000
00000000
00003100
00000000
00000000
00000000
00000010
00000000
00010100
00000000
00000000
00000000
,
00000012
00000000
00001003
00000001
00001020
00000000
00000130
00010000
,
00000000
10000000
00100000
01000000
00010000
00000000
00100000
01000000
,
10000000
00000000
00010000
01000000
00001000
00010000
00000100
00000000
,
00001000
00000001
00000010
00000001
00001000
00000100
00001001
00000000
,
00000010
00010000
00001000
00100000
01000000
10000000
01100000
00000000
,
00010000
00100000
00000000
10000000
01000000
00000000
00101000
00000000
,
00001000
00010000
00000000
00000010
00000100
00000000
00001001
00000110
,
00000010
00001000
00000000
00000100
00000001
00000000
00001100
00000000
,
00000100
00010000
00000000
00001000
00100000
00000000
11000000
00000000
,
00100000
01000000
00000000
00001000
00010000
00000000
00001010
00000000
,
00000001
00001000
00000000
00000010
00000100
00000000
00000110
00001001
,
00000100
00001000
00000000
00100000
00010000
00000000
10100000
00000000
,
01000000
00001000
00000000
00010000
00100000
00000000
10010000
01000000
,
00100000
10000000
01000000
00010000
,
00000000
00100000
00001000
00010000
00000000
00001000
00000000
01000000
,
00011000
00000000
00011000
00000000
00000000
00000010
00000100
00000000
,
00000000
00000001
00000000
00000100
00000000
00000010
00001000
00000100
,
00001000
00001000
00001100
00000000
00000101
00000000
00000000
00010000
,
01000000
00000000
00000000
01100000
00000000
00000000
00200000
00000000
00000000
00000000
02300000
00000000
00000000
00000000
13000000
00000000
,
00010000
10100000
00000000
00001000
00010000
00001100
00000000
00000000
,
00000010
00000100
00001001
00000000
00010000
00001000
00000011
00000000
,
00000000
00000001
00001000
00000010
00000000
00000100
00010000
00100000
,
00000000
10000000
01000000
00100000
00000000
01000000
11000000
01010000
,
00000000
00100000
00110000
10100000
00000000
01000000
01100000
10010000
,
00000000
00001000
00101000
00011000
00000000
00000010
00000000
00000100
,
00002010
00000000
00000001
00000000
00000100
00000000
00003001
00001000
,
00000110
00000110
00010000
00000100
,
00011000
00011000
00011000
00000000
00000000
01000000
00000000
00100000
,
01020000
00000000
00100000
00000000
10000000
00000000
01030000
10010000
;

//---------------dance-double - ----------------
#NOTEDATA:;
#CHARTNAME:;
#STEPSTYPE:dance-double;
#DESCRIPTION:;
#CHARTSTYLE:;
#DIFFICULTY:Hard;
#METER:12;
#RADARVALUES:0.549580,0.545775,0.664492,0.034973,0.306016,440.000000,364.000000,76.000000,4.000000,0.000000,0.000000,0.000000,0.000000,0.000000,0.549580,0.545775,0.664492,0.034973,0.306016,440.000000,364.000000,76.000000,4.000000,0.000000,0.000000,0.000000,0.000000,0.000000;
#CREDIT:;
#DISPLAYBPM:105.000000;
#NOTES:
00000000
00000000
00000000
00000000
,
00000000
00000000
00000000
00000000
,
00000100
00000100
00001000
00000001
00000100
00000000
00001001
00000000
,
00010000
00010000
00000010
00001000
00000100
00010000
00100000
01000000
,
00100000
00100000
10000000
00010000
01000000
00000000
01100000
00010000
,
11000000
00100000
01000000
00010000
10000000
00100000
00011000
01000000
,
00011000
00000100
00001000
00000010
00000100
00000000
00000101
00000000
,
00000010
00000010
00001000
00000100
00001000
00000001
00000100
00000010
,
00010000
00010000
00001000
01000000
01010000
11000000
01010000
00000000
,
00100000
00000000
10010000
00000000
00000000
00000000
01100000
00000000
00000000
00000000
00001000
00010000
00001000
00000000
00000000
00000000
,
01000000
00100000
10000000
01000000
00100000
00001000
01000000
00100000
,
01000000
00000000
00010000
00000000
00100000
00000000
01000000
00000000
10000000
00000000
00100000
00000000
01000000
00001000
01000000
00000000
,
00000000
00000000
00010000
00000000
00000100
00000010
00000100
00000000
00001000
00000000
00000001
00000000
00000011
00000000
00001100
00000000
,
00000000
00000000
00000010
00000000
00001000
00000001
00001000
00000000
00000110
00000000
00011000
00000000
00000000
00001000
01000000
00000000
,
00000000
00000000
00010000
00000000
00100000
00000000
01000000
00000000
10000000
00010000
00000000
10000000
01000000
00000000
00110000
00000000
,
00000000
00000000
00001000
00010000
00000000
00010000
00000100
00000000
00000010
00000000
00000001
00000000
00001001
00000000
00001001
00000000
,
00001100
00000000
00000000
00000001
00001000
00000000
00000000
00000010
00000100
00000000
00000001
00000000
00001010
00000000
00010000
00000000
,
00010000
00000000
00001000
00000000
01000000
00000000
00100000
00000000
10000000
00000000
00100000
00001000
00100000
00010000
00100000
00000000
,
10100000
00000000
00000000
00000000
10100000
00000000
00000000
00100000
00000000
10000000
00000000
00010000
01000000
00000000
00100000
00000000
,
00001000
00000000
00000100
00000000
00000001
00000000
00000010
00000100
00000000
00001000
00000001
00000000
00010000
00000100
00001000
00000100
,
00000010
00000000
00000000
00000011
00000000
00000000
00010100
00000000
00000000
00001000
00100000
00001000
00100000
00000000
00000000
00000000
,
00110000
00110000
10000000
01000000
10100000
10100000
00010000
01000000
,
00000000
00000000
00010000
10000000
00010000
01000000
00100000
00000000
10000000
00000000
11000000
00000000
00010000
00000000
00100000
00001000
,
00010000
00000000
00000110
00000000
00000001
00000000
00000100
00000000
00000010
00000000
00001000
00000100
00000010
00000000
00001001
00000000
,
00100000
00010000
00100000
00010000
00100000
00000000
01000000
00000000
10000000
00000000
00010000
00000000
01001000
00000000
00000000
00000000
,
00100000
00000000
10000000
00010000
01000000
00000000
00100000
00000000
10000000
00000000
11000000
00000000
01010000
00000000
00000000
00000000
,
00001000
00000000
00011000
00000000
00000000
00000010
00000000
00000100
00000000
00000000
00000001
00000000
00001000
00000000
00000100
00000000
,
00000010
00000000
00000011
00000000
00000000
00001000
00000000
00000001
00000000
00000000
00000010
00000000
00001010
00000000
00010100
00000000
,
00100000
00000000
10100000
00000000
00000000
00001000
00000000
01000000
00000000
00000000
00100000
00000000
10000000
00000000
00010000
00000000
,
01000000
00000000
01100000
00000000
00000000
00010000
00000000
00000010
00000000
00000000
00000001
00001000
00000001
00000100
00000000
00000000
,
00000010
00000000
00000110
00000000
00000000
00001000
00000000
00000100
00000000
00000000
00010000
00000000
00001000
00000000
01000000
00000000
,
00010000
00000000
01010000
00000000
00000000
00100000
00000000
01000000
00000000
00000000
00010000
00000000
00110000
00000000
11000000
00000000
,
00001000
00000000
00101000
00000000
00000000
00010000
00000000
00000010
00000000
00000000
00000100
00000000
00000001
00000000
00000010
00000000
,
00000100
00000000
00001100
00000000
00000000
00000010
00000000
00001000
00000000
00000000
00000100
00010000
00001000
00000000
00100000
00000000
,
10010000
00000000
01000000
00100000
10000000
00000000
01010000
00000000
,
00100000
00000000
10000000
00000000
01010000
00000000
00010000
00000000
00000000
00000000
00100000
01000000
00000000
00000000
00100000
00000000
,
00011000
01000000
00011000
00000100
00000000
00001000
00000001
00000000
,
00000010
00000000
00000101
00000000
00000000
00000000
00001100
00000000
00000000
00000000
00110000
00000000
00001000
00010000
00000000
00001000
,
00100000
00000000
00100000
00000000
01100000
00000000
00000000
10010000
00000000
00000000
00100000
00000000
00000000
00000000
10000000
00010000
,
10000000
00000000
00000000
00100000
00000000
00000000
01001000
00000000
00000000
00000000
00010100
00000000
00000000
00000000
00000010
00001000
,
00000100
00000000
00000110
00000000
00000000
00000000
00000001
00001000
00000010
00000000
00001001
00000000
00000000
00000000
00000000
00000000
,
00001000
00010000
00001000
00010000
02000000
00000000
00000000
00000000
03010000
00001000
00010000
00001000
00000200
00000000
00000000
00000000
,
00000300
00000000
00000001
00000100
00000010
00000000
00000101
00000000
00000000
00000000
00010000
00001000
01000000
00000000
10100000
00000000
,
00000000
00000000
00100000
10000000
00010000
00000000
11000000
00000000
00000000
00000000
00100000
01000000
00010000
00000000
00110000
00000000
,
00000000
00000000
00001000
00010000
00000010
00000000
00000110
00000000
00000000
00000000
00000100
00000001
00001000
00000000
00000101
00000000
,
00000000
00000000
00000001
00000100
00000010
00000000
00001010
00000000
00000000
00000000
00001100
00000000
00000000
00000000
00000010
00000000
,
00012000
01000000
01000000
00000000
00010000
00100000
00103000
01000000
,
01100000
00000000
01100000
00000000
10000000
00010000
01000000
00100000
,
10100000
01010000
10100000
00000000
01000000
01001000
00010000
00001000
,
00020100
00000000
00001000
00000000
00000100
00000000
00001000
00000000
00000100
00000000
00001000
00000000
00030010
00000100
00000001
00001000
;

//---------------dance-double - ----------------
#NOTEDATA:;
#CHARTNAME:;
#STEPSTYPE:dance-double;
#DESCRIPTION:;
#CHARTSTYLE:;
#DIFFICULTY:Challenge;
#METER:14;
#RADARVALUES:0.733190,0.698591,0.926792,0.000000,0.878704,587.000000,481.000000,106.000000,0.000000,0.000000,0.000000,0.000000,0.000000,0.000000,0.733190,0.698591,0.926792,0.000000,0.878704,587.000000,481.000000,106.000000,0.000000,0.000000,0.000000,0.000000,0.000000,0.000000;
#CREDIT:;
#DISPLAYBPM:105.000000;
#NOTES:
// measure 0
00000000
00000000
00000000
00000000
,  // measure 1
00000000
00000000
00000000
00000000
,  // measure 2
10100000
00000000
10100000
00000000
10000000
01000000
00000000
00100000
00001000
00000000
00000000
00000000
01010000
00000000
00000000
00000000
,  // measure 3
00000100
00000000
00000100
00000000
00000001
00001000
00000000
00000010
00000000
00001000
00000100
00000000
00000010
00000000
00000001
00000000
,  // measure 4
00000110
00000000
00000110
00000000
00001000
00000100
00000000
00010000
01000000
00000000
00000000
00000000
11000000
00000000
00100000
00000000
,  // measure 5
10010000
00000000
01100000
00000000
00010000
01000000
00000000
00001000
00000000
00100000
01000000
00000000
00011000
00000000
00000100
00000000
,  // measure 6
00011000
00000000
01000000
00000000
00001000
00010000
00000000
00000010
00000100
00000000
00000001
00000000
00001001
00000000
00000100
00000000
,  // measure 7
00000010
00000000
00000010
00000000
00000100
00000001
00000000
00000010
00000000
00001000
01000000
00000000
01100000
00000000
10000000
00000000
,  // measure 8
00010000
00000000
00010000
00000000
00100000
00001000
00000000
01000000
00100000
00000000
10100000
00000000
01001000
00000000
00000000
00000000
,  // measure 9
00010000
00000000
00001100
00000000
00000000
00000000
00000101
00000000
00000000
00000000
00000010
00010000
00000100
00000000
00000000
00000000
,  // measure 10
01000000
00100000
01000000
00010000
00000000
00100000
01000000
10000000
00100000
01000000
00010000
00001000
00000000
00000100
00010000
00001000
,  // measure 11
00000010
00000000
00000001
00000100
00000010
00001000
00000100
00000010
00000000
00000001
00000100
00000010
00001000
00000100
00010000
00000000
,  // measure 12
00000000
00100000
01000000
00100000
10000000
01000000
00010000
01000000
00100000
00001000
01000000
00100000
10000000
00000000
01000000
11000000
,  // measure 13
00000000
00010000
01000000
00100000
00001000
00000010
00000100
00001000
00010000
00000000
00000010
00001010
00000000
00000001
00000100
00000000
,  // measure 14
00000000
00000010
00001000
00000001
00001000
00000100
00001000
00010000
10000000
01000000
00000000
10000000
00001000
01000000
00100000
00010000
,  // measure 15
00000000
00000100
00001000
00000001
00000000
00010000
00001000
00000100
00000001
00000010
00000100
00001000
00001100
00000000
00000011
00000000
,  // measure 16
00001000
00001000
00000000
00000010
00000100
00000001
00000000
00001000
00000100
00010000
00000000
10001000
00000000
00000000
00100000
00000000
,  // measure 17
10100000
00000000
00011000
00000000
01000000
00000000
00100000
10000000
00010000
00000000
01000000
00001000
00010000
00001000
00000100
00000000
,  // measure 18
00000110
00000000
00000000
00000000
00000110
00000000
00000000
00000001
00000000
00000010
00000000
00000001
00001000
00000010
00000100
00010000
,  // measure 19
01000000
00000000
00100000
00000000
10000000
00010000
00100000
01000000
00000000
00001000
00000001
00000000
00000100
00000010
00010000
00001000
,  // measure 20
01001000
00000000
01000000
01100000
00000000
00100000
10100000
00000000
00000000
10000000
01000000
00100000
00001000
00000000
00000000
00010010
,  // measure 21
00000000
00001100
00000000
00000000
00000010
00000000
00000100
00000101
00000000
00001010
00000000
00010000
01000000
00000000
01100000
00000000
,  // measure 22
00000000
00001000
00010000
00000010
00100000
01000000
10000000
00010000
01000000
00000000
01000000
00001000
00010000
00000010
00000100
00000001
,  // measure 23
00001000
00000010
00000001
00000010
00001000
00000100
00000000
00000011
00000000
00010000
00001000
01000000
00100000
00001000
00100000
10000000
,  // measure 24
01000000
00100000
10000000
00100000
00010000
00000000
01000000
00100000
00000000
01000000
00001000
00010000
00000100
00000000
00000000
00000000
,  // measure 25
00000010
00000000
00000010
00000001
00001000
00000000
00000100
00010000
00000000
00001000
00000000
01000000
10010000
00000000
00000000
00000000
,  // measure 26
10100000
00000000
10100000
00000000
00000000
01000100
00000000
01000100
00000000
00100000
10000000
00010000
00001000
00000010
00000100
00000001
,  // measure 27
00000011
00000000
00000011
00000000
00000000
00011000
00000000
00011000
00000000
00000010
00000100
00000001
00001001
00000000
00000110
00000000
,  // measure 28
00010010
00000000
00010010
00000000
00000000
00101000
00000000
00101000
00000000
00010000
00001000
01000000
00100000
00010000
00100000
10000000
,  // measure 29
11000000
00000000
11000000
00000000
00000000
00010100
00000000
00010100
00000000
00000000
00100000
00001000
00010000
00000001
00000000
00000000
,  // measure 30
00001100
00000000
00000101
00000000
00000000
00010010
00000000
01001000
00000000
00001000
00010000
00000100
00001000
00000010
00000001
00000010
,  // measure 31
00000110
00000000
00000101
00000000
00000000
00001100
00000000
00110000
00000000
01000000
00010000
10000000
10010000
00000000
01100000
00000000
,  // measure 32
01010000
00000000
00101000
00000000
00000000
00000110
00000000
00011000
00000000
00000010
00000001
00000100
00000010
00000001
00000010
00010000
,  // measure 33
00010100
00000000
01001000
00000000
00000000
10100000
00000000
11000000
00000000
10000000
00010000
01000000
00001000
00000100
00000001
00000010
,  // measure 34
00001000
00000000
00001000
00000000
00000001
00000100
00000000
00000010
00100000
00000000
00011000
00000000
00000100
00000000
00000000
00000000
,  // measure 35
00000001
00000000
00001000
00000000
00000101
00000000
00001010
00000000
00000100
00000000
00001000
00000010
00000000
00010000
00000010
00000000
,  // measure 36
00011000
00000000
00000100
00000000
00011000
00000000
01000000
00000000
00100000
00000000
10000000
00010000
01000000
00000000
00000000
00000000
,  // measure 37
00100000
00000000
10010000
00000000
10000000
00000000
00110000
00000000
01000000
00000000
01001000
00000000
00010000
00000010
00000000
00000100
,  // measure 38
00000001
00000000
00000001
00000000
00000011
00000000
00000000
00010100
00000000
00001000
00000010
00001000
00000000
00000100
01000000
00100000
,  // measure 39
10100000
00000000
00000000
01100000
00000000
00000000
00010000
10000000
00000000
00000000
00010000
00001000
00000000
00000000
00000001
00001000
,  // measure 40
00001100
00000000
00001100
00000000
00000000
00000000
00000010
00000100
00000101
00000000
00000101
00000000
00000000
00000000
00000000
00000010
,  // measure 41
00010000
00000100
00010000
00000100
00010000
01000000
00010000
01000000
00010000
00000100
00010000
00000100
00010000
01000000
00010000
01000000
,  // measure 42
00000000
00000000
00001000
01000000
01100000
00000000
10010000
00000000
00000000
00000000
10000000
01000000
00110000
00000000
11000000
00000000
,  // measure 43
00000000
00000000
00100000
00001000
01001000
00000000
00010100
00000000
00000000
00000000
00000010
00001000
00100000
00001000
00000010
00000000
,  // measure 44
00000000
00000001
00000010
00001000
00000001
00000100
00001000
00000000
00000000
00010000
00100000
10000000
00010000
01000000
10000000
00000000
,  // measure 45
00000000
10000000
01000000
00010000
00001000
00000010
00000001
00000000
00000000
00000000
00000110
00000000
00000000
00000000
00010000
00000000
,  // measure 46
00011000
00000000
01000000
00000000
01000000
00000000
00100000
10000000
00000000
10000000
01000000
00000000
00100000
00000000
00001000
00000000
,  // measure 47
00011000
00000000
00000000
00000000
00011000
00000000
00000010
00000100
00000000
00000001
00001000
00000000
00000100
00000000
00010000
00000000
,  // measure 48
00011000
00000000
00011000
00000000
00011000
00000000
00100000
01000000
00000000
10000000
00100000
00000000
01000000
00000000
00010000
00000000
,  // measure 49
01100000
00000000
01100000
00000000
01100000
00000000
01100000
00000000
01100000
00000000
01100000
00000000
10000000
00010000
00100000
00001000
;
