#VERSION:0.83;
#TITLE:Bad Habit;
#SUBTITLE:;
#ARTIST:Lady Dubbz;
#TITLETRANSLIT:;
#SUBTITLETRANSLIT:;
#ARTISTTRANSLIT:;
#GENRE:;
#ORIGIN:;
#CREDIT:;
#BANNER:Bad Habit-bn.png;
#BACKGROUND:Bad Habit-bg.png;
#PREVIEWVID:;
#JACKET:Bad Habit-jacket.png;
#CDIMAGE:;
#DISCIMAGE:;
#LYRICSPATH:;
#CDTITLE:;
#MUSIC:Bad Habit.ogg;
#OFFSET:0.000000;
#SAMPLESTART:76.800003;
#SAMPLELENGTH:20.000000;
#SELECTABLE:YES;
#DISPLAYBPM:175.000000;
#BPMS:0.000=175.000;
#STOPS:;
#DELAYS:;
#WARPS:;
#TIMESIGNATURES:0.000=4=4;
#TICKCOUNTS:0.000=4;
#COMBOS:0.000=1;
#SPEEDS:0.000=1.000=0.000=0;
#SCROLLS:0.000=1.000;
#FAKES:;
#LABELS:0.000=Song Start;
#BGCHANGES:;
#KEYSOUNDS:;
#ATTACKS:
;

//---------------dance-single - ----------------
#NOTEDATA:;
#CHARTNAME:;
#STEPSTYPE:dance-single;
#DESCRIPTION:;
#CHARTSTYLE:;
#DIFFICULTY:Hard;
#METER:13;
#RADARVALUES:0.586877,0.718214,0.132521,0.037863,0.478021,434.000000,420.000000,14.000000,4.000000,0.000000,0.000000,0.000000,0.000000,0.000000,0.586877,0.718214,0.132521,0.037863,0.478021,434.000000,420.000000,14.000000,4.000000,0.000000,0.000000,0.000000,0.000000,0.000000;
#CREDIT:;
#NOTES:
0000
0000
0000
0000
,
0000
0000
0000
0000
,
0000
0000
0000
0000
,
0000
0000
0000
0000
,
0000
0000
0000
0000
,
0000
0000
0000
0000
,
0000
0000
0000
0000
,
0110
0000
0000
0000
1000
0010
1000
0000
0001
0100
0001
0100
0001
0000
1000
0000
,
0010
0000
0000
0000
1000
0000
0000
0001
0000
0000
1000
0000
0000
0100
0000
0000
,
0010
0000
0000
0000
0100
0000
0000
1000
0000
0000
0001
0000
0000
1000
0000
0000
,
0100
0000
0000
0000
0010
0000
0000
0000
0001
0000
0000
0100
0000
0000
1000
0000
,
0000
0010
0000
0000
1000
0000
0000
0001
0000
0000
1000
0000
0100
0000
0010
0000
,
0001
0000
0000
0000
0100
0000
0000
0010
0000
0000
1000
0000
0000
0001
0000
0000
,
0010
0000
0000
0000
0001
0000
0000
0100
0000
0000
0010
0000
0000
1000
0000
0000
,
0100
0000
0000
0000
1000
0000
0000
0000
0001
0000
0000
1000
0000
0000
0010
0000
,
0000
0100
0000
0000
0010
0000
0000
1000
0000
0000
0001
0000
1000
0000
0010
0000
,
0100
0000
0000
0000
0001
0000
0000
0010
0000
0000
1000
0000
0000
0001
0000
0000
,
1000
0000
0000
0000
0010
0000
0000
1000
0000
0000
0100
0000
0000
0001
0000
0000
,
1000
0000
0000
0000
0010
0000
0000
0000
1000
0000
0000
0001
0000
0000
0100
0000
,
0000
0001
0000
0000
0010
0000
0000
0100
0000
0000
1000
0000
0010
0000
0100
0000
,
0001
0000
0000
0000
0010
0000
0000
1000
0000
0000
0100
0000
0000
1000
0000
0000
,
0001
0000
0000
0000
0010
0000
0000
0001
0000
0000
1000
0000
0000
0100
0000
0000
,
0001
0000
0000
0000
0100
0000
0000
0000
0010
0000
0000
1000
0000
0000
0001
0000
,
1001
0000
0000
0000
0010
1000
0010
0000
0100
0001
0100
0001
0100
0000
0010
0000
,
1000
0000
0000
0100
0000
0000
0010
0000
0001
0000
0000
1000
0000
0000
0010
0000
,
1000
0000
0000
0100
0000
0000
0010
0000
0100
0000
0000
1000
0000
0000
0001
0000
,
0100
0000
0000
0010
0000
0000
1000
0000
0001
0000
0000
0100
0000
0000
1000
0000
,
0010
0000
0000
0100
0000
0000
0010
0000
1000
0000
0000
0100
0000
0000
0001
0000
,
0010
0000
0000
0001
0000
0000
1000
0000
0100
0000
0000
0010
0000
0000
0001
0000
,
0010
0000
0000
0001
0000
0000
0100
0000
0010
0000
0000
1000
0000
0000
0001
0000
,
1000
0010
0100
0001
0010
0100
1000
0001
,
0110
0000
0000
0000
0001
0010
0001
0000
1000
0100
1000
0100
1000
0000
0010
0000
,
0100
0010
0100
0001
,
0010
1000
0100
0001
,
1000
0000
0010
0000
1000
0000
0100
0020
,
0000
0032
0000
2003
0000
3200
0000
1300
,
0001
0010
0001
0100
,
1000
0001
0010
0100
,
0010
0000
0001
0000
0100
0000
1000
1100
,
0000
0000
1001
0000
0000
0000
0011
0000
1000
0001
1000
0001
1000
0000
0100
0000
,
0010
0000
0000
0000
0001
0000
0000
1000
0000
0000
0001
0000
0000
1000
0000
0000
,
0100
0000
0000
0000
0010
0000
0000
0001
0000
0000
0010
0000
0000
0001
0000
0000
,
0100
0000
0000
0000
0001
0000
0000
0000
1000
0000
0000
0100
0000
0000
0010
0000
,
0000
0100
0000
0000
0010
0000
0000
0001
0000
0000
1000
0000
0010
0000
0100
0000
,
0001
0000
0000
0000
1000
0000
0000
0100
0000
0000
1000
0000
0000
0100
0000
0000
,
0010
0000
0000
0000
0001
0000
0000
1000
0000
0000
0010
0000
0000
0100
0000
0000
,
0001
0000
0000
0000
0010
0000
0000
0000
0100
0000
0000
0010
0000
0000
0100
0000
,
1001
0000
0000
0000
0010
0100
0010
0000
1000
0001
1000
0001
1000
0000
0100
0000
,
0010
0000
1100
0000
0001
0100
0001
1000
,
0100
0000
0011
0000
0010
0001
1000
0010
,
0100
0000
1010
0000
0001
0010
0001
0100
,
0010
0001
0010
1000
0100
0010
1000
0010
,
0100
0000
0110
0000
0001
0100
0010
1000
,
0001
0000
0101
0000
0010
0001
0100
1000
,
0010
0000
1001
0000
1000
0001
1000
0010
,
0100
0000
1000
0000
0100
0000
0010
0000
1000
0001
1000
0001
1000
0000
0010
0000
,
0100
0000
0000
0010
0000
0000
1000
0000
0001
0000
0000
0010
0000
0000
0100
0000
,
1000
0000
0000
0001
0000
0000
1000
0000
0010
0000
0000
0100
0000
0000
0001
0000
,
0010
0000
0000
1000
0000
0000
0100
0000
0010
0000
0000
0100
0000
0000
1000
0000
,
0001
0000
0000
0100
0000
0000
0001
0000
0010
0000
0000
0100
0000
0000
1000
0000
,
0001
0010
0001
0100
0010
0001
0010
1000
,
0100
0010
0100
1000
0010
0100
0010
0001
,
0010
1000
0001
0010
0001
0100
0010
1000
,
0110
0000
0000
0000
0001
1000
0001
0000
0100
0010
0100
0010
0100
0000
0001
0000
,
0010
0000
0000
0001
0000
0000
0100
0000
0010
0000
0000
1000
0000
0000
0001
0000
,
1000
0000
0000
0100
0000
0000
0010
0000
0001
0000
0000
0100
0000
0000
1000
0000
,
0001
0000
0000
1000
0000
0000
0010
0000
0100
0000
0000
0001
0000
0000
1000
0000
,
0001
0000
0000
0010
0000
0000
1000
0000
0001
0000
0000
0100
0000
0000
1000
0000
,
0010
0000
0000
1000
0000
0000
0001
0000
0010
0000
0000
0100
0000
0000
0010
0000
,
0001
0000
0000
0100
0000
0000
0010
0000
1000
0000
0000
0100
0000
0000
0010
0000
,
0100
0000
0000
1000
0000
0000
0001
0000
0010
0000
0000
0001
0000
0000
1000
0000
,
0001
0000
0000
0100
0000
0000
1000
0000
0010
0000
0000
0100
0000
0000
0001
0000
,
1000
0000
0000
0010
0000
0000
0001
0000
1000
0000
0000
0100
0000
0000
0010
0000
,
0100
0000
0000
1000
0000
0000
0010
0000
0001
0000
0000
1000
0000
0000
0010
0000
,
1000
0000
0000
0100
0000
0000
0001
0000
0010
0000
0000
0100
0000
0000
1000
0000
,
0001
0000
0000
1000
0000
0000
0001
0000
0010
0000
0000
0100
0000
0000
1000
0000
;

//---------------dance-single - ----------------
#NOTEDATA:;
#CHARTNAME:;
#STEPSTYPE:dance-single;
#DESCRIPTION:;
#CHARTSTYLE:;
#DIFFICULTY:Medium;
#METER:10;
#RADARVALUES:0.478697,0.565579,0.198781,0.198781,0.141986,354.000000,333.000000,21.000000,21.000000,0.000000,0.000000,0.000000,0.000000,0.000000,0.478697,0.565579,0.198781,0.198781,0.141986,354.000000,333.000000,21.000000,21.000000,0.000000,0.000000,0.000000,0.000000,0.000000;
#CREDIT:;
#DISPLAYBPM:175.000000;
#NOTES:
0000
0000
0000
0000
,
0000
0000
0000
0000
,
0000
0000
0000
0000
,
0000
0000
0000
0000
,
0000
0000
0000
0000
,
0000
0000
0000
0000
,
0000
0000
0000
0000
,
0110
0000
1000
0001
1000
0010
0100
0001
,
1001
0000
0010
0001
1000
0000
0100
0010
,
0001
0100
1000
0000
0010
0000
0100
0000
,
0001
0010
0001
0100
0010
1000
0001
0000
,
1000
0100
0010
0001
0100
0000
0010
0000
,
1000
0000
0001
0010
0001
0100
1000
0000
,
0010
1000
0001
0010
0001
0000
0100
0000
,
0010
0000
1000
0001
1000
0200
0000
0310
,
0001
0100
0001
1000
0010
0100
0010
1000
,
0000
0001
1000
0020
0100
0000
1030
0100
,
1000
0010
1000
0001
0010
0000
0100
0000
,
0010
0000
0001
0100
1000
0002
0000
0013
,
0001
0100
0010
1000
0100
0000
0001
0000
,
0010
0001
1000
0010
1000
0100
0001
0000
,
1000
0001
0010
0100
1000
0000
0010
0000
,
0100
0000
0001
1000
0020
0000
0130
0000
,
1001
0000
0001
0010
0001
0100
0010
1000
,
1100
0000
0101
0000
1000
0100
0001
0000
,
0010
0000
0100
0000
1000
0000
0010
0100
,
0001
0000
0010
0000
0001
0000
1000
0100
,
0010
0000
0001
0000
0010
0100
1000
0001
,
0011
0000
1010
0000
0001
0010
1000
0000
,
0100
0000
0010
0000
0100
0000
1000
0001
,
0100
0000
0001
0000
0010
0000
0100
1000
,
1010
0000
0001
0100
0010
1000
0001
0100
,
0220
0300
2000
0030
,
0200
3000
0002
0300
,
0010
0000
0010
0000
0013
0000
1000
0020
,
0000
0230
0000
0302
0000
2003
0000
3100
,
2000
0000
0020
3000
,
0002
0030
0200
0003
,
1000
0000
1000
0000
1300
0000
0001
0200
,
0000
0320
0000
2030
0000
3002
0000
1003
,
0001
0010
0001
0100
,
1000
0010
1000
0001
,
0010
0100
0010
0001
,
0100
0010
1000
0001
,
0010
0100
0010
0001
,
1000
0010
1000
0001
,
0010
0100
1000
0001
,
0011
0000
0001
1000
0010
0100
0010
1000
,
1001
0000
0110
0000
0000
0001
1000
0000
,
0010
0000
1010
0000
0000
0001
0100
0000
,
0001
0000
1100
0000
0000
0010
0100
0000
,
0010
0000
1001
0000
1000
0001
0100
0000
,
1000
0000
0110
0000
0000
0001
1000
0000
,
0010
0000
0101
0000
1000
0001
0100
0000
,
0001
0011
0110
1100
,
0001
0010
0100
1000
0001
0100
0010
1000
,
0001
0000
0000
0001
0000
0000
0000
0000
1000
0000
0000
1000
0000
0000
0000
0000
,
0010
0000
0000
0010
0000
0000
0000
0000
0100
0000
0000
0100
0000
0000
0000
0000
,
0001
0000
0000
0001
0000
0000
0000
0000
0100
0000
0000
0100
0000
0000
0000
0000
,
0010
0000
0000
0010
0000
0000
0000
0000
1000
0000
0000
1000
0000
0000
0000
0000
,
0001
0010
1000
0000
0100
0010
0001
0000
,
0100
0001
0010
0000
0001
0100
1000
0000
,
0010
1000
0100
0000
1000
0001
0010
0000
,
1001
0000
1000
0010
1000
0100
0001
0010
,
0100
0000
0000
1000
0000
0000
0000
0000
0001
0000
0000
0100
0000
0000
0000
0000
,
0010
0000
0000
0100
0000
0000
0000
0000
0001
0000
0000
0010
0000
0000
0000
0000
,
0001
0000
0000
1000
0000
0000
0000
0000
0100
0000
0000
0010
0000
0000
0000
0000
,
0100
0000
0000
1000
0000
0000
0000
0000
0010
0000
0000
1000
0000
0000
0000
0000
,
0001
0000
0000
0010
0000
0000
0000
0000
0100
0000
0000
1000
0000
0000
0000
0000
,
0010
0000
0000
1000
0000
0000
0000
0000
0100
0000
0000
0010
0000
0000
0000
0000
,
0100
0000
0000
1000
0000
0000
0000
0000
0001
0000
0000
0100
0000
0000
0000
0000
,
0010
0000
0000
1000
0000
0000
0000
0000
0001
0000
0000
1000
0000
0000
0000
0000
,
0100
0000
0000
0001
0000
0000
0000
0000
0010
0000
0000
1000
0000
0000
0000
0000
,
0001
0000
0000
0001
0000
0000
0000
0000
0010
0000
0000
0010
0000
0000
0000
0000
,
0100
0000
0000
0100
0000
0000
0000
0000
1000
0000
0000
1000
0000
0000
0000
0000
;

//---------------dance-single - ----------------
#NOTEDATA:;
#CHARTNAME:;
#STEPSTYPE:dance-single;
#DESCRIPTION:;
#CHARTSTYLE:;
#DIFFICULTY:Easy;
#METER:6;
#RADARVALUES:0.327245,0.430219,0.132521,0.000000,0.000000,242.000000,228.000000,14.000000,0.000000,0.000000,0.000000,0.000000,0.000000,0.000000,0.327245,0.430219,0.132521,0.000000,0.000000,242.000000,228.000000,14.000000,0.000000,0.000000,0.000000,0.000000,0.000000,0.000000;
#CREDIT:;
#DISPLAYBPM:175.000000;
#NOTES:
0000
0000
0000
0000
,
0000
0000
0000
0000
,
0000
0000
0000
0000
,
0000
0000
0000
0000
,
0000
0000
0000
0000
,
0000
0000
0000
0000
,
0000
0000
0000
0000
,
0110
1001
1000
0001
,
0010
0001
0100
0000
,
0001
0010
1000
0000
,
0100
0010
0001
0000
,
1000
0001
1000
0000
,
0100
1000
0001
0000
,
0010
0100
0010
0000
,
0001
0100
1000
0000
,
0010
1000
0100
0000
,
1000
0001
0010
0000
,
0100
0010
0100
0000
,
1000
0010
0001
0000
,
1000
0100
0010
0000
,
0100
0010
0001
0000
,
0010
0100
1000
0000
,
0001
0010
1000
0000
,
0110
1001
1000
0100
,
0001
1000
0100
0000
,
1000
0010
0100
0000
,
0010
1000
0001
0000
,
0010
0100
1000
0000
,
0001
0100
0001
0100
,
0010
1000
0010
1000
,
0100
1000
0010
0001
,
0110
1001
1000
0100
,
1001
0000
0100
0000
,
1000
0000
0001
0000
,
0010
0000
0001
0000
,
1000
1000
0001
0001
,
0010
0000
0100
0000
,
1000
0000
0010
0000
,
1000
0000
0001
0000
,
0100
0100
0110
1001
,
0010
1000
0100
0000
,
1000
0010
0001
0000
,
0010
0001
0100
0000
,
0001
1000
0100
0000
,
1000
0100
1000
0000
,
0010
1000
0100
0000
,
1000
0001
0010
0000
,
1001
0110
0100
0001
,
0010
1000
0000
1000
,
0000
0100
0000
0001
,
0000
0010
0000
0001
,
0000
1000
0010
0100
,
0000
0010
1000
0010
,
0000
1000
0100
0001
,
0000
0010
0001
0100
,
0001
0010
0100
1000
,
0100
0100
1000
0001
,
0010
0100
0010
0001
,
0100
0010
1000
0100
,
1000
0001
1000
0010
,
0100
0010
0100
0010
,
0001
0010
1000
0100
,
1000
1000
0001
0001
,
0110
1001
1000
0100
,
1000
0010
1000
0100
,
0010
0100
1000
0010
,
1000
0001
1000
0010
,
1000
0001
0010
0100
,
0001
1000
0010
0100
,
0010
0001
0100
1000
,
0010
1000
0100
0001
,
1000
0000
0010
1001
,
0010
1000
1000
0001
,
0010
0100
0010
0001
,
0100
0010
0100
1000
,
0001
1000
0010
0100
;

//---------------dance-single - ----------------
#NOTEDATA:;
#CHARTNAME:;
#STEPSTYPE:dance-single;
#DESCRIPTION:;
#CHARTSTYLE:;
#DIFFICULTY:Beginner;
#METER:4;
#RADARVALUES:0.156861,0.285866,0.151452,0.000000,0.000000,116.000000,100.000000,16.000000,0.000000,0.000000,0.000000,0.000000,0.000000,0.000000,0.156861,0.285866,0.151452,0.000000,0.000000,116.000000,100.000000,16.000000,0.000000,0.000000,0.000000,0.000000,0.000000,0.000000;
#CREDIT:;
#DISPLAYBPM:175.000000;
#NOTES:
0000
0000
0000
0000
,
0000
0000
0000
0000
,
0000
0000
0000
0000
,
0000
0000
0000
0000
,
0000
0000
0000
0000
,
0000
0000
0000
0000
,
0000
0000
0000
0000
,
0110
0000
1001
0000
,
0110
0000
0000
0000
,
0001
0000
0000
0000
,
1000
0000
0000
0000
,
0100
0000
0000
0000
,
1000
0000
0000
0000
,
0010
0000
0000
0000
,
0100
0000
0000
0000
,
0001
0000
0000
0000
,
0010
0000
0010
0000
,
0010
0000
0000
0000
,
0001
0000
0001
0000
,
0001
0000
0000
0000
,
0100
0000
0100
0000
,
0100
0000
0000
0000
,
1000
0000
1000
0000
,
1001
0000
0110
0000
,
1001
0000
0000
0000
,
1000
0000
0000
0000
,
0010
0000
0000
0000
,
0100
0000
0000
0000
,
0001
0000
0001
0000
,
1000
0000
1000
0000
,
0010
0000
0010
0000
,
0110
0000
1001
0000
,
1000
0000
0000
0000
,
0001
0000
0000
0000
,
0010
0000
0000
0000
,
0000
0000
0000
0000
,
0001
0000
0000
0000
,
1000
0000
0000
0000
,
0100
0000
0000
0000
,
0000
0000
0110
0000
,
1001
0000
0000
0000
,
0010
0000
0000
0000
,
0100
0000
0000
0000
,
0001
0000
0000
0000
,
0100
0000
0100
0000
,
0100
0000
0000
0000
,
0010
0000
0010
0000
,
0110
0000
1001
0000
,
0000
0010
0000
0000
,
0000
0100
0000
0000
,
0000
0001
0000
0000
,
0000
1000
0000
0000
,
0000
0001
0000
0001
,
0000
1000
0000
1000
,
0000
0100
0000
0000
,
0110
0000
1001
0000
,
1000
0000
0000
0000
,
0001
0000
0000
0000
,
0010
0000
0010
0000
,
0010
0000
0000
0000
,
0001
0000
0001
0000
,
1000
0000
1000
0000
,
0010
0000
0100
0000
,
0110
0000
1001
0000
,
0001
0000
1000
0000
,
0001
0000
1000
0000
,
0010
0000
0100
0000
,
0010
0000
0100
0000
,
0001
0000
0010
0000
,
0001
0000
0100
0000
,
1000
0000
0001
0000
,
0100
0000
0000
0000
,
0010
0000
1000
0000
,
0100
0000
0001
0000
,
1000
0000
0010
0000
,
0100
0000
0001
0000
;

//---------------dance-single - ----------------
#NOTEDATA:;
#CHARTNAME:;
#STEPSTYPE:dance-single;
#DESCRIPTION:;
#CHARTSTYLE:;
#DIFFICULTY:Challenge;
#METER:15;
#RADARVALUES:0.800532,1.005500,0.037863,0.340767,0.984438,592.000000,588.000000,4.000000,36.000000,0.000000,0.000000,0.000000,0.000000,0.000000,0.800532,1.005500,0.037863,0.340767,0.984438,592.000000,588.000000,4.000000,36.000000,0.000000,0.000000,0.000000,0.000000,0.000000;
#CREDIT:;
#DISPLAYBPM:175.000000;
#NOTES:
// measure 0
0000
0000
0000
0000
,  // measure 1
0000
0000
0000
0000
,  // measure 2
0000
0000
0000
0000
,  // measure 3
0000
0000
0000
0000
,  // measure 4
0000
0000
0000
0000
,  // measure 5
0000
0000
0000
0000
,  // measure 6
0000
0000
0000
0000
,  // measure 7
0110
0000
0000
0000
0001
0010
0001
0010
0100
1000
0001
1000
0100
0000
0010
0000
,  // measure 8
0001
0000
0100
0000
0010
1000
0000
0001
0000
0000
0000
0000
0010
0000
0100
0000
,  // measure 9
1000
0010
1000
0001
0010
0000
0000
0100
0000
0000
0010
0000
0000
0001
0000
0000
,  // measure 10
1000
0000
0001
0000
0010
0001
0000
0100
0000
0010
0000
2000
0000
0000
3001
0100
,  // measure 11
0001
0000
0010
0100
1000
0000
0010
0100
0001
0000
0000
1000
0000
0000
0010
0000
,  // measure 12
0100
0000
0001
0010
0000
1000
0000
0100
0000
0010
0000
0000
0000
0001
0100
0010
,  // measure 13
1000
0000
0010
0100
0000
0001
0000
0100
0020
0000
0000
2030
0000
0000
3001
0000
,  // measure 14
1000
0001
1000
0010
0100
0002
0000
0013
,  // measure 15
0001
0000
0100
1000
0000
1000
0001
0000
0020
0000
0100
0000
0100
0000
0130
0000
,  // measure 16
0010
0001
1000
0002
0100
0000
1000
1003
,  // measure 17
0100
0000
1000
0010
0000
0100
0000
0010
0000
0000
2000
0000
0000
3200
0000
0000
,  // measure 18
0320
0000
0000
0000
0031
0000
1000
0000
0001
0000
0020
0000
0130
0000
0001
1000
,  // measure 19
0001
0000
0100
0010
0000
1000
0000
0001
0000
0000
2000
0000
0000
3002
0000
0000
,  // measure 20
1003
0000
0001
0000
0001
0000
0100
0000
0010
0100
0001
1000
0000
1000
0100
0000
,  // measure 21
0001
0000
0010
0100
0000
0100
1000
0000
0002
0000
0000
0203
0000
0000
0310
0000
,  // measure 22
1000
0001
0010
0100
2000
3010
0100
0001
,  // measure 23
0011
0000
0000
0000
1000
0001
1000
0001
0010
0100
1000
0010
0100
0000
0001
0000
,  // measure 24
0010
0000
0100
1000
0000
0000
0001
0000
1000
0000
0010
0100
0000
0000
0001
0000
,  // measure 25
0100
0000
0001
0010
0000
0000
1000
0000
0100
0000
1000
0001
0000
0000
0010
0000
,  // measure 26
0001
0000
0100
1000
0000
0000
0010
0000
0100
0000
0001
1000
0000
0010
0000
0000
,  // measure 27
1000
0000
0100
0010
0000
0000
0001
0000
0010
0000
0001
0100
0000
0000
1000
0000
,  // measure 28
0001
0000
1000
0100
0000
0100
1000
0000
0010
0000
0100
0001
0000
0001
0100
0000
,  // measure 29
1000
0000
0001
0010
0000
0010
0001
0000
0100
0000
0010
1000
0000
1000
0010
0000
,  // measure 30
1000
0100
1000
0100
0010
0001
0010
0001
1000
0010
0100
0001
0010
0100
1000
0001
,  // measure 31
0200
0000
0000
0000
0301
0010
0001
0100
0010
1000
0001
1000
0100
0000
0010
0000
,  // measure 32
0001
0001
0001
0001
,  // measure 33
1000
0000
0000
0000
1000
0000
0000
0000
1000
0000
0010
0000
0000
0100
0000
0000
,  // measure 34
0010
0000
0010
0000
0010
0000
1000
0001
,  // measure 35
1000
0010
0100
0010
0001
0010
1000
0100
,  // measure 36
0010
0010
0010
0010
,  // measure 37
0100
0000
0000
0000
0100
0000
0000
0000
0100
0000
1000
0000
0000
0001
0000
0000
,  // measure 38
1000
0000
1000
0000
1000
0000
0010
0100
,  // measure 39
0010
0000
0001
0000
0010
0000
1000
0000
0100
0001
0100
1000
0001
0000
0001
0000
,  // measure 40
1001
0000
0000
0000
0002
0000
0000
0100
0000
0000
2003
0000
0000
3020
0000
0000
,  // measure 41
0230
0000
0000
0000
1000
0000
0000
0302
0000
0000
0023
0000
0000
1000
0000
0000
,  // measure 42
0032
0000
0000
0000
0203
0000
0000
0000
1000
0000
0000
0010
0000
0000
1000
0000
,  // measure 43
0000
0001
0000
0000
0320
0000
0000
2030
0000
0000
3200
0000
0000
0010
0000
0000
,  // measure 44
0001
0000
0000
0000
0320
0000
0000
0001
0000
0000
1000
0000
0000
0230
0000
0000
,  // measure 45
2300
0000
0000
0000
0001
0000
0000
0100
0000
0000
3002
0000
0000
0023
0000
0000
,  // measure 46
0230
0000
0000
0000
0001
0000
0000
0000
0320
0000
0000
0032
0000
0000
1003
0000
,  // measure 47
1100
0000
0000
0000
0010
0100
0010
1000
0100
0010
0001
1000
0001
0000
0100
0000
,  // measure 48
0010
0000
0000
0000
1000
0000
0100
0010
0000
0010
0001
0000
0001
0100
0000
0100
,  // measure 49
0001
0000
0000
0000
0010
0000
0100
0010
0000
0010
0001
0000
0001
1000
0000
1000
,  // measure 50
0100
0000
0000
0000
1000
0000
0001
1000
0000
1000
0010
0000
0010
0100
0000
0100
,  // measure 51
0001
0000
0000
0000
0001
0000
0010
0100
0000
0100
0010
0000
0010
0001
0000
0001
,  // measure 52
1000
0000
0000
0000
0010
0000
1000
0001
0000
0001
0100
0000
0100
0010
0000
0010
,  // measure 53
1000
0000
0000
0000
1000
0000
0100
1000
0000
1000
0001
0000
0001
0010
0000
0010
,  // measure 54
0100
0000
0000
0000
0010
0000
0001
1000
0000
1000
0010
0000
0010
0100
0000
0100
,  // measure 55
0002
0000
0000
0000
0013
0100
1000
0010
1000
0001
1000
0001
0100
0010
0100
0000
,  // measure 56
0010
0000
1000
0100
0000
0000
0001
0000
1000
0000
0001
0100
0000
0000
0010
0000
,  // measure 57
0100
0000
0001
0010
0000
0000
1000
0000
0100
0000
0010
0001
0000
0000
1000
0000
,  // measure 58
0001
0000
0100
0010
0000
0000
1000
0000
0100
0000
0001
1000
0000
0000
0010
0000
,  // measure 59
1000
0000
0100
0010
0000
0000
0001
0000
0010
0000
0100
1000
0000
0000
0001
0000
,  // measure 60
1000
0000
0010
1000
0000
1000
0100
0000
0010
0000
0001
0100
0000
0100
0010
0000
,  // measure 61
0100
0000
0001
1000
0000
1000
0100
0000
0010
0000
0100
0010
0000
0010
0001
0000
,  // measure 62
1000
0010
1000
0100
0010
0001
0010
0001
0100
0001
1000
0001
1000
0100
0010
0100
,  // measure 63
1000
0000
0000
0000
1000
0010
0100
0001
1000
0100
0010
0001
0100
0000
0010
0000
,  // measure 64
1000
0000
0001
0010
0000
0001
0100
0000
0010
0000
0100
0001
0000
1000
0100
0000
,  // measure 65
1000
0000
0100
0010
0000
0001
0100
0000
0001
0000
0010
0001
0000
1000
0001
0000
,  // measure 66
1000
0000
0100
1000
0000
0010
0100
0000
0001
0000
0010
0001
0000
0100
0001
0000
,  // measure 67
0010
0000
0100
1000
0000
0001
0100
0000
0001
0000
0010
0100
0000
0010
0001
0000
,  // measure 68
1000
0000
0001
0010
0000
0001
0100
0000
0010
0000
1000
0100
0000
1000
0001
0000
,  // measure 69
0100
0000
0010
1000
0000
0100
0010
0000
0001
0000
0010
0001
0000
1000
0010
0000
,  // measure 70
1000
0000
0100
0010
0000
0001
0100
0000
0010
0000
1000
0100
0000
0001
1000
0000
,  // measure 71
0010
0000
1000
0100
0000
1000
0001
0000
0010
0000
0100
0010
0000
0001
0100
0000
,  // measure 72
0001
0000
0010
0001
0000
1000
0001
0000
1000
0000
0010
0100
0000
0001
0100
0000
,  // measure 73
0001
0000
0010
0001
0000
1000
0010
0000
1000
0000
0100
0010
0000
0001
0100
0000
,  // measure 74
0001
0000
1000
0010
0000
0001
0100
0000
0010
0000
0100
0001
0000
1000
0010
0000
,  // measure 75
1000
0000
0100
0010
0000
0100
1000
0000
0010
0000
0100
0001
0000
0010
0001
0000
;
