#VERSION:0.83;
#TITLE:Bad Guy;
#SUBTITLE:;
#ARTIST:Billie Eilish;
#TITLETRANSLIT:;
#SUBTITLETRANSLIT:;
#ARTISTTRANSLIT:;
#GENRE:;
#ORIGIN:;
#CREDIT:;
#BANNER:Bad Guy-bn.png;
#BACKGROUND:Bad Guy-bg.png;
#PREVIEWVID:;
#JACKET:Bad Guy-jacket.png;
#CDIMAGE:;
#DISCIMAGE:;
#LYRICSPATH:;
#CDTITLE:;
#MUSIC:Bad Guy.ogg;
#OFFSET:0.000000;
#SAMPLESTART:42.008793;
#SAMPLELENGTH:20.000000;
#SELECTABLE:YES;
#DISPLAYBPM:120.000000:135.000000;
#BPMS:0.000=134.970,
190.000=120.000;
#STOPS:93.000=0.444,
109.000=0.250,
126.500=2.833,
190.000=2.167;
#DELAYS:;
#WARPS:;
#TIMESIGNATURES:0.000=4=4;
#TICKCOUNTS:0.000=4;
#COMBOS:0.000=1;
#SPEEDS:0.000=1.000=0.000=0;
#SCROLLS:0.000=1.000;
#FAKES:;
#LABELS:0.000=Song Start;
#BGCHANGES:;
#KEYSOUNDS:;
#ATTACKS:
;

//---------------dance-single - ----------------
#NOTEDATA:;
#CHARTNAME:;
#STEPSTYPE:dance-single;
#DESCRIPTION:;
#CHARTSTYLE:;
#DIFFICULTY:Hard;
#METER:10;
#RADARVALUES:0.394836,0.438425,0.211977,0.562554,0.081529,339.000000,313.000000,26.000000,69.000000,0.000000,0.000000,0.000000,0.000000,0.000000,0.394836,0.438425,0.211977,0.562554,0.081529,339.000000,313.000000,26.000000,69.000000,0.000000,0.000000,0.000000,0.000000,0.000000;
#CREDIT:;
#DISPLAYBPM:120.000000:135.000000;
#NOTES:
0000
0000
0000
0000
,
0000
0000
0000
0000
,
0000
0000
0000
0000
,
0000
0000
0000
0000
,
0000
0000
0000
0000
,
0000
0000
0000
0000
,
0000
0000
0000
0000
,
0000
0000
0000
0000
,
2100
0000
3002
0000
0000
0203
0000
0320
,
0000
2030
0000
3002
0000
0100
0203
0000
,
0320
0000
0230
0000
0000
0302
0000
0023
,
0000
0230
0000
2300
0000
0001
3002
0000
,
0023
0000
0032
0000
0000
0203
0000
0302
,
0000
2003
0000
3200
0000
0010
0320
0000
,
0230
0000
2300
0000
0000
3002
0000
2003
,
0000
0001
3001
1000
0100
0000
1001
0000
,
0201
0000
0320
0000
1030
0001
1000
0200
,
0000
0320
0000
0031
2000
0100
3100
0000
,
0012
0000
0203
0000
0301
0010
0100
2000
,
0000
3020
0000
0130
0002
1000
1003
0000
,
1020
0000
2030
0000
3100
0010
0001
0200
,
0000
0302
0000
0013
0200
1000
1300
0000
,
0210
0000
2300
0000
3001
1000
0010
0200
,
0000
0001
0301
0010
0100
1000
0001
0100
,
2000
0000
3010
0100
0010
1000
0100
0010
,
0002
0000
0013
0001
1000
0100
1000
0010
,
0200
0000
0310
0100
0001
1000
0100
0010
,
0100
0000
1001
0010
0100
1000
0010
0002
,
0000
0013
0001
0100
0010
1000
0001
0200
,
0000
0301
1000
0100
1000
0001
0100
0020
,
0000
1030
0100
0010
0001
0100
0010
1000
,
0000
0000
0000
0001
0001
0001
1001
0000
,
0010
2000
0000
3100
1000
0001
0100
0010
,
1000
0200
0000
0310
0100
1000
0001
0100
,
0010
0200
0000
0301
1000
0010
1000
0100
,
0010
0002
0000
0103
0001
1000
0100
0010
,
0100
2000
0000
3010
1000
0100
0010
0001
,
1000
0020
0000
0130
0010
1000
0100
0010
,
0001
0200
0000
0310
1000
0002
0000
0013
,
0001
0010
0100
1000
0010
0000
0110
0000
,
1000
1200
0000
1300
0010
0100
0001
0010
,
0001
0102
0000
1003
0001
0010
0100
1000
,
0010
0210
0000
0310
1000
0001
0010
0100
,
1000
1020
0000
0130
0010
1000
0001
0100
,
0001
0021
0000
0031
0100
0010
1000
0100
,
0010
0021
0000
0031
1000
0100
0010
0001
,
0100
0210
0000
0310
1000
2001
0000
3001
,
0100
0000
0000
0100
0000
0000
0100
0000
0000
1000
0001
1000
,
0001
0100
0100
0000
2020
0000
0030
0000
,
0001
0001
0001
0000
3100
0000
1100
0100
,
0010
0001
1000
0000
0202
0000
0003
0000
,
0010
0000
0000
0010
0000
0000
0310
0000
0000
0000
0000
0000
1000
0000
0001
0000
1000
0000
0001
0000
0000
0000
0000
0000
,
0101
0000
0000
1000
0010
0000
0010
0000
0010
0000
0000
0000
0000
0000
1000
0000
,
1000
0001
0100
0000
0110
0000
1010
0000
,
0011
0000
0000
0000
0000
0000
0000
0000
0000
0100
0000
0000
1000
0000
0000
0000
0000
0000
1000
0000
0000
0000
0000
0000
1000
0000
0000
0000
0000
0000
0000
0000
0000
0000
0000
0000
0000
0000
0000
0000
0000
0000
0000
0000
0001
0000
0000
0000
,
0100
0000
0010
1000
0000
0000
0001
1000
0001
1000
0000
0000
,
1010
0000
0000
0001
0100
0000
0100
0000
0100
0000
0000
0000
0000
0000
0010
0000
,
0010
0000
0000
0000
0000
0000
1000
0000
0000
0000
0000
0000
1001
0000
0000
0000
0000
0000
0000
0000
0000
0000
0000
0000
0000
0000
0000
0000
0000
0000
0001
0000
0000
1000
0000
0000
0001
0000
0000
0000
0000
0000
0000
0000
0010
0000
0000
0000
,
0100
0000
1000
0010
0000
1000
0001
0000
0100
0010
0000
1000
,
0100
0000
1000
0100
0000
0000
1000
0001
1000
0001
0000
0000
;

//---------------dance-single - ----------------
#NOTEDATA:;
#CHARTNAME:;
#STEPSTYPE:dance-single;
#DESCRIPTION:;
#CHARTSTYLE:;
#DIFFICULTY:Medium;
#METER:8;
#RADARVALUES:0.321459,0.365354,0.277200,0.146753,0.000000,276.000000,242.000000,34.000000,18.000000,0.000000,0.000000,0.000000,0.000000,0.000000,0.321459,0.365354,0.277200,0.146753,0.000000,276.000000,242.000000,34.000000,18.000000,0.000000,0.000000,0.000000,0.000000,0.000000;
#CREDIT:;
#DISPLAYBPM:120.000000:135.000000;
#NOTES:
0000
0000
0000
0000
,
0000
0000
0000
0000
,
0000
0000
0000
0000
,
0000
0000
0000
0000
,
0000
0000
0000
0000
,
0000
0000
0000
0000
,
0000
0000
0000
0000
,
0000
0000
0000
0000
,
1001
0010
1000
0100
,
0010
0000
0001
0000
0100
0010
1000
0000
,
0001
1000
0100
0010
,
0100
0000
1000
0000
0010
1000
0001
0000
,
0010
0100
0010
0001
,
0100
0000
1000
0000
0010
0100
0001
0000
,
0010
0100
1000
0010
,
1000
0000
0001
0100
0001
0000
1001
0000
,
0010
1100
0001
0101
,
0010
0000
1100
0000
0100
1000
0001
0000
,
0100
1010
0001
0011
,
0100
0000
1010
0000
1000
0001
0010
0000
,
0100
1001
0010
0110
,
1000
0000
1001
0000
0010
1000
0001
0000
,
0001
0000
1100
0000
0000
0010
0000
0100
,
0000
0001
1000
0000
0010
0100
0010
0000
,
1001
0000
1000
0001
0100
0000
0001
0000
,
0011
0000
0010
0100
1000
0000
0100
0000
,
1010
0000
1000
0001
0010
0000
0100
0000
,
0010
0000
1001
1000
0001
1000
0000
0011
,
0000
0001
0100
0010
0000
0100
0000
0110
,
0000
0010
1000
0001
0000
0010
0000
1100
,
0000
0100
1000
0001
0000
0101
0000
1100
,
0000
0000
0000
0001
1000
0001
1001
0000
,
0010
2000
0000
0000
3001
1000
0100
0000
,
0010
0002
0000
0000
0103
0001
1000
0000
,
0010
0200
0000
0000
0301
1000
0100
0000
,
1000
0020
0000
0000
0130
0001
0010
0000
,
0001
2000
0000
0000
3010
1000
0100
0000
,
0010
0200
0000
0000
1300
0001
0100
0000
,
0001
2000
0000
0000
3010
0200
0000
0302
,
0000
1003
0100
1000
0100
0000
0110
0000
,
0010
0002
0000
0000
0103
0010
1000
0000
,
0001
0020
0000
0000
0130
1000
0001
0000
,
1000
0020
0000
0000
1030
0001
0100
0000
,
0001
0200
0000
0000
0310
1000
0001
0000
,
1000
0200
0000
0000
0310
0001
0100
0000
,
0010
2000
0000
0000
3100
0010
0001
0000
,
0100
0002
0000
0000
1003
0020
0000
2030
,
0100
0100
3100
1001
,
0010
0100
0001
0000
0011
0000
0000
0000
,
0010
0100
1000
0000
0000
0000
1100
0000
,
1000
0001
0100
0000
0110
0000
0000
0000
,
0010
1000
0001
0000
0000
0000
0011
0000
,
0001
1000
0100
0000
0110
0000
0000
0000
,
0010
0001
0100
0000
0000
0000
1001
0000
,
1000
0100
0010
0000
0101
0000
0000
0000
,
0001
1000
0010
0000
0000
0000
0110
0000
,
0100
0001
1000
0000
1010
0000
0000
0000
,
0010
0100
0001
0000
0000
0000
1000
0001
,
1000
0000
0001
0100
0001
0000
0100
0010
,
0100
0010
0100
0000
0000
0000
0110
0000
;

//---------------dance-single - ----------------
#NOTEDATA:;
#CHARTNAME:;
#STEPSTYPE:dance-single;
#DESCRIPTION:;
#CHARTSTYLE:;
#DIFFICULTY:Easy;
#METER:5;
#RADARVALUES:0.208483,0.243569,0.138600,0.130447,0.000000,179.000000,162.000000,17.000000,16.000000,0.000000,0.000000,0.000000,0.000000,0.000000,0.208483,0.243569,0.138600,0.130447,0.000000,179.000000,162.000000,17.000000,16.000000,0.000000,0.000000,0.000000,0.000000,0.000000;
#CREDIT:;
#DISPLAYBPM:120.000000:135.000000;
#NOTES:
0000
0000
0000
0000
,
0000
0000
0000
0000
,
0000
0000
0000
0000
,
0000
0000
0000
0000
,
0000
0000
0000
0000
,
0000
0000
0000
0000
,
0000
0000
0000
0000
,
0000
0000
0000
0000
,
1000
1000
0000
0001
,
0000
0100
0000
0010
,
0100
0100
0000
0001
,
0000
0010
0000
1000
,
0010
0010
0000
1000
,
0000
0001
0000
0100
,
0001
0001
0000
0000
,
0100
0010
1000
1001
,
0001
0001
0000
0100
,
0010
1000
0010
0100
,
0010
0010
0000
1000
,
0001
0100
0001
1000
,
0100
0100
0000
0010
,
0001
1000
0001
0010
,
1000
1000
0000
0000
,
0001
1001
0000
0010
,
0010
0001
1000
0100
,
0100
1000
0001
1000
,
1000
0010
0100
0001
,
0001
0000
1001
0000
0000
0100
0000
0100
,
0000
1000
0000
0010
0000
1000
0000
1000
,
0000
0001
0000
0100
0000
0010
0000
0010
,
0000
1000
0000
0100
0000
0001
0000
0001
,
0000
0000
0000
0000
0000
1100
1001
0000
,
0020
0000
1000
0130
,
2000
0000
0100
3001
,
0200
0000
0010
1300
,
0002
0000
0010
1003
,
0020
0000
0100
1030
,
0002
0000
0100
0013
,
0200
0300
2000
3000
,
0010
0100
0010
1001
,
2000
0000
0100
3001
,
0020
0000
0001
1030
,
0200
0000
1000
0310
,
0002
0000
0010
0103
,
0020
0000
0100
0031
,
0200
0000
1000
0310
,
0002
0003
2000
3000
,
0100
0100
0100
1001
,
1000
0100
1100
0000
,
0010
0001
0000
0101
,
0100
0010
0110
0000
,
1000
0001
0000
0011
,
0001
0100
1100
0000
,
1000
0010
0000
0101
,
0001
1000
1001
0000
,
0010
0100
0000
0110
,
0010
1000
1100
0000
,
0001
0100
0000
0001
,
0001
1000
1000
0010
,
0010
0010
0000
1001
;

//---------------dance-single - ----------------
#NOTEDATA:;
#CHARTNAME:;
#STEPSTYPE:dance-single;
#DESCRIPTION:;
#CHARTSTYLE:;
#DIFFICULTY:Beginner;
#METER:2;
#RADARVALUES:0.112977,0.170499,0.016306,0.000000,0.000000,97.000000,95.000000,2.000000,0.000000,0.000000,0.000000,0.000000,0.000000,0.000000,0.112977,0.170499,0.016306,0.000000,0.000000,97.000000,95.000000,2.000000,0.000000,0.000000,0.000000,0.000000,0.000000,0.000000;
#CREDIT:;
#DISPLAYBPM:120.000000:135.000000;
#NOTES:
0000
0000
0000
0000
,
0000
0000
0000
0000
,
0000
0000
0000
0000
,
0000
0000
0000
0000
,
0000
0000
0000
0000
,
0000
0000
0000
0000
,
0000
0000
0000
0000
,
0000
0000
0000
0000
,
1000
1000
0000
0000
,
0000
0000
0000
0000
,
0001
0001
0000
0000
,
0000
0000
0000
0000
,
0100
0100
0000
0000
,
0000
0000
0000
0000
,
0010
0010
0000
0000
,
0100
0100
0000
0000
,
0001
0001
0000
0000
,
1000
0000
0010
0000
,
1000
1000
0000
0000
,
0001
0000
0100
0000
,
0010
0010
0000
0000
,
1000
0000
0001
0000
,
0100
0100
0000
0000
,
0010
0010
0000
1000
,
1000
0000
0000
0010
,
0010
0000
0000
0100
,
0100
0000
0000
0001
,
0001
0000
0000
0000
0000
0100
0000
0100
,
0000
0000
0000
0000
0000
1000
0000
1000
,
0000
0000
0000
0000
0000
0001
0000
0001
,
0000
0000
0000
0000
0000
0010
0000
0010
,
0000
0000
0000
0000
0000
1001
0000
0000
,
0010
0000
0100
0000
,
0010
0000
0100
0000
,
0001
0000
1000
0000
,
0001
0000
1000
0000
,
0100
0000
0010
0000
,
0001
0000
1000
0000
,
0010
0000
0010
0000
,
0010
0000
0000
0000
,
1000
0000
0100
0000
,
1000
0000
0100
0000
,
0001
0000
0010
0000
,
0001
0000
0010
0000
,
1000
0000
0100
0000
,
0010
0000
0001
0000
,
0100
0000
0100
0000
,
0100
0000
0000
1000
,
0000
0000
1000
0000
,
0000
0000
0000
0001
,
0000
0000
0001
0000
,
0000
0000
0000
0000
,
0010
0010
0010
0000
,
0000
0000
0000
0000
,
1000
1000
1000
0000
,
0001
0001
0000
0000
,
0100
0100
0100
0000
,
0010
0000
0000
1000
,
0000
0100
0000
0010
,
0010
0010
0000
1001
;

//---------------dance-single - ----------------
#NOTEDATA:;
#CHARTNAME:;
#STEPSTYPE:dance-single;
#DESCRIPTION:;
#CHARTSTYLE:;
#DIFFICULTY:Challenge;
#METER:12;
#RADARVALUES:0.485683,0.608923,0.489177,0.293506,0.142677,417.000000,357.000000,60.000000,36.000000,0.000000,0.000000,0.000000,0.000000,0.000000,0.485683,0.608923,0.489177,0.293506,0.142677,417.000000,357.000000,60.000000,36.000000,0.000000,0.000000,0.000000,0.000000,0.000000;
#CREDIT:;
#DISPLAYBPM:120.000000:135.000000;
#NOTES:
// measure 0
0000
0000
0000
0000
,  // measure 1
0000
0000
0000
0000
,  // measure 2
0000
0000
0000
0000
,  // measure 3
0000
0000
0000
0000
,  // measure 4
0000
0000
0000
0000
,  // measure 5
0000
0000
0000
0000
,  // measure 6
0000
0000
0000
0000
,  // measure 7
0000
0000
0000
0000
,  // measure 8
2100
0000
0000
3002
0100
0103
0000
1010
,  // measure 9
0000
0011
0000
1000
0002
0100
0103
0000
,  // measure 10
0102
0000
0000
2003
0010
3010
0000
0110
,  // measure 11
0000
1001
0000
0001
0200
0010
0310
0000
,  // measure 12
1020
0000
0000
0230
0010
0310
0000
0101
,  // measure 13
0000
1100
0000
1000
0002
0010
0013
0000
,  // measure 14
0012
0000
0000
2003
0001
3001
0000
1002
,  // measure 15
0000
1000
1003
0001
0100
0000
1001
0000
,  // measure 16
1020
0000
1030
0010
1000
0100
0010
0001
,  // measure 17
0000
0101
0000
1000
0020
0100
0130
0000
,  // measure 18
0102
0000
0013
0001
1000
0010
0100
0001
,  // measure 19
0000
0110
0000
0010
0200
0001
0301
0000
,  // measure 20
0021
0000
0130
1000
0010
1000
0001
0100
,  // measure 21
0000
1001
0000
0001
2000
0010
3010
0000
,  // measure 22
1200
0000
1300
0010
1000
0001
0010
0200
,  // measure 23
0000
0000
1300
0000
1100
0000
0001
0000
0001
0000
0001
0000
1000
0000
0001
0100
,  // measure 24
0002
0000
0000
0000
0013
0000
0001
0000
1000
0000
0010
0000
0100
0000
0010
1000
,  // measure 25
0020
0000
0000
0000
1030
0000
0001
0000
0100
0000
0010
0000
1000
0000
0100
0010
,  // measure 26
0200
0000
0000
0000
1300
0000
0010
0000
0100
0000
0001
0000
0010
0000
0001
1000
,  // measure 27
0001
0000
0000
0000
0110
0000
1000
0000
1000
0000
1000
0000
0001
0100
0002
0000
,  // measure 28
0000
0000
0013
0000
0100
0000
1000
0000
0010
0000
0100
0000
0010
1000
0020
0000
,  // measure 29
0000
0000
1030
0000
0001
0000
0100
0000
0001
0000
0010
0000
1000
0001
2000
0000
,  // measure 30
0000
0000
3010
0000
1000
0000
0100
0000
0010
0000
0100
0000
1000
0001
1000
0000
,  // measure 31
0000
0000
0000
0010
0010
0010
1001
0000
,  // measure 32
1000
0100
0001
0100
0010
0001
0010
1000
,  // measure 33
0010
0001
0010
1000
0100
0001
0100
1000
,  // measure 34
0001
0100
1000
0100
0010
1000
0010
0001
,  // measure 35
0100
1000
0100
0001
1000
0010
0001
0010
,  // measure 36
0001
0010
1000
0010
0100
0001
0100
1000
,  // measure 37
0100
0001
0100
1000
0001
0010
1000
0010
,  // measure 38
0001
0100
1000
0100
0010
1000
0010
0001
,  // measure 39
0100
0010
1000
0100
0010
0000
0110
0000
,  // measure 40
0100
2000
0000
3001
0101
0101
0101
0101
,  // measure 41
0001
0020
0000
0130
1100
1100
1100
1100
,  // measure 42
1000
0002
0000
0103
0110
0110
0110
0110
,  // measure 43
0010
0100
0001
1000
1001
1001
1001
1001
,  // measure 44
0010
0002
0000
1003
1010
1010
1010
1010
,  // measure 45
1000
0200
0000
0310
0011
0011
0011
0011
,  // measure 46
0001
2000
0000
3010
0110
0110
0110
0110
,  // measure 47
0100
0000
0000
1000
0000
0000
0100
0000
0000
0001
0000
0000
0100
0000
0000
0000
0000
0000
1000
0000
0001
0000
0100
0000
,  // measure 48
0010
1000
0001
0100
0012
0000
0000
0100
,  // measure 49
0010
0000
0100
0000
0013
0000
0000
0000
1000
0010
0100
0000
0101
0000
0001
0000
,  // measure 50
0100
0010
1000
0100
2010
0000
0000
0100
,  // measure 51
0010
0000
0000
0000
0000
0000
0100
0000
0000
0000
0000
0000
3010
0000
0000
0000
0000
0000
0000
0000
0000
0000
0000
0000
1000
0000
0000
0000
0100
0000
0000
0000
0010
0000
0000
0000
0001
0000
0000
0000
0000
0000
0000
0000
0000
1000
0000
0000
,  // measure 52
0010
0000
0000
0100
0001
0000
0101
0000
0102
0000
0000
0000
0000
0000
1000
0000
,  // measure 53
0100
0000
1000
0000
0103
0000
0000
0000
0001
1000
0100
0000
1100
0000
0000
1000
,  // measure 54
0001
0000
0000
0000
0000
0000
0000
0000
0000
0010
0000
0000
0100
0000
0000
0000
0000
0000
1100
0000
0000
0000
0000
0000
1100
0000
0000
0000
0000
0000
0000
0000
0000
0000
0000
0000
0000
0000
0000
0000
0000
0000
0000
0000
0001
0000
0000
0000
,  // measure 55
0100
0000
0000
0000
0000
0000
0000
0000
0010
0000
0000
0000
1000
0000
0000
0000
0000
0000
0000
0000
0000
0000
0000
0000
0001
0000
0000
0000
1000
0000
0000
0000
0010
0000
0000
0000
0100
0000
0000
0000
0000
0000
0000
0000
0000
0010
0000
0000
,  // measure 56
1000
0001
1002
0100
1000
0000
0000
0010
,  // measure 57
1000
0000
0000
0010
0000
0000
1003
0000
0000
0000
0000
0000
0000
0000
0001
0000
1000
0000
0001
0000
0100
0000
0010
0000
,  // measure 58
1000
0000
0010
1000
0001
0010
0100
0000
1000
0010
0000
1000
,  // measure 59
0100
0000
1000
0100
0000
0000
1000
0010
0100
0001
0000
0000
;
