#TITLE:Back to Life;
#SUBTITLE:(However Do You Want Me);
#ARTIST:Soul II Soul;
#TITLETRANSLIT:;
#SUBTITLETRANSLIT:;
#ARTISTTRANSLIT:;
#GENRE:;
#CREDIT:;
#BANNER:Back to Life (However Do You Want Me)-bn.png;
#BACKGROUND:Back to Life (However Do You Want Me)-bg.png;
#LYRICSPATH:;
#CDTITLE:;
#MUSIC:Back To Life (However Do You Want Me).ogg;
#OFFSET:0.062500;
#SAMPLESTART:75.985001;
#SAMPLELENGTH:20.000000;
#SELECTABLE:YES;
#DISPLAYBPM:101.000000;
#BPMS:0.000000=100.989998
;
#STOPS:
;
#BGCHANGES:;
#KEYSOUNDS:;
#ATTACKS:;

//---------------dance-single - ----------------
#NOTES:
     dance-single:
     :
     Hard:
     12:
     0.489066,0.503888,0.317723,0.206520,0.448783,431.000000,391.000000,40.000000,26.000000,0.000000,0.000000,0.489066,0.503888,0.317723,0.206520,0.448783,431.000000,391.000000,40.000000,26.000000,0.000000,0.000000:
0000
0000
0000
0000
,
0000
0000
0000
0000
,
0000
0000
0000
0000
,
0000
0000
0000
0000
,
0010
0000
0000
1000
0100
0000
0000
0001
0200
0000
0010
0000
0310
0000
0000
0000
,
0100
0000
0000
0001
0010
0000
0000
1000
0020
0000
0100
0000
0130
0030
0000
0000
,
0001
0000
0000
1000
0010
0000
0000
1000
0200
0000
0010
0000
0310
0000
0000
0000
,
0011
0000
0000
0000
0001
0000
1000
0100
2000
0000
0010
0000
3010
3000
0000
0000
,
1100
0000
0000
0000
0001
1000
0001
0000
0020
0000
0100
0000
0130
0000
0000
1000
,
0001
0000
0000
0001
0100
0000
0000
0100
0020
0000
1000
0000
1030
0000
0000
0000
,
0001
1000
0010
0100
0001
0010
0100
1000
,
0002
0000
0000
1000
0000
0000
3100
0000
2003
0000
0010
0000
3010
0000
0000
1000
,
0001
1000
0001
0000
0100
0000
0100
0000
0110
0000
0000
0010
1000
0010
1000
0010
,
1000
0000
0001
0000
0010
0000
0010
0000
0011
0000
0000
1000
0100
1000
0100
1000
,
0100
0000
0010
0000
0110
0000
0000
0000
2100
0000
0000
3002
0000
1003
0010
1000
,
0010
0000
0100
0000
0001
0000
1000
0000
1000
0000
0000
0001
0100
0001
0100
0001
,
0100
0000
0010
0000
1000
0000
1000
0000
1010
0000
0000
1001
0000
0010
0001
0010
,
0001
0000
0100
0000
0010
0000
1000
0000
1000
0000
0000
0010
0100
0010
0100
0310
,
0100
0000
0001
0000
0011
0000
1000
0000
1002
0000
0000
0203
0000
0310
1000
0010
,
1000
0000
0100
0000
0010
0000
0001
0000
0001
0000
0000
1000
0010
1000
0010
1000
,
0010
0000
0100
0001
0100
0000
0010
0000
1000
0000
1100
0000
1100
0000
0000
0000
,
0001
0000
0000
0100
0010
0000
1000
0000
0100
0000
0110
0000
0110
0000
0000
0001
,
0100
0000
0000
1000
0100
0000
0010
0000
0001
0000
0011
0000
0011
0000
0000
0000
,
1000
0000
0000
0010
0100
0000
0000
0001
1000
0001
0100
0000
1001
0000
0000
0000
,
1001
0000
0000
0000
0010
1000
0001
0000
0020
0000
0100
0000
0130
0000
0000
0000
,
1100
0000
0001
1000
0002
0100
0103
0000
,
0101
0000
0000
0000
1000
0000
0001
0000
0010
0000
0100
0000
1000
0010
0100
0000
,
0002
1000
1003
0100
2000
0010
3010
0000
,
1001
0000
0000
0000
0001
1000
0100
0000
2000
0000
0001
0000
3001
0000
0000
0000
,
0010
0000
0000
0000
1010
0000
0000
0001
2000
0000
0100
0000
3100
3000
0010
0000
,
0001
0000
0100
0000
0010
0000
1000
0000
0100
0010
0001
0000
1000
0000
0010
0000
,
0200
0000
0000
0000
0302
0000
0000
0000
0013
0100
1000
0000
0001
0000
0000
0100
,
0010
0100
0301
0000
1000
0000
1000
0000
0101
0000
0000
0010
0100
0001
0100
0001
,
1000
0000
0010
0000
0100
0000
0100
0000
1001
0000
0000
0001
1000
0100
1000
0100
,
0010
0000
0001
0000
0110
0000
0000
0000
2100
0000
0000
3020
0000
1030
0001
0100
,
0001
0000
0010
0000
0100
0000
1000
0000
1000
0000
0000
0001
0100
0010
0100
0001
,
1000
0000
0100
0000
0010
0000
0001
0000
0101
0000
0000
1100
0000
0001
1000
0010
,
0100
0000
0001
0000
0010
0000
0100
0000
0100
0000
0000
1000
0001
1000
0001
0010
,
0100
0000
0010
0000
1001
0000
0000
0000
0012
0000
0000
2003
0003
3100
1000
0001
,
0100
0000
0010
0000
1000
0000
0110
0000
0110
0000
0000
0001
0100
0010
1000
0001
,
1000
0000
0010
0100
0010
0000
0000
1000
0001
1000
0100
0000
0011
0000
0000
0000
,
1100
0000
0001
1000
0001
0000
0000
0100
0010
1000
0010
0000
1000
0100
1000
0100
,
0010
0000
0001
1000
3001
0000
0000
1000
0100
0010
0100
0000
0110
0000
0000
0000
,
1001
0000
0001
0100
0001
0000
0000
1000
0100
1000
0010
0000
0100
0001
0100
0001
,
0010
0000
0100
1000
0001
0000
0000
1000
0010
0100
0010
0000
1010
0000
0000
0000
,
0101
0000
0001
0010
1000
0000
0000
0001
0100
0010
1000
0000
0100
0010
0100
0010
,
0001
0000
0100
0010
1000
0000
0000
0001
1000
0100
0010
0000
0011
0000
0000
0000
,
0101
0000
1000
0001
0010
0000
0000
0001
0100
0010
1000
0000
0001
1000
0001
1000
,
3100
0000
1000
0002
0010
0000
0000
0000
1000
0000
0000
0000
0103
0000
0000
0000
,
0020
0000
0000
0000
,
0000
0000
0000
0030
;

//---------------dance-single - ----------------
#NOTES:
     dance-single:
     :
     Medium:
     9:
     0.324531,0.362799,0.142975,0.270064,0.162833,286.000000,268.000000,18.000000,34.000000,0.000000,0.000000,0.324531,0.362799,0.142975,0.270064,0.162833,286.000000,268.000000,18.000000,34.000000,0.000000,0.000000:
0000
0000
0000
0000
,
0000
0000
0000
0000
,
0000
0000
0000
0000
,
0000
0000
0000
0000
,
0010
0000
1000
0000
0002
0100
0103
0000
,
0010
0000
0000
0000
0100
0000
0000
0001
2000
0000
0100
0000
3100
0000
0000
0000
,
0010
0000
0000
0000
0001
0000
0000
1000
0020
0000
0000
0000
0230
0000
0000
0000
,
0301
0000
1003
2001
0000
0100
3100
0000
,
1100
0000
0000
0000
0001
0000
0000
0000
0200
0000
0010
0000
0310
0000
0000
1000
,
0001
0000
0000
0000
1000
0000
0000
0010
0200
0000
0001
0000
0301
0000
0000
0000
,
1000
0001
0010
0001
0200
0000
0300
0010
,
1000
0000
0000
0002
0000
0000
0013
0000
0200
0000
1000
0000
1300
0000
0000
0000
,
0001
0000
0000
0000
1000
0000
0100
0000
0010
0000
0000
0000
0001
1000
0001
0000
,
0010
0000
0100
0000
1000
0000
0000
0000
0001
0000
0000
0000
1000
0010
1000
0000
,
3001
0000
0100
0000
0110
0000
0000
0000
2000
0000
0000
3002
0000
0000
0013
0000
,
0100
0000
1000
0000
0001
0000
0000
0000
0100
0000
0000
0000
0010
1000
0010
0000
,
1000
0000
0100
0000
0010
0000
0000
0000
0002
0000
0000
0203
0003
0000
0310
0000
,
1000
0000
0100
0000
0001
0000
0000
0000
1000
0000
0000
0000
0010
0100
0010
0000
,
1000
0000
0001
0000
0101
0000
0000
0000
2000
0000
0000
3200
0000
0000
0310
0000
,
0001
0000
0100
0000
1000
0000
0000
0000
0010
0000
0000
0000
1000
0001
1000
0000
,
0001
0100
0010
1000
0000
1100
1100
0000
,
0010
0000
1000
0001
0000
0011
0011
0000
,
0100
0000
0010
1000
0000
1010
1010
0000
,
0001
0000
1000
0010
0100
0101
0101
0000
,
0010
0000
0001
0000
2000
0100
3100
0000
,
1000
0000
1000
0001
0020
0100
0130
0000
,
0010
0000
0001
0100
2000
0000
3001
0000
,
1020
0000
0000
0100
0200
0000
0330
0000
,
0110
0000
0001
1000
0200
0000
0310
0000
,
0002
0000
0000
0000
1003
0000
0000
0001
0200
0000
0010
0000
0310
0000
0000
0000
,
1000
0010
1000
0100
0020
0000
0030
0001
,
1000
0201
1000
0301
,
0010
0000
0000
0000
0001
0000
1000
0000
0100
0000
0000
0000
1000
0001
1000
0000
,
0010
0000
0100
0000
0001
0000
0000
0000
0010
0000
0000
0000
0100
1000
0100
0000
,
1000
0000
0001
0000
1100
0000
0000
0000
0002
0000
0000
0203
0000
0000
0310
0000
,
1000
0000
0000
0001
1000
0000
0000
0001
1000
0000
0010
0000
0100
0000
0010
0000
,
1000
0000
0100
0000
0001
0000
0000
0000
0020
0000
0000
0230
0000
0000
1300
0000
,
0010
0000
0100
0000
0001
0000
0000
0000
1000
0000
0000
0000
0100
0010
0100
0000
,
1000
0000
0001
0000
0110
0000
0000
0000
0020
0000
0000
2030
0000
0000
3001
0000
,
1000
0000
0100
0000
0110
0000
0000
0000
0001
0000
0000
0000
0010
0100
0010
0000
,
0001
0000
1000
0100
1000
0000
0000
0000
1000
0100
1000
0000
0000
0000
0000
0000
,
0000
0000
0001
0100
0001
0000
0000
0000
0001
0100
0001
0000
0000
0000
0000
3000
,
0003
0000
0010
0100
0010
0000
0000
0000
0100
0010
0100
0000
0000
0000
0000
0000
,
0000
0000
0001
1000
0001
0000
0000
0000
1000
0001
1000
0000
0000
0000
0000
0000
,
0300
0000
0100
0001
0100
0000
0000
0000
0100
0001
0100
0000
0000
0000
0000
0000
,
0000
0000
0010
1000
0010
0000
0000
0000
1000
0010
1000
0000
0000
0000
0000
0000
,
0030
0000
1000
0001
1000
0000
0000
0000
0001
1000
0001
0000
0000
0000
0000
0000
,
0000
0000
0100
1000
0100
0000
0000
0000
0100
1000
0100
0000
0000
0000
0001
0000
,
1000
0000
0010
0200
0000
0000
0000
0000
0000
0000
0000
0000
0300
0000
0000
0000
,
0020
0000
0000
0000
,
0000
0000
0000
0030
;

//---------------dance-single - ----------------
#NOTES:
     dance-single:
     :
     Easy:
     6:
     0.204250,0.241866,0.095317,0.047658,0.000000,180.000000,168.000000,12.000000,6.000000,0.000000,0.000000,0.204250,0.241866,0.095317,0.047658,0.000000,180.000000,168.000000,12.000000,6.000000,0.000000,0.000000:
0000
0000
0000
0000
,
0000
0000
0000
0000
,
0000
0000
0000
0000
,
0000
0000
0000
0000
,
0010
1000
0100
0000
,
1000
0010
0100
0001
,
0010
0010
0001
1000
,
0010
0200
0000
0300
,
1000
0010
0001
0110
,
1000
0010
0100
1001
,
0010
1000
0001
0000
,
0100
0010
2000
3001
,
0010
0001
0100
1000
,
0010
0100
0010
1000
,
0100
1001
0010
0100
,
0001
0010
1000
0100
,
1000
0010
0100
0001
,
0010
1000
0100
0010
,
0001
0110
1000
0001
,
0010
0100
1000
0001
,
0100
0010
1000
1001
,
0010
0100
0010
0110
,
0001
0010
1000
0110
,
0001
0100
0010
1001
,
1000
0100
0001
0000
,
0010
1000
0100
0001
,
1000
0001
0100
0010
,
2000
0000
0002
3003
,
0010
1000
0001
0000
,
1000
0010
1000
0100
,
0010
0100
1000
0000
,
0001
1000
0001
0100
,
0010
0100
0010
0001
,
1000
0010
0001
0100
,
0010
0001
0010
1000
,
0100
0010
0100
1000
,
0001
0100
1000
0010
,
1000
0001
0010
0100
,
0010
0001
0100
0010
,
0100
0001
1000
0100
,
1000
0010
0001
0000
,
0100
0010
1000
1001
,
0001
0100
0010
0000
,
1000
0100
0001
0110
,
0010
0001
1000
0000
,
0010
0100
0001
1001
,
0001
1000
0100
0000
,
1000
0010
0100
0110
,
0002
1000
0010
0103
,
0020
0000
0000
0000
,
0000
0000
0000
0030
;

//---------------dance-single - ----------------
#NOTES:
     dance-single:
     :
     Beginner:
     2:
     0.096451,0.097303,0.000000,0.000000,0.000000,85.000000,85.000000,0.000000,0.000000,0.000000,0.000000,0.096451,0.097303,0.000000,0.000000,0.000000,85.000000,85.000000,0.000000,0.000000,0.000000,0.000000:
// measure 0
0000
0000
0000
0000
,  // measure 1
0000
0000
0000
0000
,  // measure 2
0000
0000
0000
0000
,  // measure 3
0000
0000
0000
0000
,  // measure 4
0010
0000
0010
0000
,  // measure 5
1000
0000
0001
0000
,  // measure 6
1000
0000
1000
0000
,  // measure 7
0100
0000
0000
0000
,  // measure 8
0001
0000
0001
0000
,  // measure 9
0010
0000
0010
0000
,  // measure 10
0001
0000
0100
0000
,  // measure 11
0010
0000
1000
0000
,  // measure 12
0100
0000
0000
1000
,  // measure 13
1000
0000
0000
0001
,  // measure 14
0001
0000
0010
0000
,  // measure 15
0001
0000
0000
0100
,  // measure 16
0100
0000
0001
0000
,  // measure 17
1000
0000
0000
0010
,  // measure 18
0010
0000
0100
0000
,  // measure 19
0010
0000
0000
1000
,  // measure 20
1000
0000
0000
0001
,  // measure 21
0000
0000
0000
0100
,  // measure 22
0000
0000
0000
0010
,  // measure 23
0000
0000
1000
0000
,  // measure 24
0100
0000
0010
0000
,  // measure 25
0001
0000
0100
0000
,  // measure 26
1000
0000
1000
0000
,  // measure 27
0010
0000
0000
0000
,  // measure 28
0100
0000
0100
0000
,  // measure 29
0001
0000
0001
0000
,  // measure 30
0010
0000
0010
0000
,  // measure 31
0001
0000
1000
0000
,  // measure 32
0100
0000
0000
1000
,  // measure 33
1000
0000
0000
0001
,  // measure 34
0001
0000
0010
0000
,  // measure 35
0001
0000
0000
0100
,  // measure 36
0100
0000
0010
0000
,  // measure 37
0010
0000
0000
0001
,  // measure 38
0001
0000
1000
0000
,  // measure 39
0100
0000
0000
0010
,  // measure 40
0010
0000
0001
0000
,  // measure 41
0000
1000
1000
0000
,  // measure 42
0100
0000
0010
0000
,  // measure 43
0000
0100
0100
0000
,  // measure 44
0001
0000
1000
0000
,  // measure 45
0000
0010
0010
0000
,  // measure 46
1000
0000
0001
0000
,  // measure 47
0000
0100
0100
0000
,  // measure 48
0010
0000
0000
0000
,  // measure 49
0010
0000
0000
0000
;
