#TITLE:BUBBLE CH;
#SUBTITLE:;
#ARTIST:TORIENA;
#TITLETRANSLIT:;
#SUBTITLETRANSLIT:;
#ARTISTTRANSLIT:;
#GENRE:;
#CREDIT:;
#BANNER:BUBBLE CH-bn.png;
#BACKGROUND:BUBBLE CH-bg.png;
#LYRICSPATH:;
#CDTITLE:;
#MUSIC:BUBBLE CH.ogg;
#OFFSET:0.000000;
#SAMPLESTART:43.886002;
#SAMPLELENGTH:20.000000;
#SELECTABLE:YES;
#DISPLAYBPM:175.000000;
#BPMS:0.000000=175.000000
;
#STOPS:
;
#BGCHANGES:;
#KEYSOUNDS:;
#ATTACKS:;

//---------------dance-single - ----------------
#NOTES:
     dance-single:
     :
     Hard:
     13:
     0.703310,0.681628,0.110385,0.540887,0.154539,446.000000,436.000000,10.000000,49.000000,0.000000,0.000000,0.703310,0.681628,0.110385,0.540887,0.154539,446.000000,436.000000,10.000000,49.000000,0.000000,0.000000:
0000
0000
0000
0000
,
0000
0000
0000
0000
,
0000
0000
0000
0000
,
0000
0000
0000
0000
,
0010
1000
0100
0001
0000
1000
0010
0100
,
0000
0001
0010
0100
1000
0010
0100
0001
,
1000
0010
0001
0100
0000
0010
1000
0001
,
0010
0000
0001
1000
0001
0000
0100
0000
0010
0000
1000
0000
0100
0000
0000
0000
,
0002
0000
0010
0000
1000
1000
1003
0010
,
0200
0000
0302
0000
2003
0100
3100
0000
,
1000
0001
1000
0010
0100
1000
0100
0001
,
0020
0000
0230
0000
2300
0001
3001
0000
,
0020
0000
1000
0000
0100
0100
0130
0010
,
0002
0000
0203
0000
0302
0010
0013
0000
,
0001
0100
1000
0100
0001
1000
0100
0010
,
0100
0000
1000
0001
1000
0000
0010
0000
1000
0000
0001
0000
0100
0000
0000
0000
,
0001
0010
0000
0000
0001
0000
0100
0000
1000
0000
0010
0100
0020
0000
0000
0000
,
1030
0001
1000
0010
0200
0001
0301
0000
,
1000
0100
0010
0001
0100
0010
1000
0000
,
0001
0010
0000
0000
0001
1000
0000
0000
0100
0010
0000
0000
0001
0000
0100
0000
,
0010
1000
0000
0000
0100
0000
0010
0000
0001
0000
1000
0100
2000
0000
0000
0000
,
3001
1000
0010
1000
0200
0010
0310
0000
,
0001
0000
0100
0000
1000
0000
0100
0000
0010
0000
1000
0000
0100
0000
0010
0001
,
0010
0001
0000
0000
0100
0000
0100
0000
0100
0000
0000
0000
0001
1000
0001
1000
,
0001
0010
1000
0100
1000
0001
0100
0000
,
0010
1000
0100
1000
0001
0010
0100
0000
,
2001
0000
0000
0000
3010
0000
0100
0000
0001
0000
1000
0010
0000
0000
0100
0000
,
0002
0000
2003
0000
3002
0010
0013
0000
,
0001
1000
0010
1000
0100
0001
0010
0000
,
0110
0000
1000
0001
1000
0100
0100
0000
,
0010
0001
0000
0000
1000
0000
0001
0000
0100
0000
0010
1000
0000
0000
0100
0000
,
1000
0000
0001
0010
0001
0000
0100
0000
0110
0000
0000
0000
1001
0000
0000
0000
,
1000
0001
0000
0000
1000
0000
0010
0000
0100
0000
0001
0010
0002
0000
0000
0000
,
1003
0001
1000
0010
0200
0000
0320
1000
,
1030
0000
0001
1000
0010
0100
0010
1000
,
0200
0000
0000
0320
0000
0000
0032
0000
2003
0000
0000
0000
3010
0000
0100
0000
,
0002
0000
0000
0000
0013
0000
0001
0000
1000
0000
0010
0100
0020
0000
0000
0000
,
1030
0001
1000
0010
0200
0001
0302
0010
,
0013
0000
0001
0100
0010
1000
0100
0001
,
2000
0000
0000
3020
0000
0000
0230
0000
0302
0000
0000
0000
0103
0000
0000
0000
,
1000
0001
0000
0000
0010
0000
0001
0000
0100
0000
0010
1000
0020
0000
0000
0000
,
0130
0001
0010
0100
2000
0001
3001
0010
,
0001
0100
0000
0000
0100
0000
0010
0000
1000
0000
0001
0000
0010
0000
0100
0000
,
2000
0000
0000
3002
0000
0000
0203
0000
0320
0000
0000
0000
1030
0000
0001
0000
,
0020
0000
0000
0000
0130
0000
1000
0000
0010
0000
0100
0001
0200
0000
0000
0000
,
0301
0010
0100
1000
0020
0000
0130
0001
,
0020
0000
0031
0100
1000
0010
1000
0001
,
0020
0000
0000
0230
0000
0000
2300
0000
3002
0000
0000
0000
0103
0000
0000
0000
,
1000
0001
1000
0010
0100
1000
0100
0001
,
0010
0100
1000
0001
0100
1000
0100
0010
,
0100
1000
0100
0001
0010
0100
1000
0001
,
0010
0100
1000
0001
0100
0000
1001
0000
,
0010
1000
0010
0001
0010
0100
1000
0001
,
0100
0010
0100
1000
0100
0001
1000
0100
,
0001
0100
1000
0010
0100
0001
1000
0010
,
0001
0010
1000
0100
0010
0000
0110
0000
,
0001
0010
1000
0100
0010
0100
1000
0010
,
0001
0010
0100
1000
0100
0010
1000
0100
,
0001
1000
0010
0100
0010
1000
0100
0001
,
0010
0100
0010
0001
0100
0000
1010
0000
,
0100
0001
0100
0010
0001
0100
0010
1000
,
0001
0010
1000
0010
0100
1000
0001
0100
,
0010
0001
0010
0100
0010
1000
0100
0001
,
0100
0010
0001
0100
1000
0000
0101
0000
,
2100
0000
3001
1000
0001
0100
0010
1000
,
0101
0000
0000
0000
;

//---------------dance-single - ----------------
#NOTES:
     dance-single:
     :
     Medium:
     10:
     0.558233,0.538127,0.198693,0.463617,0.022077,354.000000,336.000000,18.000000,42.000000,0.000000,0.000000,0.558233,0.538127,0.198693,0.463617,0.022077,354.000000,336.000000,18.000000,42.000000,0.000000,0.000000:
0000
0000
0000
0000
,
0000
0000
0000
0000
,
0000
0000
0000
0000
,
0000
0000
0000
0000
,
0010
1000
0100
0001
,
0010
0000
0100
0000
1000
0001
1000
0010
,
0100
0001
0010
1000
,
0001
0100
0010
1000
0002
0000
0023
0000
,
0032
0100
1000
0013
,
0002
2003
3200
0310
,
0001
1000
0001
0000
0100
0010
0100
0000
,
0020
2030
3200
0310
,
0002
0010
0100
1003
,
0020
0230
0302
1003
,
0010
1000
0010
0000
0100
0001
0100
0000
,
0001
1000
0010
1000
0200
0000
0320
0000
,
0031
0000
0001
1000
0010
1000
0100
0000
,
0010
0001
0100
0010
1000
0000
1100
0000
,
0001
0100
1000
0000
0010
0000
0100
0000
,
0002
2003
3020
0130
,
0010
0000
0010
1000
0100
1000
0001
0000
,
1000
0001
0010
0100
1000
0000
0101
0000
,
0010
0000
0010
0000
1000
0001
0010
0000
,
1000
0100
0010
0001
0100
0000
1001
0000
,
0020
0000
1030
0001
0010
0001
1000
0000
,
0200
0000
1300
0010
0100
0010
1000
0000
,
0002
0000
0013
0001
1000
0010
0000
0100
,
0002
2003
0002
3003
,
2000
0000
3100
0010
0001
0100
0010
0000
,
0200
0000
0301
0010
0001
1000
0100
0000
,
0020
0000
0130
0010
0001
1000
0000
0100
,
1000
0001
1000
0010
0100
0000
0110
0000
,
0001
0000
0010
0001
1000
0100
2000
0000
,
3010
0100
0001
1000
0100
0000
1100
0000
,
0002
0000
1003
0010
1000
0000
0100
0010
,
0100
0000
0011
0000
1100
0000
0001
1000
,
0100
0000
1000
0001
0010
0001
0200
0000
,
1300
0100
0001
0010
0100
0000
1001
0000
,
0010
0000
0010
1000
0100
0000
1000
0001
,
0010
0101
1010
0100
,
0010
0000
1000
0100
1000
0001
0200
0000
,
0310
0100
0010
1000
0001
0000
0110
0000
,
2000
0000
3010
1000
0100
0000
0010
0001
,
1000
0000
0101
0000
1100
0000
0010
0100
,
0002
0000
0013
0001
0100
0010
1000
0000
,
0100
1000
0010
0100
0001
0000
0011
0000
,
0010
0000
1000
0001
0020
0000
0130
1000
,
0001
0011
1010
0100
,
0001
0000
0010
0000
0001
1000
0100
0000
,
0010
0001
0100
0010
1000
0000
0001
0000
,
1000
0010
0100
0000
0001
0010
1000
0000
,
0001
0000
0000
0010
0000
0000
0100
0000
2000
0000
0000
0000
3020
0000
0000
0000
,
1030
0100
0010
0000
0100
1000
0001
0000
,
0010
0001
1000
0001
0100
0000
0010
0000
,
1000
0100
0001
0000
0010
0001
0100
0000
,
0010
0000
0000
1000
0000
0000
0001
0000
0200
0000
0000
0000
0320
0000
0000
0000
,
1030
0100
0001
0000
1000
0010
0100
0000
,
0010
0100
0001
0010
1000
0000
0100
0000
,
0010
0001
0100
0000
0001
0010
1000
0000
,
0100
0000
0000
0010
0000
0000
0001
0000
2000
0000
0000
0000
3200
0000
0000
0000
,
0310
0001
0010
0100
1000
0001
0100
0000
,
0001
0010
1000
0001
0100
0000
0010
0000
,
1000
0001
1000
0000
0010
0100
0010
0000
,
1000
0000
0000
0100
0000
0000
0010
0000
0002
0000
0000
0000
1003
0000
0000
0000
,
1020
0000
0100
0000
0130
0010
1000
0001
,
0101
0000
0000
0000
;

//---------------dance-single - ----------------
#NOTES:
     dance-single:
     :
     Easy:
     7:
     0.392655,0.430502,0.198693,0.143501,0.000000,249.000000,231.000000,18.000000,13.000000,0.000000,0.000000,0.392655,0.430502,0.198693,0.143501,0.000000,249.000000,231.000000,18.000000,13.000000,0.000000,0.000000:
0000
0000
0000
0000
,
0000
0000
0000
0000
,
0000
0000
0000
0000
,
0000
0000
0000
0000
,
0010
1000
0100
0001
,
0010
0100
1000
0001
,
1000
0010
0100
0001
,
0010
0100
1000
0001
,
2000
0000
0000
3000
,
0001
0100
2000
3000
,
0010
1000
0100
0010
,
0001
1000
0020
0030
,
0200
0000
0000
0300
,
0001
0010
0200
0300
,
1000
0001
0010
0100
,
1000
0001
0100
0010
,
1000
0101
0010
0100
,
0001
0010
1000
0001
,
0100
0010
1000
0100
,
0010
0001
1000
0110
,
0001
1010
1000
0100
,
0010
0001
0100
1000
,
0001
0010
0001
0100
,
1000
0001
0100
1001
,
0020
0130
2000
3000
,
0001
0100
0020
0030
,
1000
0001
0010
0100
,
0010
0002
2000
3003
,
0010
1000
0200
0300
,
1000
0001
2000
3000
,
0010
1000
0100
0001
,
0010
0100
1100
0101
,
0001
0110
1000
0100
,
0010
0100
1000
0001
,
0010
0001
0100
1000
,
0010
0100
0001
0011
,
0100
1001
0010
1000
,
0100
0001
1000
0010
,
1000
0100
0001
1000
,
0010
0100
1010
0011
,
1000
1010
0001
0010
,
0001
0100
1000
0010
,
0100
0010
1000
0100
,
0010
0100
1000
0101
,
0010
0011
0100
1000
,
0001
1000
0010
0100
,
0010
1000
0001
0010
,
0100
1000
1001
0110
,
0010
0001
1000
0010
,
1000
0100
0010
0001
,
0100
1000
0010
0100
,
0001
0010
1000
1000
,
0001
0100
0010
0100
,
0001
0010
0100
1000
,
0010
1000
0100
0001
,
1000
0010
0100
0100
,
0001
0010
0001
0100
,
0010
0100
0001
0010
,
0100
1000
0010
1000
,
0100
1000
0010
0010
,
0100
0010
0100
0001
,
0010
1000
0100
0001
,
1000
0010
1000
0100
,
1000
0010
0001
0001
,
0012
0100
0100
0103
,
1001
0000
0000
0000
;

//---------------dance-single - ----------------
#NOTES:
     dance-single:
     :
     Beginner:
     4:
     0.214462,0.251126,0.055193,0.011039,0.000000,136.000000,131.000000,5.000000,1.000000,0.000000,0.000000,0.214462,0.251126,0.055193,0.011039,0.000000,136.000000,131.000000,5.000000,1.000000,0.000000,0.000000:
// measure 0
0000
0000
0000
0000
,  // measure 1
0000
0000
0000
0000
,  // measure 2
0000
0000
0000
0000
,  // measure 3
0000
0000
0000
0000
,  // measure 4
0010
0000
0010
0000
,  // measure 5
0001
0000
0001
0000
,  // measure 6
1000
0000
0010
0000
,  // measure 7
0100
0000
0100
0000
,  // measure 8
0110
0000
0000
0000
,  // measure 9
0001
0000
0001
0000
,  // measure 10
1000
0000
0010
0000
,  // measure 11
1000
0000
0001
0000
,  // measure 12
1001
0000
0000
0000
,  // measure 13
0100
0000
0010
0000
,  // measure 14
1000
0000
0001
0000
,  // measure 15
0010
0000
0100
0000
,  // measure 16
1000
0000
1000
0000
,  // measure 17
0001
0001
0001
0000
,  // measure 18
0000
0000
0000
0000
,  // measure 19
0010
0010
0010
0000
,  // measure 20
0001
0000
0100
0000
,  // measure 21
1000
1000
1000
0000
,  // measure 22
0010
0010
0000
0000
,  // measure 23
0100
0100
0100
0000
,  // measure 24
1001
0000
0000
0000
,  // measure 25
0001
0001
0001
0000
,  // measure 26
1000
0000
0001
0000
,  // measure 27
0100
0100
0100
0000
,  // measure 28
0110
0000
0000
0000
,  // measure 29
1000
1000
1000
0000
,  // measure 30
0010
0000
0100
0000
,  // measure 31
0001
0000
1000
0000
,  // measure 32
0010
0000
1000
0000
,  // measure 33
0100
0100
0100
0000
,  // measure 34
1000
0000
0001
0000
,  // measure 35
0010
0010
0010
0000
,  // measure 36
0001
0000
0010
0000
,  // measure 37
0001
0001
0001
0000
,  // measure 38
0100
0000
0010
0000
,  // measure 39
1000
1000
1000
0000
,  // measure 40
0100
0000
1000
0000
,  // measure 41
0001
0001
0001
0000
,  // measure 42
1000
0000
0010
0000
,  // measure 43
0100
0100
0100
0000
,  // measure 44
0010
0000
0100
0000
,  // measure 45
0010
0010
0010
0000
,  // measure 46
1000
0000
0100
0000
,  // measure 47
0001
0001
0001
0000
,  // measure 48
0000
0010
0000
0010
,  // measure 49
0000
0100
0000
0100
,  // measure 50
0000
1000
0000
0001
,  // measure 51
0000
0000
0100
0100
,  // measure 52
0000
0001
0000
0001
,  // measure 53
0000
1000
0000
1000
,  // measure 54
0000
0100
0000
0100
,  // measure 55
0000
0000
0010
0010
,  // measure 56
0000
0100
0000
1000
,  // measure 57
0000
0001
0000
0100
,  // measure 58
0000
0010
0000
0100
,  // measure 59
0000
0000
0001
0001
,  // measure 60
0000
1000
0000
0100
,  // measure 61
0000
1000
0000
0001
,  // measure 62
0000
0010
0000
0100
,  // measure 63
0000
0000
1000
1000
,  // measure 64
2000
0000
3000
0000
,  // measure 65
1001
0000
0000
0000
;
