#TITLE:BREDLI;
#SUBTITLE:;
#ARTIST:BEMANI Sound Team "SYUNN";
#TITLETRANSLIT:;
#SUBTITLETRANSLIT:;
#ARTISTTRANSLIT:;
#GENRE:;
#CREDIT:;
#BANNER:BREDLI-bn.png;
#BACKGROUND:BREDLI-bg.png;
#LYRICSPATH:;
#CDTITLE:;
#MUSIC:BREDLI.ogg;
#OFFSET:1.667000;
#SAMPLESTART:30.222000;
#SAMPLELENGTH:15.000000;
#LASTBEATHINT:1.422934;
#SELECTABLE:YES;
#DISPLAYBPM:128.000000;
#BPMS:0.000000=128.000000
;
#STOPS:
;
#BGCHANGES:;
#KEYSOUNDS:;
#ATTACKS:;

//---------------dance-double - t7r----------------
#NOTES:
     dance-double:
     t7r:
     Easy:
     6:
     0.227083,0.269070,0.066233,0.123004,0.000000,168.000000,161.000000,7.000000,13.000000,0.000000,0.000000,0.227083,0.269070,0.066233,0.123004,0.000000,168.000000,161.000000,7.000000,13.000000,0.000000,0.000000:
00000000
00000000
00000000
00000000
,
00000000
00000000
00000000
00000000
,
00000000
00000000
00000000
00000000
,
00000000
00000000
00000000
00000000
,
00000000
00000000
00000000
00000000
,
00000100
00001000
00000010
00000001
,
00000020
00000000
00001000
00001030
,
00000100
00001000
00010000
00100000
,
01000000
00000000
10010000
00000000
,
02200000
00000000
00000000
00000000
,
00000000
00000000
00000000
03300000
,
00200000
00000000
00000000
00000000
,
20300000
00000000
00000000
00000000
,
32000000
03000000
00020000
00030000
,
00002000
00003000
00000020
00000030
,
00000100
00000100
00001000
00001000
,
00000001
00000100
00002000
00003000
,
00010000
00001000
00001000
01000000
,
00100000
10000000
01000000
00010000
,
00001000
00000100
00000100
00000010
,
00001000
00000001
00000100
00000010
,
00001000
00001001
00000001
00000001
,
00000010
00001000
00010000
01000000
,
00200000
00000000
00010000
00000000
,
01300000
01000000
10000000
00010000
,
10000000
01000000
00010000
00001000
,
00000001
00000100
00000010
00000010
,
00000001
00000100
00001000
00010000
,
10000000
01000000
00100000
00100000
,
10000000
10010000
10000000
00010000
,
01000000
00010000
00001000
00000100
,
00000020
00000000
00000001
00000000
,
00000130
00000100
00000010
00000001
,
00001000
00000000
00010000
00000000
,
10000000
00000000
00010000
00000000
,
00001000
00000000
00000001
00000000
,
00000100
00000000
00010000
00000000
,
10000000
10000000
00010000
00010000
,
00001000
00001000
00000001
00000001
,
00000100
00000010
00010000
00001000
,
00010000
00010000
00001000
00011000
,
01000000
10000000
01000000
00010000
,
00000100
00000001
00000100
00001000
,
00000100
00000000
00000010
00000000
,
00010000
00000000
00001000
00000000
,
00100000
10000000
00100000
00010000
,
00000010
00001000
00000010
00000001
,
00000100
00000000
00000110
00000000
,
00000010
00000000
00010000
00000000
,
00001000
00010000
01000000
00010000
,
00001000
00000100
00000010
00000000
,
00001000
00000001
00001000
00000000
,
00010000
10000000
00010000
00000000
,
01000000
00000000
01100000
00000000
,
00100000
10000000
01000000
00010000
,
00002000
00000000
00010000
00000000
,
01003000
00000000
00010000
00000000
00001000
00000000
00000100
00000010
;

//---------------dance-double - t7r----------------
#NOTES:
     dance-double:
     t7r:
     Medium:
     8:
     0.321702,0.376698,0.104080,0.255469,0.033116,238.000000,227.000000,11.000000,27.000000,0.000000,0.000000,0.321702,0.376698,0.104080,0.255469,0.033116,238.000000,227.000000,11.000000,27.000000,0.000000,0.000000:
00000000
00000000
00000000
00000000
,
00000000
00000000
00000000
00000000
,
00000000
00000000
00000000
00000000
,
00000000
00000000
00000000
00000000
,
00000000
00000000
00000000
00000000
,
00000100
00000000
00000010
00001000
00010000
00000000
00001000
00000000
,
02000000
03100000
20000000
30010000
,
01000000
00000000
00100000
00010000
00001000
00000000
00010000
00000000
,
00000010
00000000
00000000
00001000
00000000
00000000
00010000
00000000
00000000
01000000
00000000
00000000
00100000
00000000
00000000
00000000
,
20020000
00000000
00000000
00000000
,
00000000
00000000
00000000
30030000
,
02000000
00000000
00000000
03000000
,
00020000
00000000
00000000
00030000
,
00000020
00000000
00000000
00000032
00000000
00000000
00000203
00000000
,
00000000
00002300
00000000
00023000
00000000
00000000
00230000
00000000
,
10300000
01000000
00010000
00001000
,
01000000
00010000
01000000
00000000
00100000
00000000
10010000
00000000
,
10000000
00000000
01000000
01000000
01000000
00000000
00100000
00000000
,
00010000
00001000
00000001
00001000
,
00010000
00000000
01000000
01000000
01000000
00000000
10000000
00000000
,
01000000
00011000
00000100
00011000
,
00000010
00000000
00001001
00000000
00000100
00000100
00000100
00000000
,
00001000
00010000
10000000
00010000
,
00000100
00000002
00000000
00000000
00000100
00000000
00001003
00000000
,
00000100
00000100
00000100
00000000
00010000
00010000
00010000
00000000
,
00011000
00000000
01000000
00000000
10000000
01000000
00010000
00000000
,
00001000
00000000
00000100
00000000
00000000
00000001
00000000
00000000
00000100
00000000
00001000
00000000
00000000
00000002
00000000
00000000
,
00001003
00000000
00000001
00000000
00000100
00001000
00000000
00010000
,
01000000
00100000
00001000
00010000
,
00001000
00000000
00011000
00000000
00000010
00000001
00000000
00000000
,
00000010
00000000
00001000
00000000
00000000
00010000
00000000
00000000
00100000
00000000
10000000
00000000
00000000
00000000
00000000
00000000
,
00100000
02000000
00000000
00000000
10000000
00000000
03100000
00000000
,
00001000
00001000
00001000
00000000
00010000
00000000
00010000
00000000
,
00001000
00010000
00000000
00000100
,
00000000
00000001
00000000
00000100
,
00000000
00001000
00000000
00010000
,
00000000
01000000
01000000
00000000
,
00100000
00100000
00100000
00000000
10000000
00000000
01000000
00000000
,
00010000
00010000
00010000
00000000
00001000
00000000
00000100
00000000
,
00000001
00000100
00001000
00000000
01000000
00100000
10000000
00000000
,
00100000
00100000
01000000
10010000
,
20000000
00000000
32000000
00000000
03020000
00000000
00031000
00000100
,
00000002
00000000
00000203
00000000
00001300
00010000
00001000
00010000
,
01000000
10000000
00000000
01000000
00010000
00001000
00000000
00000000
,
00000100
00000001
00000000
00000100
00001000
00010000
00000000
00000000
,
20000000
00000000
30200000
00000000
00320000
00000000
00031000
00000010
,
00000002
00000000
00000023
00000000
00001030
00010000
00001000
00010000
,
00100000
10000000
00000000
00100000
00010000
00001000
00000000
00000000
,
00000110
00001000
01100000
00010000
,
10000000
00000000
01000000
00000000
00010000
00001000
00000100
00000000
,
00000001
00000000
00001000
00000000
00000000
00010000
00000000
00000000
10000000
00000000
00010000
00000000
00000000
02000000
00000000
00000000
,
03100000
00000000
10000000
00000000
01000000
00010000
00001000
00000000
,
00000001
00000100
00000010
00000000
00000001
00000000
00000100
00000000
,
00001000
00000000
00011000
00000000
00100000
10000000
01000000
00000000
,
00100000
00010000
00001000
00000000
00000010
00001000
00010000
00000000
,
01000000
00200000
00000000
00000000
10000000
10000000
10300000
00000000
,
01000000
00010000
00001000
00000100
00001000
00010000
00010000
00010000
;

//---------------dance-double - t7r----------------
#NOTES:
     dance-double:
     t7r:
     Hard:
     14:
     0.524455,0.618862,0.283854,0.160851,0.373742,388.000000,358.000000,30.000000,17.000000,0.000000,0.000000,0.524455,0.618862,0.283854,0.160851,0.373742,388.000000,358.000000,30.000000,17.000000,0.000000,0.000000:
00000000
00000000
00000000
00000000
,
00000000
00000000
00000000
00000000
,
00000000
00000000
00000000
00000000
,
00000000
00000000
00000000
00000000
,
00000000
00000000
00000000
00000000
,
00000010
00000001
00000100
00001000
,
00100000
00010000
01000000
10000000
,
01000000
00010000
00100000
10000000
,
00010000
00000000
00000000
00001000
00000000
00000000
00000100
00000000
00000000
00000110
00000000
00000000
00001001
00000000
00000000
00000000
,
00000020
00000000
00000000
00000000
,
00000000
00000000
00000000
00000030
,
00022000
00000000
00000000
00033000
,
02000000
00000000
00000000
03000000
,
10000000
02000000
00000000
03010000
00002000
00000000
00003100
00000002
,
00000000
00000203
00000000
00002300
00000000
00000000
00023000
00000000
,
00031000
00001000
00000100
00000100
00010000
00010000
00100000
00100000
,
01000000
00100000
01000000
00100000
01000000
00100000
01000000
00100000
01000000
00000000
00000000
00000000
10010000
00000000
00000000
00000000
,
11000000
00000000
01000000
01000000
00010000
00010000
00001000
00001000
,
00000100
00000000
00000001
00000000
00000100
00001000
00000000
00000100
00000001
00000000
00000100
00000000
00000010
00000000
00000000
00000000
,
00001001
00000000
00000001
00000001
00000010
00000010
00001000
00001000
,
00010000
00000000
01100000
10000000
01100000
00000000
01010000
00000000
,
00100000
00000000
10010000
10000000
01000000
01000000
00010000
00010000
,
00000010
00000000
00000001
00000000
00000010
00001000
00000000
00000010
00000001
00000000
00000010
00000000
00000100
00000000
00000000
00000000
,
00000001
00000020
00001000
00000000
00000130
00000100
00000010
00000010
,
00000001
00000000
00000100
00000000
00001000
00000000
00010000
00000000
00100000
00000000
10000000
01000000
00100000
00000000
01000000
00000000
,
11000000
00000000
00000000
00000000
01000000
00010000
00000000
00001000
00010000
00001000
00010000
00000000
00000010
00000000
00000000
00000100
,
00000001
00000100
00001000
00000000
00000100
00000010
00000000
00010000
00001000
00010000
00001000
00000000
01000000
00200000
00000000
00000000
,
10300000
00000000
00000000
00000000
10100000
00000000
00000000
00100000
00010000
00001000
00010000
00000000
00001000
00000000
00000000
00010000
,
00000100
00000000
00000001
00000100
00001000
00000100
00000000
00000100
00000010
00000000
00000001
00000000
00000100
00000000
00001000
00000000
,
00100000
00000000
00000000
00000000
10010000
00000000
00000000
10000000
01000000
00100000
01000000
00000000
00010000
00000000
00000000
00001000
,
00000100
00000001
00000100
00000000
00000010
00001000
00000000
00010000
01000000
10000000
01000000
00000000
00100000
10000000
00000000
00000000
,
01000000
00200000
10000000
00000000
01300000
01000000
00100000
00100000
,
00001000
00010000
00001000
00010000
00001000
00010000
00001000
00010000
00002000
00000000
00000000
00000000
00003000
00000000
00000000
00000000
,
00011000
01000000
10000000
01000000
,
00010000
00001000
00000010
00000100
,
00000001
00000010
00001000
00000010
,
00000100
00001000
00010000
01000000
,
00100000
00100000
10000000
10000000
01000000
01000000
00010000
00010000
,
00000010
00000010
00001000
00001000
00000100
00000100
00000001
00000001
,
00000100
00000010
00000100
00000010
00000100
00000010
00000100
00000010
00000100
00000010
00000100
00000010
00000100
00000000
00000000
00000000
,
00010000
00010000
00001000
00011000
,
00100000
00000000
11000000
00000000
01010000
00000000
11000000
00010000
,
00001000
00000000
00001100
00000000
00000101
00000010
00001000
00010000
,
00100000
00000000
01000000
00000000
10000000
01000000
00000000
00010000
01000000
00000000
00010000
00000000
00001000
00000000
00000000
00000000
,
00000100
00000000
00000001
00000000
00000100
00001000
00000000
00010000
00001000
00000000
00100000
00000000
00001000
00010000
00001000
00000000
,
00000100
00000010
00001010
00000000
00000011
00000000
00001100
00010000
,
01000000
01100000
01010000
00110000
,
00001000
00000000
00010000
00000000
00000010
00001000
00000000
00000010
00000001
00000000
00000010
00000000
00000200
00000000
00000000
00000000
,
00001300
00010000
10000000
00000000
00010000
00001000
00000001
00000000
,
00000110
00000000
00000000
00000000
00000001
00000100
00000000
00000100
00001000
00010000
00001000
00000000
00010000
00000000
00000000
01000000
,
10000000
01000000
00010000
00000000
01000000
00100000
00000000
00100000
10000000
00100000
00010000
00000000
00100000
02000000
00000000
00000000
,
13000000
00000000
00000000
00000000
01000000
00010000
00000000
00010000
00001000
01000000
00001000
00000000
00010000
00000000
00000010
00000000
,
00000100
00000000
00000001
00000100
00001000
00010000
00000000
00011000
00000000
00001000
01000000
00000000
00100000
00000000
10000000
00000000
,
00010000
00000000
00000000
00000000
10010000
00000000
00000000
10000000
00100000
00010000
00100000
00000000
01000000
00000000
00000000
00001000
,
00100000
00001000
00010000
00000000
00000010
00000100
00000000
00000100
00000001
00000100
00001000
00000000
00100000
02000000
00000000
00000000
,
13000000
10000000
00100000
00100000
00010000
00010000
00001000
00001000
,
00000010
00000100
00000010
00000100
00000010
00000100
00000010
00000100
00000010
00000000
00001000
00000000
00010000
00000000
00011000
00000000
;

//---------------dance-double - t7r----------------
#NOTES:
     dance-double:
     t7r:
     Challenge:
     17:
     0.732615,0.914839,0.690712,0.217622,0.756945,542.000000,469.000000,73.000000,23.000000,0.000000,0.000000,0.732615,0.914839,0.690712,0.217622,0.756945,542.000000,469.000000,73.000000,23.000000,0.000000,0.000000:
00000000
00000000
00000000
00000000
,
00000000
00000000
00000000
00000000
,
00000000
00000000
00000000
00000000
,
00000000
00000000
00000000
00000000
,
00000000
00000000
00000000
00000000
,
00000001
00000000
00000100
00000000
00000010
00000001
00000000
00000010
00001000
00000000
00010000
00000000
00100000
00000000
01000000
00000000
,
10000000
00000000
01000000
00000000
00100000
10000000
00000000
00100000
01000000
00000000
00100000
00000000
00010000
00000000
00001000
00000000
,
00000100
00000000
00000001
00000000
00000100
00001000
00000000
00010000
01000000
00000000
00100000
00000000
10000000
00000000
00010000
00000000
,
00001000
00000000
00000000
00000110
00000000
00000000
00000011
00000000
00000001
00000100
00000000
00000000
00010000
00100000
01000000
10000000
,
00020000
00000000
00000000
00000000
,
00000000
00000000
00000000
00030000
,
00021000
00000000
00000000
00000000
,
00000020
00000000
00000000
00030030
,
00002000
00003200
00000302
00002003
00003020
00000230
00002300
00023000
,
00230000
20300000
30200000
02300000
03020000
00032000
00003200
00000301
,
00001000
00001000
00000100
00000100
00010000
00010000
00001000
00001000
,
01000000
00000000
00000000
00100000
00000000
00000000
01000000
00000000
00000000
00100000
00000000
00000000
01000000
00000000
00000000
00000000
00000000
00000000
00000000
00000000
00000000
00000000
00000000
00000000
00001000
00000000
00000000
00010000
00000000
00000000
00001000
00000000
00000000
00010000
00000000
00000000
00001000
00000000
00000000
00000000
00000000
00000000
00000000
00000000
00000000
00000000
00000000
00000000
00011000
00000000
00000000
00000000
00000000
00000000
00000000
00000000
00000000
00000000
00000000
00000000
00001000
00000000
00000000
00000000
01000000
00000000
00000000
00000000
00100000
00000000
00000000
00000000
10000000
00000000
00000000
00000000
00000000
00000000
01000000
00000000
00000000
00000000
00000000
00000000
00100000
00000000
00000000
00000000
00000000
00000000
00000000
00000000
00000000
00000000
00000000
00000000
,
10010000
00000000
11000000
01000000
01010000
01000000
11000000
01000000
,
01010000
00000000
00010000
00000000
00001000
00010000
00000000
00000100
00000001
00000100
00000010
00000000
00000100
00001000
00000001
00000000
,
00001001
00000000
00000101
00000100
00001100
00000100
00000101
00000100
,
00001100
00000000
00001000
00000000
00011000
00000000
00010000
00000000
01010000
00000000
01000000
00000000
01100000
00000000
00100000
00010000
,
10000000
00010000
00100000
00010000
10000000
00000000
01000000
00000000
01010000
00000000
00010000
00000000
00011000
00000000
00001000
00000000
,
00001100
00000000
00000100
00000000
00000001
00000010
00000000
00001000
00000010
00000100
00001000
00000000
00010000
01000000
00100000
00000000
,
10100000
00010000
11000000
01000000
01010000
00010000
00011000
00001000
,
00000100
00000000
00000001
00000000
00000100
00000000
00000100
00000000
00001000
00000000
00010000
01000000
00100000
01000000
00100000
00000000
,
10010000
00000000
00000000
00000000
10000000
00100000
00000000
00010000
00001000
00000001
00001000
00000000
00010000
00000000
00000000
00001000
,
00010000
10000000
00010000
00000000
00001000
00010000
00000000
00010000
00001000
00000001
00001000
00000000
00000000
00000020
00000100
00000030
,
00001001
00000000
00000000
00000000
00000001
00000010
00000000
00001000
00010000
10000000
00010000
00000000
00001000
00000000
00000000
00000100
,
00000001
00000010
00001000
00010000
00000000
01100000
00000000
10010000
00000000
00000000
01000000
00000000
00100000
10000000
01000000
00100000
,
00010000
00000000
00000000
00000000
00000010
00000000
00000100
00000000
00000000
00000001
00000000
00000000
00001000
00000000
00000000
00000000
00000000
00000000
00000000
00000000
00000000
00010000
00000000
00000000
00001000
00000000
00000000
00000001
00000000
00000000
00001000
00000000
00000000
00000000
00000000
00000000
00010000
00000000
00000000
00000000
00000000
00000000
00000000
00000000
00000000
00001000
00000000
00000000
,
00010000
10000000
00010000
00000000
00001000
00010000
00000000
00010000
00001000
00000001
00001000
00000000
00000000
00000020
00000100
00000030
,
00001001
00000000
00000001
00000000
00000100
00000000
00001000
00010000
10000000
00010000
00001000
00000000
01000000
00100000
00000000
10000000
,
01000000
00000000
00000000
00100000
00000000
00000000
01000000
00000000
00000000
00100000
00000000
00000000
01000000
00000000
00000000
00000000
00000000
00000000
00000000
00000000
00000000
00000000
00000000
00000000
00001000
00000000
00000000
00010000
00000000
00000000
00001000
00000000
00000000
00010000
00000000
00000000
00001000
00000000
00000000
00000000
00000000
00000000
00000000
00000000
00000000
00000000
00000000
00000000
00000010
00000000
00000000
00000000
00000100
00000000
00000001
00000000
00000000
00000100
00000000
00000000
00000010
00000000
00000000
00000000
00001000
00000000
00000000
00000000
01000000
00000000
00000000
00000000
10000000
00000000
00000000
00000000
00000000
00000000
01000000
00000000
00000000
00000000
00000000
00000000
00100000
00000000
00000000
00000000
00000000
00000000
10000000
00000000
00000000
00000000
00000000
00000000
,
00010000
00000000
00000000
00000000
00000000
00000000
10000000
00000000
01000000
00000000
00000000
01000000
00010000
00000000
00000000
00000000
00000000
00011000
00000000
00000000
00000000
00011000
00000000
00000000
,
00000000
00000000
00000000
00000110
00000000
00000000
00000001
00000000
00000100
00000000
00000000
00000100
00001000
00000000
00000000
00000000
00000000
00011000
00000000
00000000
00000000
00011000
00000000
00000000
,
00100000
00000000
00000000
00000000
00000000
00000000
10000000
00000000
00100000
00000000
00000000
00100000
00010000
00000000
00000000
00000000
00000000
00011000
00000000
00000000
00000000
00011000
00000000
00000000
,
00000000
00000000
00000000
00000100
00000000
00000000
00000001
00000000
00000010
00000000
00000000
00000010
00001000
00000000
00000000
00000000
00000000
00011000
00000000
00000000
00000000
00011000
00000000
00000000
,
01000000
00000000
00000000
10000000
00000000
00000000
01000000
00000000
00010000
01000000
00000000
00100000
00010000
00000000
00000000
00100000
00000000
10000000
01000000
00000000
00010000
00001000
00000000
00000000
,
00000100
00000000
00000000
00000001
00000000
00000000
00000100
00000000
00001000
00000100
00000000
00000010
00001000
00000000
00000000
00000001
00000000
00000010
00001000
00000000
00010000
01000000
00000000
00100000
,
00010000
01000000
00010000
01000000
00001000
00100000
00001000
00100000
00000100
00010000
00000100
00010000
00000010
00000100
00000001
00001000
,
00000100
00000000
00000000
00000000
00000000
00000000
00000000
00000000
00010000
00000000
00000000
00000000
00000000
00000000
00000000
00000000
00011000
00000000
00000000
00000000
01000000
00000000
00000000
00000000
01100000
00000000
00000000
00000000
00010000
00000000
10000000
01000000
,
10000000
00000000
11000000
00000000
00110000
00000000
00011000
00000010
,
00000101
00000000
00000011
00000000
00001100
00100000
00011000
01000000
,
10100000
00000000
01000000
00000000
00010000
00001000
00000000
00001000
00010000
00000000
01000000
00000000
00100000
00001000
00000000
00001000
,
00010000
00000000
00000010
00000000
00001000
00000100
00000000
00000100
00000001
00000000
00000100
00000000
00000110
00000000
00000001
00001000
,
00000001
00000010
00000101
00000000
00001010
00000000
00011000
00000110
,
00001100
00000000
01010000
00000000
00110000
00011000
00001010
00000000
,
00000110
00000000
00000001
00000000
00000100
00001000
00000000
00001000
00100000
00000000
00010000
00000000
10000000
02000000
00000000
03000000
,
11000000
00000000
00010000
00000000
00011000
00000000
00000000
00000000
00000101
00000000
00001000
00000000
00011000
00000000
00000000
01000000
,
00100000
00000000
00000000
00000000
10000000
01000000
00000000
00010000
00001000
00000001
00001000
00000000
00010000
00000000
00000000
00001000
,
00010000
10000000
00010000
00000000
00001000
00010000
00000000
00010000
00001000
00000001
00001000
00000000
00000000
00000200
00000010
00000300
,
00001001
00000000
00000000
00000000
00000001
00000100
00000000
00001000
00010000
10000000
00010000
00000000
00001000
00000000
00000000
00000010
,
00000001
00000100
00001000
00010000
00000000
01100000
00000000
10010000
00000000
00000000
10100000
00000000
01000000
10000000
00100000
01000000
,
00010000
00000000
00000000
00000000
00000100
00000000
00000010
00000000
00000000
00000001
00000000
00000000
00001000
00000000
00000000
00000000
00000000
00000000
00000000
00000000
00000000
00010000
00000000
00000000
00001000
00000000
00000000
00000001
00000000
00000000
00001000
00000000
00000000
00000000
00000000
00000000
00010000
00000000
00000000
00000000
00000000
00000000
00000000
00000000
00000000
00001000
00000000
00000000
,
00010000
10000000
00010000
00000000
00001000
00010000
00000000
00010000
00001000
00000001
00001000
00000000
00000000
00000020
00000100
00000030
,
00000011
00000000
00000010
00000000
00001010
00000000
00001000
00100000
10100000
10000000
00010000
00000000
00110000
00000000
00100000
00010000
,
10000000
01000000
00100000
00010000
00001000
00000000
00000100
00000000
00000010
00000000
00000001
00000000
00000000
00000000
00000110
00000000
00000000
00000000
00000100
00000000
00001000
00000000
00010000
00000000
00100000
00000000
00000000
00000000
01100000
00000000
00000000
00000000
;

//---------------dance-single - ----------------
#NOTES:
     dance-single:
     :
     Hard:
     14:
     0.616369,0.672676,0.359549,0.094618,0.544054,456.000000,418.000000,38.000000,10.000000,0.000000,0.000000,0.616369,0.672676,0.359549,0.094618,0.544054,456.000000,418.000000,38.000000,10.000000,0.000000,0.000000:
0000
0000
0000
0000
,
0000
0000
0000
0000
,
0000
0000
0000
0000
,
0000
0000
0000
0000
,
0000
0000
0000
0000
,
0010
0000
0000
0001
0100
0000
0010
0000
1000
0000
0000
0001
1000
0000
0100
0000
,
0010
0000
0000
0001
1000
0000
0100
0000
1000
0000
0000
0010
0100
0000
0001
0000
,
1000
0000
0000
0001
0010
0000
0001
0000
0100
0000
0000
0010
1000
0000
0100
0000
,
1100
0000
0000
0101
0000
0000
0011
0000
0000
1010
0000
0000
1000
0001
1000
0001
,
0020
0000
0000
0000
,
0000
0000
0000
0030
,
2002
0000
0000
3003
,
0220
0000
0000
0330
,
1000
0010
0000
0010
0001
0000
0001
0100
,
0000
0100
1000
0001
1000
0010
0100
0000
,
0001
0001
1000
1000
0010
0010
0100
0100
,
0001
0100
0001
0100
0001
0100
0001
0100
0001
0000
1000
0010
0100
0000
0001
0000
,
1000
0000
1010
0001
0101
1000
1100
0010
,
0011
0000
0100
0000
1000
0010
0000
1000
0001
0000
0100
0000
0110
0000
0010
0000
,
1001
0000
0011
1000
1010
0001
0101
0010
,
1100
0100
2000
3010
0002
0013
2000
3001
,
0100
0010
0100
0010
1000
0000
1000
0000
0100
0000
0100
0000
0010
0000
0010
0000
,
0001
0000
0001
0000
0100
0001
0000
1000
0100
0000
1000
0000
1001
0000
0001
0000
,
0110
0000
0010
0010
0100
0100
0001
0001
,
1000
0000
1000
0000
0010
0000
0100
0000
0001
0000
1000
0000
0001
0010
0100
1000
,
0010
0000
0000
0000
0010
1000
0000
1000
0100
0010
0001
0000
0100
0000
0010
0000
,
1000
0100
1000
0000
0001
0010
0000
0001
0100
0010
1000
0000
0100
0000
0010
0000
,
0001
0000
0000
0000
0001
0010
0000
0100
1000
0001
1000
0000
0010
0000
0100
0000
,
0001
0000
1000
0100
0000
1000
0000
0001
0100
0000
0010
0000
0100
0000
0010
1000
,
0000
0001
0100
0000
0010
0000
0000
0100
0001
1000
0010
0000
1000
0000
0000
0000
,
0010
0100
0001
0000
1000
0001
0000
1000
0100
1000
0001
0000
0100
0010
0000
0000
,
1000
0000
0001
0000
0010
0001
0000
0001
0100
0010
1000
0000
0100
0000
0010
0000
,
0001
0000
0000
0100
0000
0000
0001
0000
0000
0100
0000
0000
0001
0000
0000
0100
0000
0000
0001
0000
0000
0100
0000
0000
0001
0000
0000
0000
0000
0000
1000
0000
0000
0010
0000
0000
0100
0000
0000
0000
0001
0000
0000
0000
1000
0000
0000
0000
,
0100
0000
0000
0000
0000
0000
0000
0010
0000
0010
0000
0000
0000
0000
0000
0010
,
0000
0010
0000
0000
0000
0000
0000
0000
2000
0000
0000
3002
0000
0000
1003
0000
,
0100
0000
0000
0000
0000
0000
0000
0010
0000
0010
0000
0000
0000
0000
0000
0000
,
0000
0000
0101
0000
0000
1100
0000
0000
0011
0000
0000
1010
0000
0000
0110
0000
,
0010
0010
0100
0100
0001
0001
1000
1000
,
0001
0001
0100
0100
0010
0010
1000
1000
,
0001
0100
0001
0000
1000
0100
1000
0000
0001
0010
0001
0000
1000
0010
1000
0000
,
0100
0000
0000
0000
0100
0000
0000
0000
0100
0000
0000
0000
1001
0000
0001
1000
,
0100
0000
1100
0001
0011
1000
1010
0100
,
0101
0000
0010
0000
1001
0000
0001
0000
0110
0000
1000
0000
0010
0100
0010
0100
,
0001
0000
1000
0000
0100
1000
0000
1000
0010
0000
0100
0000
0001
0000
0000
0000
,
0010
0000
0001
0000
1000
0010
0000
0010
0100
0000
0001
0000
1000
0000
0001
0100
,
0001
0000
1010
0100
0011
1000
1100
0010
,
0101
0000
0001
0000
0110
0000
0100
0000
1001
0000
0010
0000
1000
0100
0010
0000
,
0001
0000
1000
0000
0010
1000
0000
0001
0010
0000
0100
0000
1000
0000
0000
0000
,
0010
0000
1000
0000
0100
0010
0000
0010
0001
0000
0100
0000
0001
1000
0001
1000
,
0010
0000
0000
0000
0010
0100
0000
0001
1000
0100
1000
0000
0001
0000
0000
0000
,
0010
0001
0100
0000
0001
1000
0000
1000
0010
1000
0001
0000
0100
0001
0000
0000
,
1000
0000
0010
0000
0100
0001
0000
0001
0010
0100
1000
0000
0001
0000
0100
0000
,
0001
0000
1000
0010
1000
0010
0000
0100
0001
0000
1000
0000
0100
0010
0001
0100
,
0010
1000
0000
0000
0010
0100
0000
0001
1000
0100
1000
0000
0001
0000
0000
0000
,
0010
0001
1000
0000
0001
1000
0000
0100
0010
0100
0010
0000
0001
1000
0000
0000
,
0010
0000
0100
0000
0001
1000
0000
0001
0010
0000
0001
0000
1000
0000
0100
0000
,
1000
0010
1000
0010
1000
0010
1000
0010
0000
0100
0000
0000
0110
0000
1001
0000
;

//---------------dance-single - ----------------
#NOTES:
     dance-single:
     :
     Medium:
     10:
     0.437947,0.484326,0.227083,0.179774,0.014193,324.000000,300.000000,24.000000,19.000000,0.000000,0.000000,0.437947,0.484326,0.227083,0.179774,0.014193,324.000000,300.000000,24.000000,19.000000,0.000000,0.000000:
0000
0000
0000
0000
,
0000
0000
0000
0000
,
0000
0000
0000
0000
,
0000
0000
0000
0000
,
0000
0000
0000
0000
,
0010
0000
0001
1000
0000
0010
0000
0100
,
0001
0000
0010
0100
0000
1000
0000
0001
,
0100
0000
0010
0100
0000
0001
0000
1000
,
0001
0000
0000
0010
0000
0000
0100
0000
0000
1000
0000
0000
0010
0000
0100
0000
,
0020
0000
0000
0000
,
0000
0000
0000
0030
,
2002
0000
0000
3003
,
0220
0000
0000
0330
,
2000
0000
0000
3002
0000
0000
0203
0000
,
0000
0310
0000
1000
0000
0001
0100
0000
,
0001
0010
0001
0000
1000
0010
1000
0000
,
1000
0100
1000
0100
1000
0000
0001
1000
,
0010
0000
0010
1000
0001
0010
0100
1000
,
0010
0100
0001
1000
0100
0010
0001
0100
,
0001
0000
0001
1000
0010
1000
0100
0010
,
0001
0011
1100
0101
,
1010
0000
1000
0001
0010
0100
0010
0001
,
0100
0010
1000
0100
0010
0001
1000
0010
,
0100
0000
0001
1000
0001
0010
0100
1000
,
0010
1000
0001
0010
0001
0100
0010
1000
,
1001
0000
0100
0010
1000
0100
0010
0001
,
0100
0010
1000
0000
0001
0010
0100
0000
,
0110
0000
0010
0001
1000
0001
0100
0010
,
1000
0100
0010
0001
0100
0010
1000
0000
,
1100
0000
0101
0000
0001
1000
0010
0100
,
0010
1000
0100
0010
0001
0100
0001
0000
,
0011
0000
0010
0001
0100
0010
1000
0100
,
1000
0010
1000
0000
0001
0100
0010
1000
,
2010
0010
0000
0010
,
0000
0100
0000
0100
,
0000
0001
0000
3001
,
1000
0000
0010
0000
1000
0000
0001
0000
0010
0000
0000
0100
0000
0000
1000
0000
,
0001
0010
0001
0010
0001
0010
0001
0010
,
0100
1000
0100
1000
0100
1000
0100
1000
,
0010
0100
0010
0100
0001
1000
0001
1000
,
1100
0011
1010
0101
,
1001
0002
0023
0230
,
2300
0000
3020
0000
1030
0100
0010
0001
,
0100
0010
1000
0000
1000
0001
0010
0000
,
0010
0001
0100
0000
0100
0001
1000
0000
,
0110
0020
2030
3002
,
0023
0000
0230
0000
1300
0001
0100
0010
,
1000
0001
1000
0010
1000
0001
0100
0000
,
0010
1000
0010
0100
0010
1000
0001
0000
,
0110
0000
1010
0000
1000
0001
0010
0000
,
0001
1000
0010
0100
0001
0010
0100
0000
,
1100
0000
1000
0001
0010
0001
0100
0010
,
0100
0001
0010
0100
1000
0001
1000
0010
,
0101
0000
0011
0010
0100
0010
0001
1000
,
0010
1000
0001
1000
0100
0010
0100
1000
,
0001
1000
0010
0100
0001
0010
0100
1000
,
0010
0100
0010
0100
0001
1000
0010
1001
;

//---------------dance-single - ----------------
#NOTES:
     dance-single:
     :
     Easy:
     7:
     0.287909,0.349791,0.227083,0.085156,0.000000,213.000000,189.000000,24.000000,9.000000,0.000000,0.000000,0.287909,0.349791,0.227083,0.085156,0.000000,213.000000,189.000000,24.000000,9.000000,0.000000,0.000000:
0000
0000
0000
0000
,
0000
0000
0000
0000
,
0000
0000
0000
0000
,
0000
0000
0000
0000
,
0000
0000
0000
0000
,
0010
1000
0010
1000
,
0001
0010
0001
0010
,
0100
0010
0100
0010
,
0001
0101
1000
1100
,
0020
0000
0000
0000
,
0000
0000
0000
0030
,
2002
0000
0000
3003
,
0220
0000
0000
0330
,
2000
0000
0000
3002
0000
0000
0203
0000
,
0000
0301
0000
1000
0000
0000
0010
0000
,
1000
1000
0001
0001
,
0100
0010
0100
0010
,
0110
1000
0001
0100
,
0001
0010
0100
1000
,
1001
0001
0010
0100
,
1000
0010
0010
0010
,
0101
0010
0100
1000
,
0010
1000
0001
0010
,
1100
1000
0001
0010
,
0001
1000
0001
1000
,
1001
0000
0010
0000
1000
0001
0000
0000
,
1000
0001
0000
0000
1000
0001
0000
0000
,
0101
0000
1000
0000
0010
0100
0000
0000
,
0001
1000
0001
0000
0010
0000
0100
0000
,
1100
0000
0010
0000
0100
0001
0000
0000
,
0100
0001
0000
0000
0100
0001
0000
0000
,
0110
0010
1000
0100
,
1000
0001
0200
0300
,
0010
0000
0101
0000
,
1100
0000
1000
0001
,
0010
0000
0101
0000
,
1100
0000
0001
1000
,
0010
1000
0001
0010
,
0100
1000
0010
0100
,
0001
0010
0001
1000
,
0100
0100
0100
0110
,
1001
0001
0010
0001
,
1000
0010
0100
0001
,
1000
0100
0000
0000
0001
0100
0000
0000
,
1000
0010
0000
0000
0001
0010
0000
0000
,
1001
1000
0010
1000
,
0100
0010
0001
1000
,
0001
0100
0000
0000
1000
0100
0000
0000
,
0001
0010
0000
0000
1000
0010
0000
0000
,
0110
0000
0100
0000
0001
1000
0000
0000
,
0001
1000
0000
0000
0001
1000
0000
0000
,
1100
0000
1000
0000
0010
0100
0000
0000
,
0001
0010
0001
0000
1000
0000
0101
0000
,
1001
0000
0001
0000
1000
0010
0000
0000
,
1000
0010
0000
0000
1000
0010
0000
0000
,
0110
0010
1000
0100
,
1000
0000
0001
0000
0100
0000
0001
1000
;

//---------------dance-single - ----------------
#NOTES:
     dance-single:
     :
     Beginner:
     3:
     0.136520,0.214783,0.132465,0.009462,0.000000,101.000000,87.000000,14.000000,1.000000,0.000000,0.000000,0.136520,0.214783,0.132465,0.009462,0.000000,101.000000,87.000000,14.000000,1.000000,0.000000,0.000000:
0000
0000
0000
0000
,
0000
0000
0000
0000
,
0000
0000
0000
0000
,
0000
0000
0000
0000
,
0000
0000
0000
0000
,
0010
0000
0000
0000
,
0100
0000
0000
0000
,
0001
0000
0000
0000
,
1000
1000
1000
1000
,
2000
0000
0000
0000
,
3000
0000
0000
0000
,
1001
0000
0000
0000
,
0110
0000
0000
0000
,
1000
0000
0000
0000
,
0100
0000
0000
0000
,
1000
0000
0001
0000
,
0100
0000
0000
0000
,
1001
0000
0001
0000
,
0100
0000
0000
0000
,
0110
0000
0010
0000
,
1000
1000
1000
1000
,
1000
0000
0001
0000
,
0010
0000
0000
0000
,
0100
0000
1000
0000
,
0001
0000
1000
0000
,
1001
0000
0010
0000
,
0010
0000
0010
0000
,
0110
0000
0001
0000
,
1000
0000
0000
0000
,
1001
0000
0100
0000
,
0100
0000
0100
0000
,
0110
0000
1000
0000
,
0001
0000
0000
0000
,
0100
0000
0000
0000
,
0001
0000
0000
0000
,
0010
0000
0000
0000
,
1000
0000
0000
0000
,
0100
0000
0100
0000
,
1000
0000
1000
0000
,
0001
0000
0001
0000
,
0100
0100
0100
0000
,
0110
0000
0010
0000
,
1000
1000
1000
0000
,
0001
0000
0000
0000
,
0001
0000
0000
0000
,
1001
0000
1000
0000
,
0100
0100
0100
0000
,
0010
0000
0000
0000
,
0010
0000
0000
0000
,
0110
0000
0001
0000
,
0001
0000
0001
0000
,
1001
0000
1000
0000
,
0010
0000
0000
0000
,
0110
0000
1000
0000
,
1000
0000
1000
0000
,
1001
0000
0001
0000
,
0100
0000
0000
0001
;

//---------------dance-single - ----------------
#NOTES:
     dance-single:
     :
     Challenge:
     17:
     0.833991,0.968653,0.662327,0.056771,0.979298,617.000000,547.000000,70.000000,6.000000,0.000000,0.000000,0.833991,0.968653,0.662327,0.056771,0.979298,617.000000,547.000000,70.000000,6.000000,0.000000,0.000000:
// measure 0
0000
0000
0000
0000
,  // measure 1
0000
0000
0000
0000
,  // measure 2
0000
0000
0000
0000
,  // measure 3
0000
0000
0000
0000
,  // measure 4
0000
0000
0000
0000
,  // measure 5
0010
0000
0001
0000
0100
0010
0100
0010
1000
0000
0001
0000
0100
0000
0000
0000
,  // measure 6
0001
0000
0010
0000
0100
1000
0100
1000
0010
0000
0100
0000
0001
0000
0000
0000
,  // measure 7
1000
0000
0001
0000
1000
0010
1000
0010
0100
0000
0001
0000
0010
0000
0000
0000
,  // measure 8
0011
0000
0000
0101
0000
0000
1100
0000
0000
1010
0000
0000
1000
0010
0100
0002
,  // measure 9
0020
0000
0000
0000
,  // measure 10
0000
0000
0000
0000
0000
0000
0033
1000
,  // measure 11
2002
0000
0000
3003
,  // measure 12
0220
0000
0000
0330
,  // measure 13
1010
1000
0100
1100
0100
0010
0011
0001
,  // measure 14
1000
1010
0010
0110
0100
0001
1001
1000
,  // measure 15
1010
1010
0101
0101
0011
0011
1100
1100
,  // measure 16
1000
0001
1000
0001
1000
0001
1000
0001
1000
0001
1000
0001
0100
0000
0000
0001
0010
0100
1000
0000
0000
0010
0000
0000
,  // measure 17
0110
0000
0000
0000
0100
0001
0100
0001
1000
0100
1000
0100
0010
0001
0010
0001
,  // measure 18
1000
0010
0100
0000
0001
1000
0100
1000
0001
0000
0011
0000
1100
1000
0001
0000
,  // measure 19
1001
0000
0000
0000
1000
0010
1000
0010
0100
0001
0100
0001
1000
0100
1000
0100
,  // measure 20
0010
0000
0001
0000
0100
0000
0000
0000
0001
0010
0000
0000
0000
0000
0000
0000
0001
0100
0000
0000
0000
0000
0000
0000
0001
1000
0000
0000
0010
0000
0000
0000
,  // measure 21
1000
0010
0100
0010
1000
0100
1000
0100
0010
0001
0010
0001
0100
0001
0100
0001
,  // measure 22
0010
0100
1000
0000
0010
1000
0001
1000
0010
0000
0101
0000
1010
0010
0100
0000
,  // measure 23
1001
0000
0000
0000
0001
0010
0001
0010
0100
1000
0100
1000
0010
0100
0010
0100
,  // measure 24
0001
1000
0100
0000
1100
0000
0101
0000
1000
0010
0100
0001
0010
0100
1000
0001
,  // measure 25
0011
0000
0000
0000
0001
0100
0010
1000
0100
0010
0001
0000
0100
0010
1000
0000
,  // measure 26
0001
1000
0001
0010
0100
1000
0000
1000
0010
0100
0001
1000
0100
0010
0001
0000
,  // measure 27
0101
0000
0000
0000
0100
0010
0100
0010
1000
0100
1000
0100
0010
0001
1000
0000
,  // measure 28
0001
0000
0100
0010
1000
0001
0010
0001
1000
0000
1100
0000
0010
0100
0010
0001
,  // measure 29
0100
0000
0000
0000
0001
1000
0001
0010
0100
1000
0010
0000
0100
0001
1000
0000
,  // measure 30
0001
0010
0001
0100
0010
1000
0000
0100
1000
0001
1000
0010
0100
0001
0010
0000
,  // measure 31
1001
0000
0000
0000
1000
0001
0010
0001
0100
0010
1000
0000
0001
1000
0100
0000
,  // measure 32
1000
0000
0010
0000
1000
0000
0010
0000
1000
0000
0010
0000
1000
0000
0010
0000
1000
0000
0010
0000
1000
0000
0010
0000
0100
0000
0000
0001
0000
0000
1000
0000
0000
0001
0000
0000
0100
0000
0000
0000
0100
0000
0000
0000
0100
0000
0000
0000
,  // measure 33
0110
0000
0000
0000
0001
1000
0000
0001
1000
0000
0000
1010
0000
0000
0101
0000
,  // measure 34
0000
0000
0010
0000
1000
0001
0000
1000
0001
0000
0000
0011
0000
0000
1010
0000
,  // measure 35
0100
0000
0000
0000
1000
0001
0000
1000
0001
0000
0000
0011
0000
0000
1100
0000
,  // measure 36
0000
0000
0010
0000
0001
1000
0000
0001
1000
0000
0000
1100
0000
0000
0101
0000
,  // measure 37
1001
0001
0011
0010
0110
0100
1100
1000
,  // measure 38
1001
1000
1010
0010
0110
0100
0101
0001
,  // measure 39
1000
0010
0100
0001
0100
0010
1000
0100
0010
0100
1000
0001
1000
0001
0010
0001
,  // measure 40
0100
0000
0000
0000
0000
0000
0000
0000
0100
0000
0000
0000
0000
0000
0000
0000
0100
0000
0000
0000
0010
0000
0000
0000
1000
0000
0001
0000
0100
0000
0001
1000
,  // measure 41
0001
0000
0000
0000
0010
0001
0100
0000
0010
1000
0100
0000
1000
0001
0100
0000
,  // measure 42
0001
1000
0100
0010
0001
0100
0010
1000
0001
0010
0001
0000
1100
0000
1001
0000
,  // measure 43
0010
0000
0101
0000
0001
1000
0000
0001
0100
0000
1010
0000
0100
0000
0000
0000
,  // measure 44
1000
0000
0011
0000
0010
0001
0000
0010
0100
0000
1001
0000
0100
0001
1000
0001
,  // measure 45
0100
0000
0000
0000
0010
1000
0001
0000
0010
0100
1000
0000
0010
0100
0001
0000
,  // measure 46
1000
0001
1000
0001
0010
0100
1000
0010
0100
0001
1000
0000
1010
0000
0110
0000
,  // measure 47
0001
0000
1100
0000
0100
0010
0000
0001
1000
0000
0011
0000
1000
0000
0000
0000
,  // measure 48
0010
0000
1001
0000
0001
1000
0000
0010
0100
0000
1010
0000
0100
0001
1000
0001
,  // measure 49
0100
0010
0100
0000
0001
0010
0001
0100
0010
1000
0100
0000
1000
0001
1000
0000
,  // measure 50
0001
0010
0001
0100
0001
1000
0000
1000
0010
1000
0100
0010
0100
1000
0001
0000
,  // measure 51
0010
0001
0010
0000
0001
0100
0010
1000
0100
1000
0001
0000
0010
0100
1000
0000
,  // measure 52
0010
1000
0010
0100
0001
0010
0000
0100
1000
0001
1000
0010
1000
0100
0010
0001
,  // measure 53
0100
0001
1000
0000
0010
1000
0001
0010
0100
0010
0100
0000
1000
0001
0010
0000
,  // measure 54
0001
0100
0010
0100
0001
1000
0000
1000
0001
1000
0010
0100
0010
1000
0100
0000
,  // measure 55
1100
1100
1010
1010
0101
0101
0011
0011
,  // measure 56
0001
0000
0100
0000
0001
0000
0100
0000
0001
0000
0100
0000
0001
0000
0000
0010
0000
0000
0100
0000
0000
1000
0000
0000
0010
0000
0000
1000
0000
0000
0001
0000
0000
1000
0000
0000
0010
0000
0000
0000
0000
0000
1000
0000
0000
0000
0000
0000
;
