#VERSION:0.83;
#TITLE:BRAiNTHROB;
#SUBTITLE:;
#ARTIST:Freezepond vs. DJ W@LRU$;
#TITLETRANSLIT:;
#SUBTITLETRANSLIT:;
#ARTISTTRANSLIT:;
#GENRE:;
#ORIGIN:;
#CREDIT:;
#BANNER:BRAiNTHROB-bn.png;
#BACKGROUND:BRAiNTHROB-bg.png;
#PREVIEWVID:;
#JACKET:BRAiNTHROB-jacket.png;
#CDIMAGE:;
#DISCIMAGE:BRAiNTHROB.png;
#LYRICSPATH:;
#CDTITLE:;
#MUSIC:BRAiNTHROB.ogg;
#OFFSET:1.500000;
#SAMPLESTART:8.022000;
#SAMPLELENGTH:20.000000;
#SELECTABLE:YES;
#DISPLAYBPM:1.000000:999.000000;
#BPMS:0.000=172.000,
16.000=121.800,
91.500=197.000,
119.000=121.800,
134.500=277.000,
176.000=158.000,
206.000=167.000,
207.000=300.000,
208.000=175.000,
209.000=224.000,
210.000=108.000,
211.000=73.000,
212.000=258.000,
213.000=65.000,
214.000=135.000,
215.000=420.000,
215.500=164.000,
216.000=321.000,
217.000=85.000,
218.000=162.000,
219.000=199.000,
220.000=355.000,
221.000=211.000,
222.000=279.000,
223.000=165.000,
224.000=91.000,
225.000=500.000,
225.500=181.000,
226.000=138.000,
227.000=112.000,
228.000=225.000,
229.000=445.000,
229.500=180.000,
230.000=3.000,
230.021=248.000,
230.083=114.000,
230.125=179.000,
230.167=24.000,
230.250=100.000,
230.333=180.000,
230.500=97.000,
230.667=160.000,
230.833=225.000,
231.000=312.000,
232.000=179.000,
233.000=88.000,
234.000=274.000,
234.500=167.000,
235.000=137.000,
236.000=150.000,
237.000=69.000,
238.000=666.000,
238.333=152.000,
238.667=118.000,
239.000=999.000,
239.083=187.000,
239.167=128.000,
239.250=314.000,
239.333=160.000,
239.417=222.000,
239.500=45.000,
239.583=172.000,
239.667=94.000,
239.750=116.000,
239.833=133.000,
239.917=440.000,
240.000=1.000,
240.021=173.000,
240.042=360.000,
240.063=444.000,
240.083=390.000,
240.104=900.000,
240.125=128.000,
240.146=40.000,
240.167=333.000,
240.188=112.000,
240.208=96.000,
240.229=187.000,
240.250=45.000,
240.271=342.000,
240.292=123.000,
240.313=650.000,
240.333=171.000,
240.354=190.000,
240.375=720.000,
240.396=418.000,
240.417=212.000,
240.438=167.000,
240.458=34.000,
240.479=515.000,
240.500=149.000,
240.521=173.000,
240.542=200.000,
240.563=4.000,
240.583=987.000,
240.604=53.000,
240.625=178.000,
240.646=121.000,
240.667=112.000,
240.688=93.000,
240.708=174.000,
240.729=652.000,
240.750=222.000,
240.771=9.000,
240.792=212.000,
240.813=299.000,
240.833=3.142,
240.854=516.000,
240.875=61.000,
240.896=166.000,
240.917=141.000,
240.938=117.000,
240.958=93.000,
240.979=178.000,
241.000=135.000,
242.000=111.000,
243.000=195.000,
244.000=178.000,
245.000=333.000,
245.063=186.000,
245.125=195.000,
245.188=5.000,
245.250=164.000,
245.313=379.000,
245.375=998.000,
245.438=640.000,
245.500=10.000,
245.563=359.000,
245.625=117.000,
245.688=91.000,
245.750=184.000,
245.813=911.000,
245.875=411.000,
245.938=63.000,
246.000=573.000,
247.000=144.000,
248.000=163.000,
249.000=143.000,
250.000=99.000,
251.000=128.000,
252.000=166.000,
253.000=312.000,
254.000=44.000,
254.250=847.000,
254.500=224.000,
254.750=116.000,
255.000=198.000,
256.000=157.000,
257.000=77.000,
258.000=138.000,
259.000=560.000,
259.500=144.000,
260.000=13.000,
260.167=125.000,
260.375=170.000,
260.750=111.000,
261.000=250.000,
262.000=142.000,
263.000=118.000,
264.000=95.000,
265.000=888.000,
265.083=164.000,
265.625=131.000,
266.000=154.000,
267.000=543.210,
267.250=94.000,
267.500=123.450,
267.750=176.000,
268.000=121.800,
284.500=227.000,
288.000=420.690,
296.333=100.000,
298.000=85.000,
298.500=69.000,
298.750=42.000;
#STOPS:;
#DELAYS:;
#WARPS:;
#TIMESIGNATURES:0.000=4=4;
#TICKCOUNTS:0.000=4;
#COMBOS:0.000=1;
#SPEEDS:0.000=1.000=0.000=0;
#SCROLLS:0.000=1.000;
#FAKES:;
#LABELS:0.000=Song Start;
#BGCHANGES:;
#KEYSOUNDS:;
#ATTACKS:
;

//---------------dance-single - ----------------
#NOTEDATA:;
#CHARTNAME:;
#STEPSTYPE:dance-single;
#DESCRIPTION:;
#CHARTSTYLE:;
#DIFFICULTY:Challenge;
#METER:20;
#RADARVALUES:1.120663,1.556228,0.349761,0.108259,1.986143,942.000000,900.000000,42.000000,13.000000,0.000000,0.000000,0.000000,0.000000,0.000000,1.120663,1.556228,0.349761,0.108259,1.986143,942.000000,900.000000,42.000000,13.000000,0.000000,0.000000,0.000000,0.000000,0.000000;
#CREDIT:;
#DISPLAYBPM:1.000000:500.000000;
#NOTES:
0000
0000
0000
0000
,
2002
0000
0000
0000
,
0000
0003
0200
0000
,
0000
0000
0000
0300
,
3010
1100
0010
0101
,
0010
1100
0010
0101
,
1000
0100
1000
0100
0000
0000
1000
0001
1000
0001
0000
0000
1000
0100
1000
0100
0000
0000
1000
0001
1000
0001
0000
0000
,
1000
0100
1000
0100
0000
0000
1000
0001
1000
0001
0000
0000
0011
0000
0000
0011
0000
0000
1100
0000
0000
1100
0000
0000
,
0001
0010
0001
0010
0000
0000
0001
1000
0001
1000
0000
0000
0001
0010
0001
0010
0000
0000
0001
1000
0001
1000
0000
0000
,
0001
0010
0001
0010
0000
0000
0001
1000
0001
1000
0000
0000
1010
0000
0000
0110
0000
0000
0101
0000
0000
1000
0001
0010
,
0001
0010
0000
0000
0001
0100
0001
0100
0000
0000
0001
0010
0001
0010
0000
0000
0001
0100
0001
0100
0000
0000
0001
0010
,
0001
0010
0000
0000
0001
0100
0001
0100
0000
0000
0101
0000
0000
0101
0000
0000
1100
0000
0000
1100
0000
0000
1000
0010
,
1000
0010
0000
0000
1000
0100
1000
0100
0000
0000
1000
0010
1000
0010
0000
0000
1000
0100
1000
0100
0000
0000
1000
0010
,
1000
0010
0000
0000
1000
0100
1000
0100
0000
0000
1001
0000
0000
0011
0000
0000
1001
0000
0000
1100
0000
0000
2002
0000
,
0000
0000
0000
0000
0000
0000
0000
0000
0000
0000
0000
0000
0000
0000
0000
0000
0000
0000
3000
0000
0000
0000
1003
0001
,
0100
0010
0000
0000
1000
0100
0010
0001
0000
0000
1000
0010
0100
0001
0000
0000
1000
0001
0010
0100
0000
0000
1000
0010
,
0001
0000
0100
0000
0000
0000
0000
0000
1000
0000
0100
0000
0001
0000
0010
0000
0000
0000
0000
0000
1000
0000
0000
1000
0000
0000
0100
0000
0000
0100
0000
0000
0010
0000
0000
0010
0000
0000
0001
0000
0000
0001
0000
0000
0010
0000
0001
0000
,
1000
0100
0000
0000
0010
0100
1000
0001
0000
0000
0010
0100
0001
1000
0000
0000
0010
1000
0001
0100
0000
0000
0010
1000
,
0100
0001
0000
0000
0010
0001
0100
1000
0000
0000
1100
0000
0000
0011
0000
0000
1010
0000
0000
0000
0001
1000
0010
0100
,
0000
0000
0001
0010
0100
1000
0000
0000
0001
0100
0010
1000
0000
0000
0001
0100
1000
0010
0000
0000
0001
0010
1000
0100
,
0000
0000
0000
0000
0001
0000
1000
0000
0100
0000
0010
0000
0000
0000
0000
0000
0001
0000
0000
0001
0000
0000
0010
0000
0000
0010
0000
0000
0100
0000
0000
0100
0000
0000
1000
0000
0000
1000
0000
0000
0100
0000
1000
0000
0001
0000
0010
0000
,
0000
0000
0100
0010
0001
1000
0000
0000
0100
1000
0010
0001
0000
0000
0100
0001
0010
1000
0000
0000
0100
0010
1000
0001
,
0000
0000
0000
0000
0100
0000
0001
0000
1000
0000
0010
0000
0000
0000
0000
0000
1100
0000
0000
0001
0000
0000
0011
0000
0000
1000
0000
0000
1010
0000
0000
0001
0000
0000
0101
0000
0000
0000
0000
0000
0000
0000
0010
0000
0000
0100
0000
0000
,
0010
0100
0010
0100
0010
0100
0010
0100
0010
0100
0010
0100
0010
0100
0010
0100
,
0010
0100
0010
0100
0010
0100
0010
0100
0010
0100
0010
0100
0010
0100
0010
0100
,
0010
0100
0010
0100
0010
0100
0010
0100
0010
0100
0010
0100
0010
0100
0010
0100
,
0010
0100
0010
0100
0010
0100
0010
0100
0010
0100
0010
0100
0010
0100
0010
0100
,
0220
0000
0000
0000
,
0000
0000
0300
2000
,
0000
0000
0000
0000
0000
0000
0000
0000
0000
0000
0000
0000
0030
0000
0000
0000
0000
0000
3001
0001
0001
0001
0000
0000
,
1000
1000
1000
1000
0000
0000
0001
0001
0001
0001
0000
0000
1000
1000
1000
1000
0000
0000
0001
0001
0001
0001
0000
0000
,
1000
1000
1000
1000
0000
0000
1000
0010
0001
1000
0100
0001
1000
0010
0001
1000
0100
0001
1000
1000
1000
1000
0000
0000
,
0001
0001
0001
0001
0000
0000
1000
1000
1000
1000
0000
0000
0001
0001
0001
0001
0000
0000
1000
1000
1000
1000
0000
0000
,
0001
0001
0001
0001
0000
0000
1000
0100
0010
0001
0010
0100
1000
0100
0010
0002
0000
0000
0000
0000
0000
0000
0000
0000
,
1003
0001
0010
1000
0100
0010
0001
1000
0010
0001
0100
0010
1000
0100
0001
0100
,
1000
0010
0100
0001
0010
1000
0001
0100
0001
0100
1000
0010
0100
0001
0010
1000
,
0100
1000
0001
1000
0010
0001
0100
0010
1000
0010
0001
0100
1000
0001
0010
0100
,
0001
1000
0100
0010
1000
0001
0010
0100
1000
0010
0100
0001
0010
0100
0001
1000
,
0010
0010
0100
0100
1000
0001
1000
0100
0010
1000
0001
1000
0001
0010
0100
0001
,
0010
0001
1000
0010
0100
0010
1000
0100
0010
1000
0001
0100
0001
1000
0100
0001
,
0100
1000
0001
0010
1000
0001
0010
0100
0001
0010
0100
1000
0010
0100
1000
0001
,
0010
0001
1000
0100
0001
1000
0100
0001
0010
0100
0001
0010
1000
0010
0100
1000
,
0001
0010
1000
0100
0010
0001
0100
1000
0010
1000
0001
0100
1000
0010
0100
0001
,
1000
0010
0100
0100
0010
1000
0001
0100
0010
0001
0100
0001
1000
0010
0001
1000
,
2002
0000
0000
0000
,
3000
0000
0000
0000
1000
0000
0000
1003
0000
0000
0001
0000
0000
0001
0000
0000
0010
0000
0001
0100
0010
1000
0000
0001
,
1000
0000
0000
0000
0000
0000
0000
0000
0000
0000
0000
0000
0000
0000
0000
0000
0100
0000
0000
0000
0000
0000
0000
0000
0000
0000
0000
0000
0000
0000
0000
0000
0010
0000
0000
0000
0000
0000
0000
0000
0000
0000
0000
0000
0000
0000
0000
0000
0100
0000
0000
0000
0000
0000
0000
0000
0000
0000
0000
0000
0000
0000
0000
0000
0010
0000
0000
0000
0000
0000
0000
0000
0000
0000
0000
0000
0000
0000
0000
0000
0001
0000
0000
0000
0000
0000
0000
0000
0000
0000
0000
0000
0000
0000
0000
0000
0100
0000
0000
0000
0000
0000
0000
0000
0000
0000
0000
0000
0000
0000
0000
0000
0010
0000
0000
0000
0000
0000
0000
0000
0000
0000
0000
0000
0000
0000
0000
0000
0000
0000
0000
0000
0000
0000
0000
0000
0100
0000
0000
0000
0000
0000
0000
0000
0010
0000
0000
0000
0000
0000
0000
0000
0000
0000
1000
0000
0000
0000
0000
0000
0000
0000
0000
0000
0000
0000
0000
0001
0000
0000
0000
0010
0000
0000
0000
0000
0000
0000
0000
0000
0000
0100
0000
0000
0000
0000
0000
0000
0000
0000
0000
0000
,
0000
0000
0000
0000
0000
0000
0100
0000
0000
0000
0000
0000
0000
0000
0000
0000
0000
0000
0000
0000
0000
0000
0000
0000
0000
0000
0000
0000
0000
0000
0010
0000
0000
0000
0000
0000
0000
0000
0000
0000
0000
0000
0000
0000
0000
0000
0000
0000
0001
0000
0000
0000
0000
0000
0000
0000
0000
0000
0000
0000
1000
0000
0000
0000
0000
0000
0000
0000
0000
0000
0000
0000
0010
0000
0000
0000
0000
0000
0000
0000
0000
0000
0000
0000
0000
0000
0000
0000
0000
0000
0000
0000
0000
0000
0000
0000
0000
0000
0000
0000
0000
0000
0001
0000
0000
0000
0000
0000
0000
0000
0000
0000
0000
0000
0100
0000
0000
0000
0000
0000
0000
0000
0000
0000
0000
0000
0000
0000
0000
0000
0000
0000
0010
0000
0000
0000
0000
0000
0000
0000
0000
0000
0000
0000
0000
0000
0000
0000
1000
0000
0000
0000
0000
0000
0000
0000
0000
0000
0000
0000
0000
0000
0000
0000
0000
0000
0000
0000
0000
0000
0000
0000
0100
0000
0000
0000
0000
0000
0000
0000
0000
0000
0000
0000
0000
0000
0000
0000
0010
0000
0000
0000
,
0100
0000
0000
0000
0000
0001
0000
0000
0000
0000
0000
0000
0000
0010
0000
0000
1000
0000
0000
0001
0000
0000
0000
0000
0000
0000
0000
0000
0000
0100
0000
0000
0010
0000
0000
0000
1000
0000
0000
0000
0001
0000
0000
0000
0101
0000
0000
0000
,
0000
0000
0000
1100
0000
0000
0000
0110
0000
0000
0000
1001
0000
0000
0000
0000
0010
0000
0000
1000
0000
0100
0000
0001
0000
0000
0010
0001
0100
0010
0100
0010
1000
0100
0001
0000
0000
0000
0100
0000
0001
0000
0000
1000
0000
0010
0000
0000
,
0010
0000
0000
0000
0000
0000
0100
0000
0000
0001
0000
0000
0000
0010
0000
0000
0000
1001
0000
0000
0000
0000
0101
0000
0000
0000
0000
0011
0000
0000
1010
0000
0000
0000
0000
0000
0110
0000
0000
0000
1010
0000
0000
0000
0001
0000
1000
0000
,
0000
0000
0000
0000
0000
0000
0000
0000
0000
0000
0000
0000
0000
0000
0000
0000
0001
0000
0000
0000
0000
0000
0000
0000
0000
0000
0000
0000
0000
0000
0000
0000
0000
0000
0000
0000
0010
0000
0000
0000
0000
0000
0000
0000
0100
0000
0000
0000
0000
0000
0000
0000
0000
0000
0000
0000
1000
0000
0000
0000
0000
0000
0000
0000
0000
0000
0000
0000
0000
0000
0000
0000
0001
0000
0000
1000
0000
0000
0001
0000
0000
1000
0000
0000
0001
0000
0000
1000
0000
0000
0001
0000
0000
1000
0000
0000
0001
0000
0000
0000
0000
0000
0000
0000
0000
0000
0000
0000
0000
0000
0000
0000
0000
0000
0000
0000
0000
0000
0000
0000
0010
0000
0000
0000
0000
0000
0000
0000
0000
0000
0000
0000
0000
0000
0000
0000
0000
0000
0000
0000
0000
0000
0000
0000
0100
0000
0000
0000
0000
0000
0000
0000
0000
0000
0000
0000
0000
0000
0000
0000
0000
0000
0000
0000
0000
0000
0000
0000
1000
0000
0000
0000
0000
0000
0000
0000
0000
0000
0000
0000
0000
0000
0000
0000
0000
0000
0000
0000
0000
0000
0000
0000
,
0001
0010
0100
1000
0001
0010
0100
1000
,
0001
0010
0100
1000
0001
0010
0100
1000
,
0001
0010
0100
1000
0001
0010
0100
1000
,
0001
0010
0100
1000
0001
0010
0100
1000
,
0001
0010
0100
1000
0001
0010
0100
1000
,
0001
0010
0100
1000
0001
0010
0100
1000
,
0001
0010
0100
1000
0001
0010
0100
1000
,
0001
0010
0100
1000
0001
0010
0100
1000
,
0001
0010
0100
1000
0001
0010
0100
1000
,
0001
0010
0100
1000
0001
0010
0100
1000
,
0001
0010
0100
1000
0001
0010
0100
1000
,
0001
0010
0100
1000
0001
0010
0100
1000
,
0001
0010
0100
1000
0001
0010
0100
1000
,
0001
0010
0100
1000
0001
0010
0100
1000
,
0001
0010
0100
1000
0001
0010
0100
1000
,
0000
0000
0000
0001
0010
0001
0010
0001
0010
0100
1000
0100
1000
0100
1000
0010
0100
0010
0100
0010
0100
0001
1000
0001
,
1000
0001
1000
0001
0100
0001
0100
0001
0100
0010
1000
0010
1000
0010
1000
0001
0001
0001
0010
0010
0010
0100
0100
0100
,
1000
1000
1000
0100
1000
0100
1000
0100
1000
0100
0010
0100
0010
0100
0010
0001
0010
0001
0010
0001
0010
0001
1000
0001
,
1000
0001
1000
0010
1000
0010
1000
0010
1000
0001
0100
0001
0100
0001
0100
0001
0001
0001
0100
0100
0100
0010
0010
0010
,
1000
1000
1000
1002
0000
0000
0010
0000
0000
0010
0000
0000
0010
0000
0000
0010
0000
0000
0013
0000
0000
0000
0000
0000
,
1000
0001
1000
0001
1000
0001
1000
0001
1000
0001
1000
0001
1000
0001
1000
0001
,
1000
0001
1000
0001
1000
0001
1000
0001
1000
0001
1000
0001
1000
0001
1000
0001
,
0000
0120
0100
0100
0100
0100
0100
0100
0100
0130
0000
0000
;

//---------------dance-single - ----------------
#NOTEDATA:;
#CHARTNAME:;
#STEPSTYPE:dance-single;
#DESCRIPTION:;
#CHARTSTYLE:;
#DIFFICULTY:Medium;
#METER:15;
#RADARVALUES:0.515124,0.840363,0.391399,0.133242,0.545461,433.000000,386.000000,47.000000,16.000000,0.000000,0.000000,0.000000,0.000000,0.000000,0.515124,0.840363,0.391399,0.133242,0.545461,433.000000,386.000000,47.000000,16.000000,0.000000,0.000000,0.000000,0.000000,0.000000;
#CREDIT:;
#DISPLAYBPM:3.000000:500.000000;
#NOTES:
0000
0000
0000
0000
,
2002
0000
0000
0000
,
0000
3003
0200
0000
,
0000
0000
0000
0300
,
0010
1100
0010
0101
,
0010
1100
0010
0101
,
1000
0100
1000
0010
1000
0100
1000
0010
,
1000
0100
1000
0010
0100
0100
0100
0100
,
0001
0010
0001
0100
0001
0010
0001
0100
,
0001
0000
0000
0010
0000
0000
0001
0000
0000
0100
0000
0000
0010
0000
0000
0010
0000
0000
0010
0000
0000
0000
1000
0000
,
0000
0010
0000
0000
1000
0000
0000
0100
0000
0000
1000
0000
0000
0010
0000
0000
1000
0000
0000
0100
0000
0000
1000
0000
,
0000
0010
0000
0000
1000
0000
0000
0100
0000
0000
0010
0000
0000
0010
0000
0000
0010
0000
0000
0010
0000
0000
0001
0000
,
0000
0100
0000
0000
0001
0000
0000
0010
0000
0000
0001
0000
0000
0100
0000
0000
0001
0000
0000
0010
0000
0000
0001
0000
,
0000
0100
0000
0000
0001
0000
0000
0010
0000
0000
0001
0000
0000
0001
0000
0000
1000
0000
0000
1000
0000
0000
2002
0000
,
0000
0000
0000
0000
0000
0000
0000
0000
0000
0000
0000
0000
0000
0000
0000
0000
0000
0000
0000
0000
0000
0000
0000
0000
0000
0000
0000
0000
0000
0000
0000
0000
0000
0000
0000
0000
3003
0000
0000
0000
0000
0000
0000
0000
0010
0000
0000
1000
,
0000
0000
0000
0000
0000
0000
0000
0000
0001
0000
0000
0100
0000
0000
0000
0000
0000
0000
0000
0000
0010
0000
0000
1000
0000
0000
0000
0000
0000
0000
0000
0000
0001
0000
0000
0100
0000
0000
0000
0000
0000
0000
0000
0000
0010
0000
0000
1000
,
0000
0000
0000
0000
0000
0000
0000
0000
0001
0000
0000
0100
0000
0000
0000
0000
0000
0000
0000
0000
0110
0000
0000
0000
0000
0000
0110
0000
0000
0000
0000
0000
1001
0000
0000
0000
0000
0000
1001
0000
0000
0000
0000
0000
0001
0000
0000
0010
,
0000
0000
0000
0000
0000
0000
0000
0000
1000
0000
0000
0100
0000
0000
0000
0000
0000
0000
0000
0000
0001
0000
0000
0010
0000
0000
0000
0000
0000
0000
0000
0000
1000
0000
0000
0100
0000
0000
0000
0000
0000
0000
0000
0000
0001
0000
0000
0010
,
0000
0000
0000
0000
0000
0000
0000
0000
1000
0000
0000
0100
0000
0000
0000
0000
0000
0000
0000
0000
1100
0000
0000
0000
0000
0000
0101
0000
0000
0000
0000
0000
1100
0000
0000
0000
0000
0000
0000
0000
0001
0000
0000
1000
0000
0000
0000
0000
,
0000
0000
0000
0000
0010
0000
0000
0100
0000
0000
0000
0000
0000
0000
0000
0000
0001
0000
0000
1000
0000
0000
0000
0000
0000
0000
0000
0000
0010
0000
0000
0100
0000
0000
0000
0000
0000
0000
0000
0000
0001
0000
0000
1000
0000
0000
0000
0000
,
0000
0000
0000
0000
0010
0000
0000
0100
0000
0000
0000
0000
0000
0000
0000
0000
1001
0000
0000
0000
0000
0000
1001
0000
0000
0000
0000
0000
0110
0000
0000
0000
0000
0000
0110
0000
0000
0000
0000
0000
0010
0000
0000
1000
0000
0000
0000
0000
,
0000
0000
0000
0000
0001
0000
0000
0100
0000
0000
0000
0000
0000
0000
0000
0000
0001
0000
0000
0010
0000
0000
0000
0000
0000
0000
0000
0000
1000
0000
0000
0100
0000
0000
0000
0000
0000
0000
0000
0000
0001
0000
0000
1000
0000
0000
0000
0000
,
0000
0000
0000
0000
0010
0000
0000
0100
0000
0000
0000
0000
0000
0000
0000
0000
1010
0000
0000
0000
0000
0000
1010
0000
0000
0000
0000
0000
0011
0000
0000
0000
0000
0000
0011
0000
0000
0000
0000
0000
0000
0000
2000
0000
0000
0000
0000
0000
,
0000
0100
0000
3001
0000
1000
0100
1000
,
0001
0000
0010
0100
1000
0000
0001
1000
,
0001
0000
1000
0010
1000
0000
0001
0010
,
0100
0000
1000
0100
0010
0000
1000
0001
,
0220
0000
0000
0000
,
0000
0000
0330
2000
,
0000
0000
0000
0000
0000
0000
0000
0000
0000
0000
0000
0000
3010
0010
0000
0000
,
1000
1000
0000
0000
0001
0001
0000
0000
0100
0100
0000
0000
0001
0001
0000
0000
,
0010
0010
0000
0000
0001
0100
0001
0000
1000
0100
1000
0000
0001
0001
0000
0000
,
1000
1000
0000
0000
0100
0100
0000
0000
1000
1000
0000
0000
0010
0010
0000
0000
,
0100
0100
0000
0000
0001
0010
0001
0000
1000
0010
2000
0000
0000
0000
0000
0000
,
3010
1001
0100
1001
,
0001
0101
1000
1100
,
0001
0011
1000
1010
,
0100
0110
0010
0110
,
1000
1010
0100
0011
,
0010
1001
0001
0101
,
0010
1010
0001
0011
,
0100
0110
1000
1010
,
0010
1001
1000
0101
,
0100
1100
0001
0011
,
2002
0000
0000
3003
,
1000
0100
0010
0010
0001
0001
1000
0100
,
0001
1000
0010
0100
0100
1000
0001
0010
,
1000
0010
0100
0010
0001
0001
1000
0100
,
0010
0100
1000
0001
1000
0010
0001
0100
,
0010
0100
0001
1000
0100
1000
0001
0010
,
0100
0010
1000
0001
0001
0100
1000
0010
,
0010
1000
0001
0100
0001
0000
0000
0010
,
0000
0000
0100
0000
0000
1000
0000
0000
,
0001
0000
0000
0010
0000
0000
0100
0000
,
0000
1000
0000
0000
0001
0000
0000
0010
,
0000
0000
0100
0000
0000
1000
0000
0000
,
0001
0000
0000
0010
0000
0000
0100
0000
,
0000
1000
0000
0000
0001
0000
0000
0010
,
0000
0000
0100
0000
0000
1000
0000
0000
,
0001
0000
0000
0010
0000
0000
0100
0000
,
0000
1000
0000
0000
0001
0000
0000
0010
,
0000
0000
0100
0000
0000
1000
0000
0000
,
0001
0000
0000
0010
0000
0000
0100
0000
,
0000
1000
0000
0000
0001
0000
0000
0010
,
0000
0000
0100
0000
0000
1000
0000
0000
,
0001
0000
0000
0010
0000
0000
0100
0000
,
0000
1000
0000
0000
1100
0000
0101
0000
,
0000
0000
1000
0100
1000
0000
0001
0100
0001
0000
1000
0010
1000
0000
0001
0010
,
0001
0000
0100
0010
0100
0000
0001
1000
0001
0000
1000
0100
0010
0001
0010
0100
,
1000
0000
0001
0010
0001
0000
1000
0010
1000
0000
0001
0100
0001
0000
1000
0100
,
1000
0000
0001
1000
0001
0000
0100
0010
0100
0000
0001
0010
0100
1000
0100
0010
,
0001
2002
0000
0000
0000
0000
0000
0000
,
0000
0000
0000
0000
,
3003
0000
0000
0000
,
0000
0220
0000
0000
0000
0000
0000
0000
0000
0330
0000
0000
;

//---------------dance-single - ----------------
#NOTEDATA:;
#CHARTNAME:;
#STEPSTYPE:dance-single;
#DESCRIPTION:;
#CHARTSTYLE:;
#DIFFICULTY:Easy;
#METER:10;
#RADARVALUES:0.330726,0.560242,0.258157,0.033311,0.253993,278.000000,247.000000,31.000000,4.000000,0.000000,0.000000,0.000000,0.000000,0.000000,0.330726,0.560242,0.258157,0.033311,0.253993,278.000000,247.000000,31.000000,4.000000,0.000000,0.000000,0.000000,0.000000,0.000000;
#CREDIT:;
#DISPLAYBPM:3.000000:500.000000;
#NOTES:
0000
0000
0000
0000
,
1001
0000
0000
0000
,
0000
0000
0100
0000
,
0000
0000
0000
0000
,
0010
1100
0010
0101
,
0010
1100
0010
0101
,
1000
0100
1000
0001
,
0010
0000
0100
0000
1000
0001
0100
0010
,
1000
0010
1000
0100
,
0010
0000
0000
0000
0000
0000
0001
0000
0000
0000
0000
0000
0100
0000
0000
0010
0000
0000
1000
0000
0000
0000
0001
0000
,
0000
0000
0010
0000
0000
0100
0000
0000
1000
0000
0000
0010
,
0000
0000
0000
0000
1000
0000
0000
0000
0000
0000
0100
0000
0000
0010
0000
0000
0001
0000
0000
1000
0000
0000
0001
0000
,
0000
0000
1000
0000
0000
0100
0000
0000
0010
0000
0000
1000
,
0000
0000
0000
0000
0001
0000
0000
0000
0000
0000
0010
0000
0000
0010
0000
0000
0010
0000
0000
0010
0000
0000
1001
0000
,
0000
0000
0000
0000
0000
0000
0000
0000
0000
0000
0000
0010
,
0000
0000
0001
0000
0000
0100
0000
0000
0001
0000
0000
1000
,
0000
0000
0000
0000
0100
0000
0000
0000
0000
0000
0010
0000
0000
0100
0000
0000
0010
0000
0000
0100
0000
0000
1000
0000
,
0000
0000
0010
0000
0000
0001
0000
0000
0100
0000
0000
0001
,
0000
0000
0000
0000
1000
0000
0000
0000
0000
0000
0100
0000
0000
0100
0000
0000
0100
0000
0000
0000
0001
0000
0000
0000
,
0000
0010
0000
0000
0100
0000
0000
1000
0000
0000
0010
0000
,
0000
0000
1000
0000
0000
0000
0000
0000
0100
0000
0000
1000
0000
0000
0001
0000
0000
0100
0000
0000
0001
0000
0000
0000
,
0000
0010
0000
0000
0001
0000
0000
1000
0000
0000
0100
0000
,
0000
0000
0100
0000
0000
0000
0000
0000
1000
0000
0000
0001
0000
0000
0100
0000
0000
0001
0000
0000
0000
0010
0000
0000
,
0000
0010
0000
0100
0000
0100
0000
0001
,
0000
0001
0000
1000
0000
1000
0000
0001
,
0000
0010
0000
0100
0000
1000
0000
0010
,
0000
0100
0000
0001
0000
1000
0000
0000
,
0110
0000
0000
0000
,
0000
0000
0000
1000
,
0000
0000
0000
0010
,
1010
0100
0101
0001
,
0011
0000
1000
0100
0010
0001
1000
0000
,
1010
0001
0110
0100
,
0110
0000
0010
1000
0001
0100
0000
0000
,
0100
0010
1000
0010
,
1000
0100
0010
0001
,
0100
0001
1000
0100
,
0010
1000
0010
0001
,
1000
0001
0010
0100
,
0001
1000
0010
1000
,
0010
0001
0100
0010
,
0100
0010
1000
0001
,
0010
1000
0010
0001
,
1000
0001
0100
0010
,
2002
0000
0000
3003
,
1000
0100
0001
1000
,
0010
1000
0100
0010
,
0001
0100
0010
1000
,
0010
0100
0010
1000
,
0001
0010
0001
1000
,
0010
1000
0010
1000
,
0100
0010
0001
0000
,
0010
0000
0100
0000
,
1000
0000
0001
0000
,
0010
0000
0100
0000
,
1000
0000
0001
0000
,
0010
0000
0100
0000
,
1000
0000
0001
0000
,
0010
0000
0100
0000
,
1000
0000
0001
0000
,
0010
0000
0100
0000
,
1000
0000
0001
0000
,
0010
0000
0100
0000
,
1000
0000
0001
0000
,
0010
0000
0100
0000
,
1000
0000
1001
0000
,
0110
0000
1001
0000
,
0000
1010
0000
1010
0000
0011
0000
0011
,
0000
1010
0000
0011
0000
1000
0100
0010
,
0001
0101
0000
0101
0000
1100
0000
1100
,
0000
0101
0000
1100
0000
0001
0010
0100
,
1000
1001
0000
0000
0000
0000
0000
0000
,
0000
0000
0000
0000
,
0000
0000
0000
0000
,
0000
0220
0000
0000
0000
0000
0000
0000
0000
0330
0000
0000
;

//---------------dance-single - ----------------
#NOTEDATA:;
#CHARTNAME:;
#STEPSTYPE:dance-single;
#DESCRIPTION:;
#CHARTSTYLE:;
#DIFFICULTY:Beginner;
#METER:5;
#RADARVALUES:0.162984,0.308470,0.049966,0.008328,0.133242,137.000000,131.000000,6.000000,1.000000,0.000000,0.000000,0.000000,0.000000,0.000000,0.162984,0.308470,0.049966,0.008328,0.133242,137.000000,131.000000,6.000000,1.000000,0.000000,0.000000,0.000000,0.000000,0.000000;
#CREDIT:;
#DISPLAYBPM:3.000000:500.000000;
#NOTES:
0000
0000
0000
0000
,
1001
0000
0000
0000
,
0000
0000
0000
0000
,
0000
0000
0000
0000
,
0010
0000
0010
0000
,
0010
0000
0010
0000
,
1000
0000
0001
0000
,
1000
0000
0010
0100
,
0001
0000
0010
0000
,
0100
0000
0000
0000
0000
0000
1000
0000
0000
0001
0000
0010
,
0000
0000
0000
0000
0000
0001
0000
0000
0000
0000
0000
0100
,
0000
0000
0000
0000
0000
1000
0000
0000
0010
0000
0000
0100
,
0000
0000
0000
0000
0000
0010
0000
0000
0000
0000
0000
1000
,
0000
0000
0000
0000
0000
0001
0000
0000
1000
0000
0000
1001
,
0000
0000
0000
0000
0000
0000
0000
0000
0000
0000
0000
0010
,
0000
0000
0000
0000
0000
0100
0000
0000
0000
0000
0000
0001
,
0000
0000
0000
0000
0000
1000
0000
0000
0100
0000
0000
1000
,
0000
0000
0000
0000
0000
0010
0000
0000
0000
0000
0000
1000
,
0000
0000
0000
0000
0000
0001
0000
0000
0100
0000
0001
0000
,
0000
0000
0000
0000
0010
0000
0000
0000
0000
0000
1000
0000
,
0000
0000
0000
0000
0001
0000
0000
1000
0000
0000
0010
0000
,
0000
0000
0000
0000
1000
0000
0000
0000
0000
0000
0100
0000
,
0000
0000
0000
0000
0000
0000
0000
0000
1000
0000
0000
0000
0000
0000
0001
0000
0000
0000
0000
0000
0000
0020
0000
0000
,
0000
0000
0000
0000
,
0000
0000
0000
0000
,
0000
0000
0000
0000
,
0030
0000
0000
0000
,
0110
0000
0000
0000
,
0000
0000
0000
0000
,
0000
0000
0000
1000
,
1000
1000
0000
0010
,
0100
0001
1000
0001
,
0001
0001
0000
1000
,
0001
0100
0010
0000
,
1000
0000
0001
0000
,
1000
0000
0001
0000
,
0010
0000
0100
0000
,
0010
0000
0100
0000
,
1000
0000
0010
0000
,
1000
0000
0010
0000
,
0100
0000
0001
0000
,
0100
0000
0001
0000
,
1000
0000
0100
0000
,
0010
0000
0001
0000
,
1001
0000
0000
0000
,
0010
0000
1000
0000
,
0100
0000
0001
0000
,
0010
0000
0001
0000
,
0100
0000
1000
0000
,
0001
0000
0010
0000
,
0100
0000
1000
0000
,
0010
0100
0001
0000
,
0000
0000
0010
0000
,
0000
0000
0100
0000
,
0000
0000
1000
0000
,
0000
0000
0001
0000
,
0000
0000
0010
0000
,
0000
0000
0100
0000
,
0000
0000
1000
0000
,
0000
0000
0001
0000
,
0000
0000
0010
0000
,
0000
0000
0100
0000
,
0000
0000
1000
0000
,
0000
0000
0001
0000
,
0000
0000
0010
0000
,
0000
0000
0100
0000
,
0000
0000
1000
0000
,
0000
0010
0000
0010
0000
0100
0000
0100
,
0000
1000
0000
0001
0000
1000
0000
0001
,
0000
0010
0000
0010
0000
0100
0000
0100
,
0000
1000
0000
0001
0000
1000
0000
0001
,
0000
1001
0000
0000
0000
0000
0000
0000
,
0000
0000
0000
0000
,
0000
0000
0000
0000
,
0000
0110
0000
0000
0000
0000
0000
0000
0000
0000
0000
0000
;

//---------------dance-single - ----------------
#NOTEDATA:;
#CHARTNAME:;
#STEPSTYPE:dance-single;
#DESCRIPTION:;
#CHARTSTYLE:;
#DIFFICULTY:Hard;
#METER:18;
#RADARVALUES:0.810161,1.058235,0.124915,0.208191,1.332423,681.000000,666.000000,15.000000,25.000000,0.000000,0.000000,0.000000,0.000000,0.000000,0.810161,1.058235,0.124915,0.208191,1.332423,681.000000,666.000000,15.000000,25.000000,0.000000,0.000000,0.000000,0.000000,0.000000;
#CREDIT:;
#DISPLAYBPM:1.000000:999.000000;
#NOTES:
0000
0000
0000
0000
,
2002
0000
0000
0000
,
0000
0003
0200
0000
,
0000
0000
0000
3300
,
0010
1100
0010
0101
,
0010
1100
0010
0101
,
1000
0100
1000
0100
1000
0010
1000
0010
1000
0100
1000
0100
1000
0010
1000
0010
,
1000
0100
1000
0100
1000
0010
1000
0010
2000
0000
3200
0000
0320
0000
0032
0000
,
1003
0010
1000
0010
1000
0100
1000
0100
1000
0010
1000
0010
1000
0100
1000
0100
,
1000
0000
0000
0010
0000
0000
1000
0000
0000
0010
0000
0000
1000
0000
0000
0100
0000
0000
1000
0000
0000
0100
0000
0000
2000
0000
0000
0000
0000
0000
3002
0000
0000
0000
0000
0000
0203
0000
0000
0000
0000
0000
0000
0000
0301
0000
0000
0100
,
0000
0000
0001
0000
0000
0100
0000
0000
0001
0000
0000
0010
0000
0000
0001
0000
0000
0010
0000
0000
0001
0000
0000
0100
0000
0000
0001
0000
0000
0100
0000
0000
0001
0000
0000
0010
0000
0000
0001
0000
0000
0010
0000
0000
0001
0000
0000
0100
,
0000
0000
0001
0000
0000
0100
0000
0000
0001
0000
0000
0010
0000
0000
0001
0000
0000
0010
0000
0000
0002
0000
0000
0000
0000
0000
0023
0000
0000
0000
0000
0000
0230
0000
0000
0000
0000
0000
2300
0000
0000
0000
0000
0000
3001
0000
0000
0010
,
0000
0000
0001
0000
0000
0010
0000
0000
0001
0000
0000
0100
0000
0000
0001
0000
0000
0100
0000
0000
0001
0000
0000
0010
0000
0000
0001
0000
0000
0010
0000
0000
0001
0000
0000
0100
0000
0000
0001
0000
0000
0100
0000
0000
0001
0000
0000
0010
,
0000
0000
0001
0000
0000
0010
0000
0000
0001
0000
0000
0100
0000
0000
0001
0000
0000
0100
0000
0000
0001
0000
0000
0000
0000
0000
0011
0000
0000
0000
0000
0000
0110
0000
0000
0000
0000
0000
1100
0000
0000
0000
0000
0000
2002
0000
0000
0000
,
0000
0000
0000
0000
0000
0000
0000
0000
0000
0000
0000
0000
0000
0000
0000
0000
0000
0000
0000
0000
0000
0000
0000
0000
0000
0000
0000
0000
0000
0000
0000
0000
3000
0000
0000
0000
0000
0000
0000
0000
0000
0000
0000
0000
0103
0000
0000
0010
,
0000
0000
0100
0000
0000
0010
0000
0000
1000
0000
0000
0010
0000
0000
1000
0000
0000
0010
0000
0000
1000
0000
0000
0001
0000
0000
1000
0000
0000
0001
0000
0000
0010
0000
0000
0001
0000
0000
0010
0000
0000
0001
0000
0000
0100
0000
0000
0001
,
0000
0000
0100
0000
0000
0001
0000
0000
1000
0000
0000
0100
0000
0000
1000
0000
0000
0100
0000
0000
1000
0000
0000
0001
0000
0000
0100
0000
0000
0000
0000
0000
0001
0000
0000
1000
0000
0000
0100
0000
0000
0000
0000
0000
1000
0000
0000
0010
,
0000
0000
1000
0000
0000
0010
0000
0000
0100
0000
0000
0001
0000
0000
0100
0000
0000
0001
0000
0000
0010
0000
0000
0100
0000
0000
0010
0000
0000
0100
0000
0000
1000
0000
0000
0100
0000
0000
1000
0000
0000
0100
0000
0000
1000
0000
0000
0001
,
0000
0000
1000
0000
0000
0001
0000
0000
0010
0000
0000
0001
0000
0000
0010
0000
0000
0001
0000
0000
1000
0000
0000
0010
0000
0000
0001
0000
0000
0010
0000
0000
1000
0000
0000
0000
0000
0000
0000
0000
0001
0000
0000
0100
0000
0000
0001
0000
,
0000
0100
0000
0000
0010
0000
0000
1000
0000
0000
0010
0000
0000
1000
0000
0000
0100
0000
0000
1000
0000
0000
0100
0000
0000
1000
0000
0000
0001
0000
0000
0010
0000
0000
0001
0000
0000
0010
0000
0000
0100
0000
0000
0010
0000
0000
0100
0000
,
0000
0010
0000
0000
0001
0000
0000
1000
0000
0000
0001
0000
0000
1000
0000
0000
0001
0000
0000
1000
0000
0000
0010
0000
0000
0000
0000
0000
1000
0000
0000
0001
0000
0000
0010
0000
0000
0000
0000
0000
0001
0000
0000
1000
0000
0000
0001
0000
,
0000
1000
0000
0000
0100
0000
0000
1000
0000
0000
0100
0000
0000
1000
0000
0000
0010
0000
0000
1000
0000
0000
0010
0000
0000
1000
0000
0000
0010
0000
0000
0100
0000
0000
0010
0000
0000
0100
0000
0000
0001
0000
0000
0100
0000
0000
0001
0000
,
0000
0100
0000
0000
0001
0000
0000
0010
0000
0000
0001
0000
0000
0010
0000
0000
0001
0000
0000
0100
0000
0000
0010
0000
0000
0100
0000
0000
1000
0000
0000
0100
0000
0000
0010
0000
0000
0000
0100
0000
0000
0000
0001
0000
0000
0000
0000
0000
,
0010
0100
1000
0010
0100
0001
1000
0100
,
0010
0001
0100
0010
1000
0001
1000
0100
,
0010
0100
0010
0100
1000
0010
0100
0001
,
0010
1000
0010
0100
0001
0010
0100
1000
,
2020
0000
0000
0000
,
0000
0000
0030
0002
,
0000
0000
0000
0000
0000
0000
0000
0000
3000
0000
0000
0000
1003
0100
0010
0001
,
1000
0010
0100
0001
1000
0100
0010
0001
1000
0010
0100
0001
1000
0100
0010
0001
,
1000
0010
0100
0001
0100
0100
0010
0010
1000
1000
0001
0001
1000
0001
0100
0010
,
1000
0100
0010
0001
1000
0001
0100
0010
1000
0010
0100
0001
1000
0100
0010
0001
,
1000
0010
0100
0001
1000
0100
0010
0001
0010
0100
2000
0000
0000
0000
0000
0000
,
3010
1000
0001
0010
1000
0100
0001
0100
,
0001
0010
0100
1000
0010
0001
0100
1000
,
0001
0100
1000
0010
0100
1000
0010
0001
,
0010
0100
1000
0010
0001
0100
1000
0001
,
1000
0010
0100
0001
1000
0010
0001
0100
,
1000
0010
0001
0010
1000
0100
0001
0100
,
0010
1000
0100
0001
1000
0010
0100
0001
,
0010
0100
1000
0001
0100
0010
1000
0001
,
0100
0010
1000
0010
0001
1000
0100
0001
,
0010
1000
0001
0100
1000
0001
0100
0010
,
2002
0000
0000
3000
,
1003
0100
0010
0001
0100
0001
0001
0100
1000
0010
1000
0010
0001
0100
0010
1000
,
0001
0100
0010
0100
0001
0010
0001
1000
0100
0010
1000
0100
1000
0010
0001
1000
,
0010
0001
0100
1000
0001
1000
0010
0100
1000
0001
0010
0100
0010
1000
0100
0001
,
1000
0100
0010
0001
1000
0001
0100
0010
1000
0100
0010
0001
0100
1000
0001
0010
,
0001
0100
0010
1000
0100
1000
0001
1000
0010
0100
0010
0001
0010
0100
1000
0001
,
0100
0010
0100
1000
0001
1000
0010
1000
0100
0010
1000
0001
0100
0001
0001
0010
,
1000
0010
0001
0100
0010
0001
0100
1000
0001
0000
0000
0000
0010
0000
0000
0000
,
0100
1000
0001
0010
,
0100
1000
0001
0010
,
0100
1000
0001
0010
,
0100
1000
0001
0010
,
0100
1000
0001
0010
,
0100
1000
0001
0010
,
0100
1000
0001
0010
,
0100
1000
0001
0010
,
0100
1000
0001
0010
,
0100
1000
0001
0010
,
0100
1000
0001
0010
,
0100
1000
0001
0010
,
0100
1000
0001
0010
,
0100
1000
0001
0010
,
0100
1000
1100
0101
,
0000
0000
0001
0001
0001
0001
0010
0010
0010
0010
0100
0100
0100
0100
1000
1000
,
1000
1000
0010
0010
0010
0010
0100
0100
0100
0100
0010
0010
1000
1000
0001
0001
,
0100
0100
0010
0010
0010
0010
1000
1000
1000
1000
0001
0001
0001
0001
0100
0100
,
0100
0100
0001
0001
0001
0001
1000
1000
1000
1000
0010
0010
0100
0100
0001
0001
,
1000
1000
2002
0000
0000
0000
0000
0000
0000
0000
0000
0000
3000
0000
0000
0000
,
1003
0100
0010
0001
,
1000
0100
0010
0001
,
0000
0120
0000
0100
0000
0100
0000
0100
0000
0130
0000
0000
;

//---------------dance-solo - ----------------
#NOTEDATA:;
#CHARTNAME:;
#STEPSTYPE:dance-solo;
#DESCRIPTION:;
#CHARTSTYLE:;
#DIFFICULTY:Easy;
#METER:10;
#RADARVALUES:0.328347,0.560242,0.241502,0.033311,0.253993,276.000000,247.000000,29.000000,4.000000,0.000000,0.000000,0.000000,0.000000,0.000000,0.328347,0.560242,0.241502,0.033311,0.253993,276.000000,247.000000,29.000000,4.000000,0.000000,0.000000,0.000000,0.000000,0.000000;
#CREDIT:;
#DISPLAYBPM:1.000000:999.000000;
#NOTES:
000000
000000
000000
000000
,
010010
000000
000000
000000
,
000000
000000
001000
000000
,
000000
000000
000000
000000
,
000100
101000
000100
001001
,
000100
011000
000100
001010
,
100000
000010
001000
000001
,
010000
000000
000100
000000
100000
000100
001000
000001
,
010000
000001
000100
000010
,
100000
000000
000000
000000
000000
000000
001000
000000
000000
000000
000000
000000
010000
000000
000000
000100
000000
000000
001000
000000
000000
000000
000001
000000
,
000000
000000
100000
000000
000000
000100
000000
000000
010000
000000
000000
000010
,
000000
000000
000000
000000
001000
000000
000000
000000
000000
000000
000010
000000
000000
001000
000000
000000
000100
000000
000000
010000
000000
000000
001000
000000
,
000000
000000
100000
000000
000000
000010
000000
000000
000100
000000
000000
000001
,
000000
000000
000000
000000
010000
000000
000000
000000
000000
000000
000001
000000
000000
010000
000000
000000
000010
000000
000000
100000
000000
000000
100001
000000
,
000000
000000
000000
000000
000000
000000
000000
000000
000000
000000
000000
000100
,
000000
000000
010000
000000
000000
000001
000000
000000
001000
000000
000000
000010
,
000000
000000
000000
000000
100000
000000
000000
000000
000000
000000
001000
000000
000000
100000
000000
000000
000010
000000
000000
000100
000000
000000
000001
000000
,
000000
000000
001000
000000
000000
000100
000000
000000
100000
000000
000000
000010
,
000000
000000
000000
000000
010000
000000
000000
000000
000000
000000
000001
000000
000000
100000
000000
000000
000100
000000
000000
000000
010000
000000
000000
000000
,
000000
000010
000000
000000
100000
000000
000000
000001
000000
000000
001000
000000
,
000000
000000
000100
000000
000000
000000
000000
000000
010000
000000
000000
001000
000000
000000
100000
000000
000000
000001
000000
000000
000100
000000
000000
000000
,
000000
000010
000000
000000
100000
000000
000000
000001
000000
000000
010000
000000
,
000000
000000
001000
000000
000000
000000
000000
000000
100000
000000
000000
000010
000000
000000
010000
000000
000000
000001
000000
000000
000000
001000
000000
000000
,
000000
000100
000000
100000
000000
000001
000000
000100
,
000000
000001
000000
001000
000000
000100
000000
100000
,
000000
001000
000000
010000
000000
000010
000000
000100
,
000000
000001
000000
010000
000000
000100
000000
000000
,
001100
000000
000000
000000
,
000000
000000
000000
100000
,
000000
000000
000000
000010
,
010010
010000
011000
001000
,
101000
000000
100000
000001
001000
000010
000100
000000
,
000101
000001
100001
100000
,
100010
000000
000010
010000
000001
001000
000000
000000
,
000100
010000
001000
100000
,
000010
001000
000100
010000
,
001000
100000
000001
000100
,
000010
001000
000100
100000
,
001000
000010
010000
000100
,
010000
000010
000001
001000
,
000100
001000
000010
001000
,
100000
000001
000010
001000
,
000010
010000
001000
000100
,
001000
100000
000010
000100
,
200002
000000
000000
300003
,
100000
000100
010000
000010
,
000100
001000
000100
000010
,
001000
000100
010000
000100
,
010000
100000
000010
000100
,
001000
010000
000001
000100
,
000010
001000
000010
000001
,
100000
001000
000001
000000
,
000010
000000
000100
000000
,
001000
000000
010000
000000
,
100000
000000
000001
000000
,
000010
000000
000100
000000
,
001000
000000
010000
000000
,
100000
000000
000001
000000
,
000010
000000
000100
000000
,
001000
000000
010000
000000
,
100000
000000
000001
000000
,
000010
000000
000100
000000
,
001000
000000
010000
000000
,
100000
000000
000001
000000
,
000010
000000
000100
000000
,
001000
000000
010000
000000
,
100000
000000
010010
000000
,
000000
101000
000000
101000
000000
001001
000000
001001
,
000000
101000
000000
001001
000000
010000
000010
100000
,
000001
000101
000000
000101
000000
100100
000000
100100
,
000000
000101
000000
100100
000000
000100
001000
000010
,
010000
010010
000000
000000
000000
000000
000000
000000
,
000000
000000
000000
000000
,
000000
000000
000000
000000
,
000000
002200
000000
000000
000000
000000
000000
000000
000000
003300
000000
000000
;

//---------------dance-solo - ----------------
#NOTEDATA:;
#CHARTNAME:;
#STEPSTYPE:dance-solo;
#DESCRIPTION:;
#CHARTSTYLE:;
#DIFFICULTY:Medium;
#METER:15;
#RADARVALUES:0.512745,0.840363,0.374744,0.133242,0.545461,431.000000,386.000000,45.000000,16.000000,0.000000,0.000000,0.000000,0.000000,0.000000,0.512745,0.840363,0.374744,0.133242,0.545461,431.000000,386.000000,45.000000,16.000000,0.000000,0.000000,0.000000,0.000000,0.000000;
#CREDIT:;
#DISPLAYBPM:1.000000:999.000000;
#NOTES:
000000
000000
000000
000000
,
020020
000000
000000
000000
,
000000
030030
002000
000000
,
000000
000000
000000
003000
,
000100
011000
000100
001010
,
000100
101000
000100
001001
,
100000
000100
001000
000010
010000
000100
001000
000001
,
000100
000010
010000
001000
100000
100000
100000
100000
,
000010
000100
000001
001000
000100
010000
001000
100000
,
000010
000000
000000
000100
000000
000000
001000
000000
000000
010000
000000
000000
000001
000000
000000
000001
000000
000000
000001
000000
000000
000000
001000
000000
,
000000
000010
000000
000000
100000
000000
000000
001000
000000
000000
010000
000000
000000
000001
000000
000000
100000
000000
000000
000100
000000
000000
000010
000000
,
000000
010000
000000
000000
000100
000000
000000
100000
000000
000000
000010
000000
000000
000010
000000
000000
000010
000000
000000
000010
000000
000000
000100
000000
,
000000
000001
000000
000000
010000
000000
000000
000100
000000
000000
100000
000000
000000
000010
000000
000000
000100
000000
000000
001000
000000
000000
000100
000000
,
000000
000001
000000
000000
010000
000000
000000
000010
000000
000000
001000
000000
000000
000100
000000
000000
010000
000000
000000
000010
000000
000000
200002
000000
,
000000
000000
000000
000000
000000
000000
000000
000000
000000
000000
000000
000000
000000
000000
000000
000000
000000
000000
000000
000000
000000
000000
000000
000000
000000
000000
000000
000000
000000
000000
000000
000000
000000
000000
000000
000000
300003
000000
000000
000000
000000
000000
000000
000000
000010
000000
000000
010000
,
000000
000000
000000
000000
000000
000000
000000
000000
000001
000000
000000
001000
000000
000000
000000
000000
000000
000000
000000
000000
000100
000000
000000
010000
000000
000000
000000
000000
000000
000000
000000
000000
001000
000000
000000
100000
000000
000000
000000
000000
000000
000000
000000
000000
000001
000000
000000
000100
,
000000
000000
000000
000000
000000
000000
000000
000000
000010
000000
000000
100000
000000
000000
000000
000000
000000
000000
000000
000000
010100
000000
000000
000000
000000
000000
010100
000000
000000
000000
000000
000000
001010
000000
000000
000000
000000
000000
001010
000000
000000
000000
000000
000000
000010
000000
000000
000100
,
000000
000000
000000
000000
000000
000000
000000
000000
000001
000000
000000
001000
000000
000000
000000
000000
000000
000000
000000
000000
000100
000000
000000
100000
000000
000000
000000
000000
000000
000000
000000
000000
001000
000000
000000
010000
000000
000000
000000
000000
000000
000000
000000
000000
000001
000000
000000
100000
,
000000
000000
000000
000000
000000
000000
000000
000000
000010
000000
000000
010000
000000
000000
000000
000000
000000
000000
000000
000000
100010
000000
000000
000000
000000
000000
010001
000000
000000
000000
000000
000000
100010
000000
000000
000000
000000
000000
000000
000000
001000
000000
000000
010000
000000
000000
000000
000000
,
000000
000000
000000
000000
000010
000000
000000
001000
000000
000000
000000
000000
000000
000000
000000
000000
000001
000000
000000
100000
000000
000000
000000
000000
000000
000000
000000
000000
010000
000000
000000
100000
000000
000000
000000
000000
000000
000000
000000
000000
000100
000000
000000
000001
000000
000000
000000
000000
,
000000
000000
000000
000000
000100
000000
000000
000010
000000
000000
000000
000000
000000
000000
000000
000000
000110
000000
000000
000000
000000
000000
000110
000000
000000
000000
000000
000000
010100
000000
000000
000000
000000
000000
010100
000000
000000
000000
000000
000000
010000
000000
000000
000001
000000
000000
000000
000000
,
000000
000000
000000
000000
100000
000000
000000
000100
000000
000000
000000
000000
000000
000000
000000
000000
001000
000000
000000
000001
000000
000000
000000
000000
000000
000000
000000
000000
001000
000000
000000
000100
000000
000000
000000
000000
000000
000000
000000
000000
010000
000000
000000
000010
000000
000000
000000
000000
,
000000
000000
000000
000000
000010
000000
000000
100000
000000
000000
000000
000000
000000
000000
000000
000000
010010
000000
000000
000000
000000
000000
010010
000000
000000
000000
000000
000000
100001
000000
000000
000000
000000
000000
100001
000000
000000
000000
000000
000000
000000
000000
020000
000000
000000
000000
000000
000000
,
000000
000100
000000
030010
000000
100000
000001
001000
,
000010
000000
000100
010000
001000
000000
100000
000001
,
000100
000000
000010
001000
000001
000000
100000
010000
,
100000
000000
000010
000100
010000
000000
000001
001000
,
002200
000000
000000
000000
,
000000
000000
003300
020000
,
000000
000000
000000
000000
000000
000000
000000
000000
000000
000000
000000
000000
030001
000001
000000
000000
,
010000
010000
000000
000000
001000
001000
000000
000000
100000
100000
000000
000000
000010
000010
000000
000000
,
000100
000100
000000
000000
000001
000100
000001
000000
100000
000100
100000
000000
000010
000010
000000
000000
,
100000
100000
000000
000000
010000
010000
000000
000000
000001
000001
000000
000000
000100
000100
000000
000000
,
001000
001000
000000
000000
100000
001000
100000
000000
000001
001000
000002
000000
000000
000000
000000
000000
,
010003
001010
000010
100100
,
010000
000101
100000
011000
,
000100
100001
001000
010010
,
001000
110000
000100
001010
,
000001
011000
100000
100010
,
001000
010001
000001
100100
,
010000
001010
000100
001100
,
100000
000101
000010
001100
,
010000
010001
100000
000110
,
001000
010100
000001
010010
,
200002
000000
000000
300003
,
000100
010000
000010
000010
000100
000001
001000
001000
,
000100
100000
000010
001000
000010
000010
001000
010000
,
000010
000001
100000
000100
000010
001000
010000
000100
,
000010
010000
000010
100000
000001
000100
010000
001000
,
100000
000010
000100
000001
010000
001000
100000
000100
,
000100
000001
010000
000010
010000
100000
000010
000100
,
001000
000001
001000
000010
000001
000000
000000
000010
,
000000
000000
000100
000000
000000
001000
000000
000000
,
010000
000000
000000
100000
000000
000000
000001
000000
,
000000
000010
000000
000000
000100
000000
000000
001000
,
000000
000000
010000
000000
000000
100000
000000
000000
,
000001
000000
000000
000010
000000
000000
000100
000000
,
000000
001000
000000
000000
010000
000000
000000
100000
,
000000
000000
000001
000000
000000
000010
000000
000000
,
000100
000000
000000
001000
000000
000000
010000
000000
,
000000
100000
000000
000000
000001
000000
000000
000010
,
000000
000000
000100
000000
000000
001000
000000
000000
,
010000
000000
000000
100000
000000
000000
000001
000000
,
000000
000010
000000
000000
000100
000000
000000
001000
,
000000
000000
010000
000000
000000
100000
000000
000000
,
000001
000000
000000
000010
000000
000000
000100
000000
,
000000
001000
000000
000000
010000
000000
000000
100000
,
000000
000000
000010
000100
000010
000000
010000
001000
010000
000000
000001
001000
000001
000000
100000
000100
,
100000
000000
010000
000010
010000
000000
000100
001000
000100
000000
010000
001000
100000
000100
001000
000010
,
010000
000000
000001
000100
000001
000000
010000
001000
010000
000000
000010
001000
000010
000000
100000
000100
,
100000
000000
000001
100000
000001
000000
010000
000010
010000
000000
000010
000100
000001
010000
000100
010000
,
001000
020020
000000
000000
000000
000000
000000
000000
,
000000
000000
000000
000000
,
030030
000000
000000
000000
,
000000
002200
000000
000000
000000
000000
000000
000000
000000
003300
000000
000000
;

//---------------dance-solo - ----------------
#NOTEDATA:;
#CHARTNAME:;
#STEPSTYPE:dance-solo;
#DESCRIPTION:;
#CHARTSTYLE:;
#DIFFICULTY:Hard;
#METER:18;
#RADARVALUES:0.808971,1.058235,0.116587,0.208191,1.332423,680.000000,666.000000,14.000000,25.000000,0.000000,0.000000,0.000000,0.000000,0.000000,0.808971,1.058235,0.116587,0.208191,1.332423,680.000000,666.000000,14.000000,25.000000,0.000000,0.000000,0.000000,0.000000,0.000000;
#CREDIT:;
#DISPLAYBPM:1.000000:999.000000;
#NOTES:
000000
000000
000000
000000
,
020020
000000
000000
000000
,
000000
000030
002000
000000
,
000000
000000
000000
003000
,
030100
101000
000100
001010
,
000100
011000
000100
001001
,
100000
000100
100000
000100
001000
000010
001000
000010
000100
000001
000100
000001
010000
001000
010000
001000
,
100000
000010
100000
000010
000100
001000
000100
001000
000200
000000
020300
000000
032000
000000
203000
000000
,
300001
000100
000001
000100
001000
010000
001000
010000
000100
100000
000100
100000
000010
000100
000010
000100
,
000001
000000
000000
001000
000000
000000
000001
000000
000000
001000
000000
000000
000010
000000
000000
010000
000000
000000
000010
000000
000000
010000
000000
000000
000200
000000
000000
000000
000000
000000
002300
000000
000000
000000
000000
000000
003002
000000
000000
000000
000000
000000
000000
000000
010003
000000
000000
001000
,
000000
000000
010000
000000
000000
001000
000000
000000
000001
000000
000000
100000
000000
000000
000001
000000
000000
100000
000000
000000
000100
000000
000000
001000
000000
000000
000100
000000
000000
001000
000000
000000
000010
000000
000000
100000
000000
000000
000010
000000
000000
100000
000000
000000
000001
000000
000000
010000
,
000000
000000
000001
000000
000000
010000
000000
000000
001000
000000
000000
000100
000000
000000
001000
000000
000000
000100
000000
000000
200000
000000
000000
000000
000000
000000
300020
000000
000000
000000
000000
000000
000230
000000
000000
000000
000000
000000
000302
000000
000000
000000
000000
000000
010003
000000
000000
000100
,
000000
000000
010000
000000
000000
000100
000000
000000
100000
000000
000000
000010
000000
000000
100000
000000
000000
000010
000000
000000
000100
000000
000000
000001
000000
000000
000100
000000
000000
000001
000000
000000
001000
000000
000000
100000
000000
000000
001000
000000
000000
100000
000000
000000
000100
000000
000000
000010
,
000000
000000
000100
000000
000000
000010
000000
000000
010000
000000
000000
000001
000000
000000
010000
000000
000000
000001
000000
000000
001000
000000
000000
000000
000000
000000
001100
000000
000000
000000
000000
000000
000100
000000
000000
000000
000000
000000
001100
000000
000000
000000
000000
000000
020020
000000
000000
000000
,
000000
000000
000000
000000
000000
000000
000000
000000
000000
000000
000000
000000
000000
000000
000000
000000
000000
000000
000000
000000
000000
000000
000000
000000
000000
000000
000000
000000
000000
000000
000000
000000
000000
000000
000000
000000
000030
000000
000000
000000
000000
000000
000000
000000
030001
000000
000000
000010
,
000000
000000
000100
000000
000000
000010
000000
000000
000001
000000
000000
010000
000000
000000
000100
000000
000000
010000
000000
000000
000001
000000
000000
000010
000000
000000
000100
000000
000000
000010
000000
000000
000001
000000
000000
010000
000000
000000
000100
000000
000000
010000
000000
000000
000001
000000
000000
000010
,
000000
000000
000100
000000
000000
000010
000000
000000
000001
000000
000000
010000
000000
000000
000100
000000
000000
010000
000000
000000
001000
000000
000000
100000
000000
000000
000001
000000
000000
000000
000000
000000
000100
000000
000000
000001
000000
000000
010000
000000
000000
000000
000000
000000
100000
000000
000000
000010
,
000000
000000
000100
000000
000000
000010
000000
000000
100000
000000
000000
010000
000000
000000
000100
000000
000000
010000
000000
000000
100000
000000
000000
000010
000000
000000
000100
000000
000000
000010
000000
000000
100000
000000
000000
010000
000000
000000
000100
000000
000000
010000
000000
000000
100000
000000
000000
000010
,
000000
000000
000100
000000
000000
000010
000000
000000
100000
000000
000000
010000
000000
000000
000100
000000
000000
010000
000000
000000
000001
000000
000000
100000
000000
000000
000100
000000
000000
010000
000000
000000
000010
000000
000000
000000
000000
000000
000000
000000
001000
000000
000000
000010
000000
000000
000100
000000
,
000000
000010
000000
000000
001000
000000
000000
010000
000000
000000
000100
000000
000000
010000
000000
000000
001000
000000
000000
000010
000000
000000
000100
000000
000000
000010
000000
000000
001000
000000
000000
010000
000000
000000
000100
000000
000000
010000
000000
000000
001000
000000
000000
000010
000000
000000
000100
000000
,
000000
000010
000000
000000
001000
000000
000000
010000
000000
000000
000100
000000
000000
010000
000000
000000
000010
000000
000000
100000
000000
000000
001000
000000
000000
000000
000000
000000
010000
000000
000000
000100
000000
000000
000001
000000
000000
000000
000000
000000
010000
000000
000000
000001
000000
000000
001000
000000
,
000000
000001
000000
000000
010000
000000
000000
000010
000000
000000
001000
000000
000000
000010
000000
000000
010000
000000
000000
000001
000000
000000
001000
000000
000000
000001
000000
000000
010000
000000
000000
000010
000000
000000
001000
000000
000000
000010
000000
000000
010000
000000
000000
000001
000000
000000
001000
000000
,
000000
000001
000000
000000
010000
000000
000000
000010
000000
000000
001000
000000
000000
000010
000000
000000
100000
000000
000000
000001
000000
000000
000100
000000
000000
000010
000000
000000
010000
000000
000000
001000
000000
000000
100000
000000
000000
000001
000000
000000
000000
000000
001000
000000
000000
000000
000000
000000
,
000010
010000
000100
010000
100000
001000
000010
000100
,
001000
010000
000100
000010
100000
000001
000100
010000
,
001000
000010
010000
000010
000001
001000
100000
000100
,
001000
010000
000100
000010
001000
000100
100000
000001
,
002200
000000
000000
000000
,
000000
000000
003000
200000
,
000000
000000
000000
000000
000000
000000
000000
000000
000300
000000
000000
000000
300100
000100
001000
001000
,
000010
000010
010000
010000
000001
000001
000100
000100
000010
000010
100000
100000
010000
010000
100000
100000
,
000001
000001
001000
001000
000010
000100
000010
010000
001000
100000
000001
010000
000100
000100
100000
100000
,
000010
000010
010000
010000
001000
001000
100000
100000
000001
000001
000100
000100
000001
000001
000010
000010
,
100000
100000
001000
001000
100000
000001
000100
000010
001000
000100
200000
000000
000000
000000
000000
000000
,
300100
010000
000100
100000
000010
000100
000001
001000
,
100000
000100
001000
000001
000100
010000
100000
000010
,
100000
001000
000010
010000
000010
000001
010000
001000
,
100000
000010
010000
001000
000010
100000
010000
000001
,
000010
000100
010000
001000
000100
100000
000010
010000
,
100000
001000
000010
100000
000100
000001
010000
001000
,
100000
000100
001000
000010
001000
000001
000100
000010
,
010000
100000
001000
000010
000001
010000
001000
100000
,
000010
001000
000100
010000
000010
000100
000001
100000
,
010000
100000
001000
000100
000010
000001
010000
001000
,
020020
000000
000000
000030
,
030100
010000
001000
100000
000010
010000
000100
100000
000100
000010
000001
010000
000100
010000
100000
001000
,
000010
000001
001000
100000
000100
000100
010000
000100
000010
000001
010000
000100
100000
001000
010000
010000
,
000100
000010
001000
100000
000001
000010
001000
100000
010000
001000
000010
010000
100000
000010
010000
000001
,
000100
001000
000010
010000
001000
100000
000100
000010
000001
000100
010000
000100
100000
001000
000010
000001
,
001000
000100
010000
001000
100000
001000
010000
000100
000010
001000
100000
000100
000001
001000
010000
001000
,
000010
100000
010000
001000
000100
000010
100000
001000
000100
000010
000001
010000
001000
000100
100000
000100
,
000010
000001
010000
001000
100000
000100
000001
000001
000001
000000
000000
000000
000010
000000
000000
000000
,
000100
001000
010000
100000
,
000001
000010
000100
001000
,
010000
100000
000001
000010
,
000100
001000
010000
100000
,
000001
000010
000100
001000
,
010000
100000
000001
000010
,
000100
001000
010000
100000
,
000001
000010
000100
001000
,
010000
100000
000001
000010
,
000100
001000
010000
100000
,
000001
000010
000100
001000
,
010000
100000
000001
000010
,
000100
001000
010000
100000
,
000001
000010
000100
001000
,
010000
100000
100001
010010
,
000000
000000
100000
100000
100000
100000
000100
000100
000100
000100
001000
001000
001000
001000
000010
000010
,
000010
000010
010000
010000
010000
010000
000001
000001
000001
000001
001000
001000
000100
000100
100000
100000
,
000001
000001
000100
000100
000100
000100
001000
001000
001000
001000
000010
000010
000010
000010
100000
100000
,
100000
100000
000001
000001
000001
000001
010000
010000
010000
010000
000010
000010
001000
001000
000001
000001
,
100000
100000
200002
000000
000000
000000
000000
000000
000000
000000
000000
000000
000003
000000
000000
000000
,
000010
000010
000010
000010
,
000010
000010
000010
300010
,
000000
001200
000000
001000
000000
001000
000000
001000
000000
001300
000000
000000
;

//---------------dance-solo - ----------------
#NOTEDATA:;
#CHARTNAME:;
#STEPSTYPE:dance-solo;
#DESCRIPTION:;
#CHARTSTYLE:;
#DIFFICULTY:Challenge;
#METER:20;
#RADARVALUES:1.109956,1.556228,0.116587,0.116587,2.056928,933.000000,919.000000,14.000000,14.000000,0.000000,0.000000,0.000000,0.000000,0.000000,1.109956,1.556228,0.116587,0.116587,2.056928,933.000000,919.000000,14.000000,14.000000,0.000000,0.000000,0.000000,0.000000,0.000000;
#CREDIT:;
#DISPLAYBPM:1.000000:999.000000;
#NOTES:
000000
000000
000000
000000
,
020020
000000
000000
000000
,
000000
000030
002000
000000
,
000000
000000
000000
003000
,
030100
011000
000100
001001
,
000100
101000
000100
001010
,
100000
001000
100000
001000
000000
000000
000100
000001
000100
000001
000000
000000
010000
001000
010000
001000
000000
000000
000010
000100
000010
000100
000000
000000
,
000001
000000
100000
000000
000001
000000
100000
000000
000000
000000
000000
000000
000010
000000
010000
000000
000010
000000
010000
000000
000000
000000
000000
000000
000100
000000
000000
001000
000000
000000
000010
000000
000000
010000
000000
000000
001000
000000
000000
010000
000000
000000
000001
000000
000000
100000
000000
000000
,
000010
001000
000010
001000
000000
000000
000100
100000
000100
100000
000000
000000
010000
000001
010000
000001
000000
000000
000010
000100
000010
000100
000000
000000
,
000001
000000
100000
000000
000001
000000
100000
000000
000000
000000
000000
000000
000100
000000
010000
000000
000100
000000
010000
000000
000000
000000
000000
000000
000100
000000
000000
100000
000000
000000
000001
000000
000000
000100
000000
000000
000010
000000
000000
010000
000000
000000
001000
000000
010000
000000
000001
000000
,
010000
000001
000000
000000
001000
000100
001000
000100
000000
000000
100000
001000
100000
001000
000000
000000
010000
000010
010000
000010
000000
000000
100000
000100
,
100000
000000
000100
000000
000000
000000
000000
000000
000001
000000
000010
000000
000001
000000
000010
000000
000000
000000
000000
000000
001000
000000
000000
000100
000000
000000
100000
000000
000000
001000
000000
000000
010000
000000
000000
000001
000000
000000
000010
000000
000000
001000
000000
000000
010000
000000
000010
000000
,
010000
000010
000000
000000
100000
000001
100000
000001
000000
000000
001000
000100
001000
000100
000000
000000
010000
001000
010000
001000
000000
000000
100000
000010
,
100000
000000
000010
000000
000000
000000
000000
000000
000100
000000
000001
000000
000100
000000
000001
000000
000000
000000
000000
000000
010000
000000
000000
000010
000000
000000
000100
000000
000000
001000
000000
000000
100000
000000
000000
000010
000000
000000
001000
000000
000000
000001
000000
000000
200002
000000
000000
000000
,
000000
000000
000000
000000
000000
000000
000000
000000
000000
000000
000000
000000
000000
000000
000000
000000
000000
000000
000000
000000
000000
000000
000000
000000
000000
000000
000000
000000
000000
000000
000000
000000
000000
000000
000000
000000
000000
000000
000000
000003
000000
000000
000000
000000
300010
000000
000100
000000
,
000001
010000
000000
000000
001000
100000
000010
010000
000000
000000
000001
000100
100000
000010
000000
000000
010000
001000
100000
000001
000000
000000
000100
000010
,
001000
000001
000000
000000
100000
000100
100000
001000
000000
000000
010000
000000
010000
000010
000000
000010
000100
000000
000100
000001
000000
000001
100000
000010
,
001000
010000
000000
000000
000001
000100
000010
100000
000000
000000
010000
100000
000100
001000
000000
000000
000001
010000
000010
000001
000000
000000
001000
000100
,
100000
000010
000000
000000
010000
001000
000001
000100
000000
000000
010000
000000
010000
000001
000000
000001
100000
000000
000000
100000
000010
100000
010000
000010
,
000000
000000
000001
010000
001000
000100
000000
000000
001000
100000
000100
010000
000000
000000
000001
000010
100000
000100
000000
000000
001000
000001
000010
001000
,
000000
000000
010000
000001
100000
000100
000000
000000
001000
000000
001000
000100
000000
000100
010000
000000
010000
000010
000000
000010
000100
000001
100000
010000
,
000000
000000
000100
001000
000010
000100
000000
000000
000001
100000
010000
000010
000000
000000
010000
000001
001000
000001
000000
000000
100000
000100
010000
001000
,
000000
000000
000000
000000
000010
000000
001000
000000
000010
000000
100000
000000
000000
000000
000000
000000
001000
000000
000000
000000
001000
000000
010000
000000
000000
000000
010000
000000
000001
000000
000000
000000
000001
000000
000000
000000
100000
000000
000000
000000
000000
000000
000010
000000
000000
010000
000000
000000
,
000010
010000
000010
010000
000010
010000
000010
010000
000010
010000
000010
010000
000010
010000
000010
010000
,
000010
010000
000010
010000
000010
010000
000010
010000
000010
010000
000010
010000
000010
010000
000010
010000
,
000010
010000
000010
010000
000010
010000
000010
010000
000010
010000
000010
010000
000010
010000
000010
010000
,
000010
010000
000010
010000
000010
010000
000010
010000
000010
010000
000010
010000
000010
010000
000010
010000
,
020020
000000
000000
000000
,
000000
000000
030000
200000
,
000000
000000
000000
000000
000000
000000
000000
000000
000000
000000
000000
000000
000030
000000
000000
000000
000000
000000
301000
001000
001000
001000
000000
000000
,
100000
100000
100000
100000
000000
000000
000010
000010
000010
000010
000000
000000
000100
000100
000100
000100
000000
000000
000001
000001
000001
000001
000000
000000
,
010000
010000
010000
010000
000000
000000
000010
100000
001000
100000
000100
001000
000010
010000
000001
100000
000000
000000
001000
001000
001000
001000
000000
000000
,
010000
010000
010000
010000
000000
000000
000001
000001
000001
000001
000000
000000
100000
100000
100000
100000
000000
000000
000010
000010
000010
000010
000000
000000
,
000100
000100
000100
000100
000000
000000
010000
001000
100000
000100
001000
000010
100000
000001
010000
000200
000000
000000
000000
000000
000000
000000
000000
000000
,
100300
000100
001000
000010
010000
000100
010000
000001
000010
000100
010000
100000
001000
000100
100000
000010
,
000001
001000
000010
100000
000100
010000
000100
000010
001000
010000
001000
000010
000001
010000
100000
001000
,
000100
000010
010000
000100
100000
000001
010000
001000
000100
010000
100000
000010
100000
000100
010000
001000
,
000010
001000
000001
100000
001000
000100
010000
000001
000010
001000
100000
000010
000100
000001
001000
100000
,
001000
000010
100000
001000
000010
000100
010000
000010
000001
010000
001000
000010
100000
000100
001000
000010
,
010000
100000
000100
010000
000100
000001
001000
000100
010000
100000
010000
001000
000100
000010
010000
100000
,
000100
010000
001000
000001
000010
100000
001000
010000
000100
000010
100000
001000
010000
000010
000001
000100
,
001000
010000
001000
000010
100000
000001
000010
001000
010000
000010
001000
100000
000100
010000
001000
000010
,
000001
001000
100000
001000
000010
000100
010000
000001
100000
000100
000010
010000
000100
100000
000100
000010
,
000001
010000
100000
010000
000100
001000
000010
000001
000100
001000
010000
000010
000100
000010
000001
010000
,
200002
000000
000000
300000
,
000103
000000
000000
000000
000000
000000
000000
000000
000000
000000
000000
000000
000000
000000
000010
000000
000000
010000
000000
000000
000000
000000
000000
000000
000000
000000
000000
000000
001000
000000
000000
000000
000000
000000
000000
000000
100000
000000
000000
000000
000000
000000
000000
000000
000000
000000
000000
000000
000000
000000
000010
000000
000000
000000
000000
000000
000000
000000
000000
001000
000000
000000
000100
000000
000000
000000
000000
100000
000000
000000
000000
000000
000000
000000
000000
000000
000000
010000
000000
000000
000000
000000
000000
000000
000000
000000
000000
000000
000000
000000
000000
000000
000000
000000
000000
000000
000010
000000
000000
000000
000000
000000
000000
000000
000000
000000
000000
000000
000000
000000
000000
000000
000000
000000
000000
000000
000000
000000
000000
000000
001000
000000
000000
000000
000000
000000
000000
000000
000000
000000
000000
000000
000000
000000
000000
000000
000000
000000
000001
000000
000000
000000
000000
000000
000000
000000
000000
000000
000000
000000
010000
000000
000000
000000
000000
000000
100000
000000
000000
000000
000000
000000
000100
000000
000000
000000
000000
000000
000000
000000
000000
000000
000000
000000
000000
000000
000000
000000
000000
000000
000000
000000
000000
000000
000000
000000
000000
000000
000000
000000
000000
000000
,
000000
000000
000000
000000
001000
000000
000000
000000
000000
000000
000000
000000
000000
000000
000000
000000
000100
000000
000000
000000
000000
000000
000000
000000
000000
000000
000000
000000
000000
000000
000000
000000
100000
000000
000000
000000
000000
000000
000000
000000
000000
000000
000000
000000
000000
000000
000000
000000
000000
000000
000000
000000
000000
000000
000000
000000
000000
000000
000000
000000
000000
000000
000000
000000
000000
000000
001000
000000
000000
000000
000000
000000
000000
000000
000000
000000
000000
000000
000000
000000
000100
000000
000000
000000
000000
000000
000000
000000
000000
000000
000000
000000
000000
000000
000000
000000
000000
000000
000000
000000
000000
000000
000000
000000
000000
000000
000000
000000
010000
000000
000000
000000
000000
000000
000000
000000
000000
000000
000000
000000
000000
000000
000000
000000
000000
000000
000000
000000
000000
000000
000000
000000
100000
000000
000000
000000
000000
000000
000000
000000
000000
000000
000000
000000
000100
000000
000000
000000
000000
000000
000000
000000
000000
000000
000000
000000
000010
000000
000000
000000
000000
000000
000000
000000
000000
000000
000000
000000
000001
000000
000000
000000
000000
000000
000000
000000
000000
000000
000000
000000
000000
000000
000000
000000
010000
000000
000000
000000
000100
000000
000000
000000
,
000010
000000
000000
000000
000000
000000
000000
000000
000000
000000
000000
000000
001000
000000
000000
000000
000000
000000
000000
000000
001000
000000
000000
000000
000000
000000
000000
000000
000000
000000
000000
000000
000000
000000
000000
000000
000000
000000
000000
000000
000000
000000
000000
000000
000000
000000
000000
000000
000100
000000
000000
000000
000000
000000
000000
000000
000000
000000
000000
000000
100000
000000
000000
000000
000000
000000
000000
000000
000000
000000
000000
000000
000000
000000
000000
000000
000100
000000
000000
000000
000000
000000
000000
000000
001000
000000
000000
000000
000000
000000
000000
000000
000000
000000
000000
000000
000000
000000
000000
000000
000000
000000
000000
000000
000000
000000
000000
000000
000000
000000
000000
000000
000000
000000
000000
000000
000000
000000
000000
000000
000001
000000
000000
000000
000000
000000
000000
000000
000000
000000
000000
000000
000000
000000
000000
001000
000000
000000
000000
000000
000000
000000
000000
000000
000000
000000
000000
000000
000000
000000
000000
000000
000000
000000
000000
010000
000000
000000
000000
000000
000000
000000
000000
000000
000000
000000
000000
000000
000000
000000
000000
000000
000100
000000
000000
000000
000000
000000
000000
000000
000000
000000
000000
000000
100000
000000
000000
010000
000000
000000
000000
000000
,
000001
000000
000000
000000
000000
010000
000000
000000
000100
000000
000000
000000
000000
100000
000000
000000
000000
000000
000000
000000
000000
000000
000000
000000
000000
000000
000000
000000
000000
000000
000000
000000
000000
000000
000000
000000
000000
000000
000000
000000
000000
000000
000000
000000
001000
000000
000000
000000
000000
000000
000000
000000
000000
000000
000000
000000
000010
000000
000000
000000
000000
000000
000000
000000
000000
000000
000000
000000
010000
000000
000000
000000
000000
000000
000000
000000
000000
000000
000100
000000
000000
000000
000000
000000
000000
000000
000000
000000
000000
000000
000000
000000
000000
000000
000000
000000
000000
000000
000000
000010
000000
000000
000000
000000
000000
000000
000000
000000
100000
000000
000000
000000
000000
000000
000000
000000
000000
010000
000000
000000
000000
000000
000000
000000
000000
000000
000000
000000
000000
000000
000000
000000
000000
000000
000000
000000
000000
000000
000000
000000
000000
000000
000000
000000
000001
000000
000000
000000
000000
000000
000000
000000
000000
000010
000000
000000
000000
000000
000000
100000
000000
000000
010000
000000
000000
001000
000000
000000
000000
000000
000000
000000
000000
000000
000000
000000
000000
000000
000000
000000
000010
000000
000000
000000
000000
000000
000000
000000
000000
000000
000000
000000
,
000000
000000
000000
000000
000000
000000
000000
000000
000000
000000
000000
000000
000100
000000
000000
000000
000000
000000
000000
000000
000000
000000
000000
000000
000000
000000
000000
000000
000000
000000
000001
000000
000000
000000
000000
000000
000000
000000
000000
000000
000000
000000
000000
000000
000000
000000
000000
000000
100000
000000
000000
000000
000000
000000
000000
000000
000000
000000
000000
000000
000000
000000
000000
000000
000000
000000
000100
000000
000000
000000
000000
000000
000000
000000
000000
000000
000000
000000
000000
000000
000000
000000
000000
000000
000000
000000
000000
000000
000000
000000
010000
000000
000000
000000
000000
000000
000000
000000
000000
000000
000000
000000
000000
000000
000000
000001
000000
000000
000000
000000
000000
000000
001000
000000
000000
000000
000000
000000
000000
000000
000010
000000
000000
000000
000000
000000
000000
000000
000000
000000
000000
000000
010000
000000
000000
000000
000000
000000
000000
000000
000000
000000
000000
000000
010000
000000
000000
000000
000000
000000
000000
000000
000000
000000
000000
000000
000010
000000
000000
000000
000000
000000
000000
000000
000000
000000
000000
000000
000100
000000
000000
000000
000000
000000
000000
000000
000000
000000
000000
000000
000001
000000
000000
000000
000000
000000
000000
000000
000000
000000
000000
000000
,
100000
000000
000000
000000
000000
000000
000000
000000
000000
000000
000000
000000
000000
000000
000000
000000
010000
000000
000000
000000
000000
000000
000000
000000
000000
000000
000000
000000
000000
000000
000000
000000
000010
000000
000000
000000
000000
000000
000000
000000
010000
000000
000000
000000
000100
000000
000000
000000
000000
000000
000000
000000
000000
000000
000000
000000
000000
000000
000000
000000
000000
000000
000000
000000
000000
000000
000000
000000
000000
000000
000000
000000
000000
000000
000000
000000
001000
000000
000000
000000
000000
000000
000000
000000
000001
000000
000000
000000
000000
000000
000000
000000
000100
000000
000000
000000
000000
000000
000000
000000
000000
000000
000000
000000
000000
000000
000000
000000
000000
000000
000000
000000
000000
000000
000000
000000
000000
010000
000000
000000
000000
000000
000000
000000
000000
000000
000000
000000
000000
000000
000000
000000
000000
000000
000000
000000
000000
000000
000100
000000
000000
000000
000000
000000
000000
000000
000000
000000
000000
000000
000000
000000
000000
000001
000000
000000
000000
000000
000000
001000
000000
000000
000000
000000
000000
000000
000000
000000
000000
000000
000000
000000
000000
000000
000000
000000
100000
000000
000000
000000
000000
000000
000000
000000
000000
000000
000000
000000
000000
000000
000000
000000
,
000000
000000
000000
000000
000100
000000
000000
000000
000000
000000
000000
000000
000000
000000
000000
000000
000000
000000
000000
000000
000000
000000
000000
000000
000000
000000
000000
000000
000000
000000
010000
000000
000000
000010
000000
000000
000000
000000
000000
000000
000100
000000
000000
000000
000000
000000
000000
000000
000000
000000
000000
000000
000001
000000
000000
000000
100000
000000
000000
000000
000000
000000
000000
000000
000000
000000
000000
001000
000000
000000
000000
000000
000010
000000
000000
000000
010000
000000
000000
000000
000010
000000
000000
000000
010000
000000
000000
000000
000010
000000
000000
000000
010000
000000
000000
000000
000001
000000
000000
000000
000000
000000
000000
000000
000000
000000
000000
000000
000000
000000
000000
000000
000000
000000
000000
000000
000000
000000
000000
000000
000010
000000
000000
000000
000000
000000
000000
000000
000000
000000
000000
000000
000000
000000
000000
000000
000000
000000
000000
000000
000000
000000
000000
000000
000100
000000
000000
000000
000000
000000
000000
000000
000000
000000
000000
000000
000000
000000
000000
000000
000000
000000
000000
000000
000000
000000
000000
000000
001000
000000
000000
000000
000000
000000
000000
000000
000000
000000
000000
000000
000000
000000
000000
000000
000000
000000
000000
000000
000000
000000
000000
000000
,
010000
100000
000001
000010
000100
001000
010000
100000
,
000001
000010
000100
001000
010000
100000
000001
000010
,
000100
001000
010000
100000
000001
000010
000100
001000
,
010000
100000
000001
000010
000100
001000
010000
100000
,
000001
000010
000100
001000
010000
100000
000001
000010
,
000100
001000
010000
100000
000001
000010
000100
001000
,
010000
100000
000001
000010
000100
001000
010000
100000
,
000001
000010
000100
001000
010000
100000
000001
000010
,
000100
001000
010000
100000
000001
000010
000100
001000
,
010000
100000
000001
000010
000100
001000
010000
100000
,
000001
000010
000100
001000
010000
100000
000001
000010
,
000100
001000
010000
100000
000001
000010
000100
001000
,
010000
100000
000001
000010
000100
001000
010000
100000
,
000001
000010
000100
001000
010000
100000
000001
000010
,
000100
001000
010000
100000
100001
001100
100001
001100
,
000000
000000
000000
100000
010000
000100
001000
000001
000100
010000
100000
001000
000010
000100
010000
000100
000001
000010
001000
010000
000010
000100
100000
001000
,
000010
000001
010000
001000
100000
000100
000010
000100
100000
000001
010000
001000
000010
000100
100000
001000
000100
010000
100000
001000
000100
000010
000001
010000
,
000100
000010
010000
100000
010000
001000
000100
000001
100000
010000
001000
000010
100000
000100
000001
001000
010000
000010
000100
100000
000100
001000
010000
000010
,
000001
000100
000010
001000
000100
001000
010000
100000
010000
001000
000100
000010
000001
010000
000100
000010
001000
100000
000010
010000
000001
000010
000001
000100
,
001000
100000
000001
200002
000000
000000
000000
000000
000000
000000
000000
000000
000000
000000
000000
000000
000000
000000
000003
000000
000000
000000
000000
000000
,
300010
010000
000010
010000
000010
010000
000010
010000
000010
010000
000010
010000
000010
010000
000010
010000
,
000010
010000
000010
010000
000010
010000
000010
010000
000010
010000
000010
010000
000010
010000
000010
010000
,
000000
001200
001000
001000
001000
001000
001000
001000
001000
001300
000000
000000
;

//---------------dance-solo - ----------------
#NOTEDATA:;
#CHARTNAME:;
#STEPSTYPE:dance-solo;
#DESCRIPTION:;
#CHARTSTYLE:;
#DIFFICULTY:Beginner;
#METER:5;
#RADARVALUES:0.173691,0.311246,0.058293,0.016655,0.166553,146.000000,139.000000,7.000000,2.000000,0.000000,0.000000,0.000000,0.000000,0.000000,0.173691,0.311246,0.058293,0.016655,0.166553,146.000000,139.000000,7.000000,2.000000,0.000000,0.000000,0.000000,0.000000,0.000000;
#CREDIT:;
#DISPLAYBPM:1.000000:999.000000;
#NOTES:
000000
000000
000000
000000
,
010010
000000
000000
000000
,
000000
000000
000000
000000
,
000000
000000
000000
000000
,
000010
000000
000010
000000
,
000010
000000
000010
000000
,
010000
000000
000010
000000
,
010000
000000
001000
001000
,
010000
000000
000010
000000
,
010000
000000
000000
000000
000000
000000
000010
000000
000000
001000
000000
000010
,
000000
000000
000000
000000
000000
001000
000000
000000
000000
000000
000000
000010
,
000000
000000
000000
000000
000000
010000
000000
000000
010000
000000
000000
001000
,
000000
000000
000000
000000
000000
010000
000000
000000
000000
000000
000000
000010
,
000000
000000
000000
000000
000000
010000
000000
000000
000010
000000
000000
010010
,
000000
000000
000000
000000
000000
000000
000000
000000
000000
000000
000000
000010
,
000000
000000
000010
000000
000000
000010
000000
000000
000000
000000
000000
010000
,
000000
000000
010000
000000
000000
000010
000000
000000
001000
000000
000000
000010
,
000000
000000
000010
000000
000000
000010
000000
000000
000000
000000
000000
001000
,
000000
000000
000010
000000
000000
010000
000000
000000
000010
000000
001000
000000
,
000000
001000
000000
000000
001000
000000
000000
000000
000000
000000
000010
000000
,
000000
010000
000000
000000
000010
000000
000000
001000
000000
000000
000010
000000
,
000000
010000
000000
000000
010000
000000
000000
000000
000000
000000
001000
000000
,
000000
000000
010000
000000
000000
000000
000000
000000
000010
000000
000000
000000
000000
000000
001000
000000
000000
000000
000000
000000
000000
000020
000000
000000
,
000000
000000
000000
000000
,
000000
000000
000000
000000
,
000000
000000
000000
000000
,
000030
000000
000000
000000
,
010010
000000
000000
000000
,
000000
000000
000000
000000
,
000000
000000
000000
010000
,
010000
000010
000010
001000
,
000000
000010
010000
000010
,
000010
001000
001000
000010
,
010000
000000
000010
000000
000000
010010
000000
000000
,
010000
000000
010000
000000
,
001000
000000
001000
000000
,
010000
000000
000010
000000
,
000010
000000
000010
000000
,
001000
000000
001000
000000
,
000010
000000
010000
000000
,
001000
000000
010000
000000
,
010000
000000
001000
000000
,
010000
000000
000010
000000
,
010000
000000
000010
000000
,
010010
000000
000000
000000
,
010000
000000
010000
000000
,
000010
000000
000010
000000
,
010000
000000
000010
000000
,
001000
000000
000010
000000
,
001000
000000
010000
000000
,
010000
000000
001000
000000
,
010000
000000
000010
000000
,
000000
000000
001000
000000
,
000000
000000
010000
000000
,
000000
000000
000010
000000
,
000000
000000
001000
000000
,
000000
000000
010000
000000
,
000000
000000
000010
000000
,
000000
000000
001000
000000
,
000000
000000
010000
000000
,
000000
000000
000010
000000
,
000000
000000
001000
000000
,
000000
000000
010000
000000
,
000000
000000
000010
000000
,
000000
000000
001000
000000
,
000000
000000
010000
000000
,
000000
000000
010010
000000
,
000000
010000
000000
010000
000000
000010
000000
000010
,
000000
010000
000000
001000
000000
010000
000000
000010
,
000000
001000
000000
001000
000000
000010
000000
000010
,
000000
010000
000000
001000
000000
010000
000000
000010
,
000000
010010
000000
000000
000000
000000
000000
000000
,
000000
000000
000000
000000
,
000000
000000
000000
000000
,
000000
002000
000000
000000
000000
000000
000000
000000
000000
003000
000000
000000
;

//---------------dance-double - ----------------
#NOTEDATA:;
#CHARTNAME:;
#STEPSTYPE:dance-double;
#DESCRIPTION:;
#CHARTSTYLE:;
#DIFFICULTY:Easy;
#METER:10;
#RADARVALUES:0.329537,0.560242,0.249829,0.074949,0.253993,277.000000,247.000000,30.000000,9.000000,0.000000,0.000000,0.000000,0.000000,0.000000,0.329537,0.560242,0.249829,0.074949,0.253993,277.000000,247.000000,30.000000,9.000000,0.000000,0.000000,0.000000,0.000000,0.000000;
#CREDIT:;
#DISPLAYBPM:1.000000:999.000000;
#NOTES:
00000000
00000000
00000000
00000000
,
00011000
00000000
00000000
00000000
,
00000000
00000000
00000010
00000000
,
00000000
00000000
00000000
00000000
,
10000000
11000000
00010000
01010000
,
00001000
00001010
00000001
00000011
,
00000100
00000001
00000010
00000100
,
00001000
00000000
00000001
00000000
00001000
00000100
00010000
00000100
,
01000000
00010000
00100000
01000000
,
10000000
00000000
00000000
00000000
00000000
00000000
00010000
00000000
00000000
00000000
00000000
00000000
00100000
00000000
00000000
00001000
00000000
00000000
00010000
00000000
00000000
00000000
00000010
00000000
,
00000000
00000000
00001000
00000000
00000000
00000100
00000000
00000000
00000001
00000000
00000000
00001000
,
00000000
00000000
00000000
00000000
00000100
00000000
00000000
00000000
00000000
00000000
00010000
00000000
00000000
00000010
00000000
00000000
00010000
00000000
00000000
00001000
00000000
00000000
00100000
00000000
,
00000000
00000000
01000000
00000000
00000000
10000000
00000000
00000000
00100000
00000000
00000000
01000000
,
00000000
00000000
00000000
00000000
00010000
00000000
00000000
00000000
00000000
00000000
00001000
00000000
00000000
00001000
00000000
00000000
00010000
00000000
00000000
00010000
00000000
00000000
00022000
00000000
,
00000000
00000000
00000000
00000000
00000000
00000000
00000000
00000000
00030000
00000000
00000000
00003001
,
00000000
00000000
00000100
00000000
00000000
00001000
00000000
00000000
00000010
00000000
00000000
00000100
,
00000000
00000000
00000000
00000000
00000001
00000000
00000000
00000000
00000000
00000000
00010000
00000000
00000000
00000100
00000000
00000000
00001000
00000000
00000000
00000001
00000000
00000000
00000100
00000000
,
00000000
00000000
00000010
00000000
00000000
00010000
00000000
00000000
00001000
00000000
00000000
00100000
,
00000000
00000000
00000000
00000000
01000000
00000000
00000000
00000000
00000000
00000000
10000000
00000000
00000000
00100000
00000000
00000000
00010000
00000000
00000000
00000000
00000100
00000000
00000000
00000000
,
00000000
00010000
00000000
00000000
00001000
00000000
00000000
01000000
00000000
00000000
00001000
00000000
,
00000000
00000000
00000010
00000000
00000000
00000000
00000000
00000000
00000001
00000000
00000000
00000100
00000000
00000000
00000010
00000000
00000000
00001000
00000000
00000000
00000010
00000000
00000000
00000000
,
00000000
00010000
00000000
00000000
00000100
00000000
00000000
00000010
00000000
00000000
00000001
00000000
,
00000000
00000000
00000100
00000000
00000000
00000000
00000000
00000000
00000010
00000000
00000000
00100000
00000000
00000000
00001000
00000000
00000000
00010000
00000000
00000000
00000000
01000000
00000000
00000000
,
00000000
00100000
00000000
10000000
00000000
00010000
00000000
00100000
,
00000000
00001000
00000000
00010000
00000000
01000000
00000000
00100000
,
00000000
01000000
00000000
00001000
00000000
00010000
00000000
00000010
,
00000000
00000001
00000000
00000100
00000000
00010000
00000000
00000000
,
00001100
00000000
00000000
00000000
,
00000000
00000000
00000000
10000000
,
00000000
00000000
00000000
00000100
,
00011000
00000010
00000110
00000001
,
00001001
00000000
00000010
00010000
01000000
10000000
00010000
00000000
,
01001000
10000000
01010000
00100000
,
11000000
00000000
10000000
00100000
01000000
00000200
00000000
00000000
,
00010300
00000100
00000010
00000001
,
00000100
00000010
00010000
00000100
,
00000010
00000001
00001000
00000010
,
00010000
00001000
01000000
10000000
,
00010000
00000100
01000000
00100000
,
01000000
00001000
01000000
00010000
,
00100000
00000010
00000001
00001000
,
00000100
00010000
00000010
00000001
,
00010000
00001000
01000000
00001000
,
00100000
10000000
01000000
00001000
,
00022000
00000000
00000000
00003000
,
00030010
00001000
00000100
00000010
,
00000001
00000100
00000010
00001000
,
00000100
00010000
00001000
01000000
,
10000000
00010000
00001000
01000000
,
00100000
10000000
00001000
00010000
,
00000010
00000100
00000010
00010000
,
00000100
00001000
00000001
00000000
,
00000010
00000000
00000100
00000000
,
00001000
00000000
00010000
00000000
,
00100000
00000000
01000000
00000000
,
10000000
00000000
01000000
00000000
,
00100000
00000000
00010000
00000000
,
00001000
00000000
00000100
00000000
,
00000010
00000000
00000001
00000000
,
00000010
00000000
00000100
00000000
,
00001000
00000000
00010000
00000000
,
00100000
00000000
01000000
00000000
,
10000000
00000000
01000000
00000000
,
00100000
00000000
00010000
00000000
,
00001000
00000000
00000100
00000000
,
00000010
00000000
00000001
00000000
,
00000110
00000000
00011000
00000000
,
00000000
10010000
00000000
10010000
00000000
01100000
00000000
01100000
,
00000000
10010000
00000000
01100000
00000000
01000000
00001000
00010000
,
00000010
00000110
00000000
00000110
00000000
00001001
00000000
00001001
,
00000000
00000110
00000000
00001001
00000000
00000001
00001000
00000100
,
00010000
00022000
00000000
00000000
00000000
00000000
00000000
00000000
,
00000000
00000000
00000000
00000000
,
00000000
00000000
00000000
00033000
,
00000000
22000000
00000000
00000000
00000000
00000000
00000000
00000000
00000000
33000000
00000000
00000000
;

//---------------dance-double - ----------------
#NOTEDATA:;
#CHARTNAME:;
#STEPSTYPE:dance-double;
#DESCRIPTION:;
#CHARTSTYLE:;
#DIFFICULTY:Medium;
#METER:15;
#RADARVALUES:0.542486,0.809239,0.483003,0.116587,0.549624,456.000000,398.000000,58.000000,14.000000,0.000000,0.000000,0.000000,0.000000,0.000000,0.542486,0.809239,0.483003,0.116587,0.549624,456.000000,398.000000,58.000000,14.000000,0.000000,0.000000,0.000000,0.000000,0.000000;
#CREDIT:;
#DISPLAYBPM:1.000000:999.000000;
#NOTES:
00000000
00000000
00000000
00000000
,
00022000
00000000
00000000
00000000
,
00000000
00033000
00000020
00000000
,
00000000
00000000
00000000
00000030
,
00000001
00000011
00001000
00001010
,
00010000
01010000
10000000
11000000
,
00100000
01000000
00010000
00100000
00001000
00010000
00001000
01000000
,
00100000
10000000
01000000
00100000
00101000
00101000
00010010
00010010
,
00000001
00000010
00000100
00001000
00000010
00000100
00000001
00010000
,
00001000
00000000
00000000
00000100
00000000
00000000
00000010
00000000
00000000
00000001
00000000
00000000
00000110
00000000
00000000
00001001
00000000
00000000
00010100
00000000
00000000
00000000
01000000
00000000
,
00000000
00010000
00000000
00000000
00100000
00000000
00000000
01000000
00000000
00000000
10000000
00000000
00000000
00001000
00000000
00000000
00100000
00000000
00000000
01000000
00000000
00000000
00100000
00000000
,
00000000
00001000
00000000
00000000
00010000
00000000
00000000
00000010
00000000
00000000
00000110
00000000
00000000
00000110
00000000
00000000
00100010
00000000
00000000
00100010
00000000
00000000
00010000
00000000
,
00000000
00001000
00000000
00000000
00000001
00000000
00000000
00000010
00000000
00000000
00000100
00000000
00000000
00001000
00000000
00000000
00000001
00000000
00000000
00010000
00000000
00000000
00000100
00000000
,
00000000
00000000
00000010
00000000
00000000
00000000
00000000
00000000
00000001
00000000
00000000
00000000
00000000
00000000
00000100
00000000
00000000
00000000
00000000
00000000
00001000
00000000
00000000
00010000
00000000
00000000
00001000
00000000
00000000
00000000
00000000
00000000
00010000
00000000
00000000
00001000
00000000
00000000
00010000
00000000
00000000
00000000
00000000
00000000
02200000
00000000
00000000
00000000
,
00000000
00000000
00000000
00000000
00000000
00000000
00000000
00000000
00000000
00000000
00000000
00000000
00000000
00000000
00000000
00000000
00000000
00000000
00000000
00000000
00000000
00000000
00000000
00000000
00000000
00000000
00000000
00000000
00000000
00000000
00000000
00000000
03000000
00000000
00000000
00000000
00000000
00000000
00000000
00000000
00000000
00000000
00000000
00000000
01300000
00000000
00000000
00001000
,
00000000
00000000
00000000
00000000
00000000
00000000
00000000
00000000
01000000
00000000
00000000
10000000
00000000
00000000
00000000
00000000
00000000
00000000
00000000
00000000
00010000
00000000
00000000
01000000
00000000
00000000
00000000
00000000
00000000
00000000
00000000
00000000
00010000
00000000
00000000
00000100
00000000
00000000
00000000
00000000
00000000
00000000
00000000
00000000
00000001
00000000
00000000
00010000
,
00000000
00000000
00000000
00000000
00000000
00000000
00000000
00000000
00001000
00000000
00000000
10000000
00000000
00000000
00000000
00000000
00000000
00000000
00000000
00000000
11000000
00000000
00000000
00000000
00000000
00000000
01100000
00000000
00000000
00000000
00000000
00000000
00110000
00000000
00000000
00000000
00000000
00000000
00011000
00000000
00000000
00000000
00000000
00000000
00000010
00000000
00000000
00001000
,
00000000
00000000
00000000
00000000
00000000
00000000
00000000
00000000
00100000
00000000
00000000
10000000
00000000
00000000
00000000
00000000
00000000
00000000
00000000
00000000
00010000
00000000
00000000
00100000
00000000
00000000
00000000
00000000
00000000
00000000
00000000
00000000
00010000
00000000
00000000
00000010
00000000
00000000
00000000
00000000
00000000
00000000
00000000
00000000
00000001
00000000
00000000
00000100
,
00000000
00000000
00000000
00000000
00000000
00000000
00000000
00000000
00000010
00000000
00000000
00001000
00000000
00000000
00000000
00000000
00000000
00000000
00000000
00000000
00001001
00000000
00000000
00000000
00000000
00000000
00001010
00000000
00000000
00000000
00000000
00000000
00001100
00000000
00000000
00000000
00000000
00000000
00000000
00000000
01000000
00000000
00000000
00000100
00000000
00000000
00000000
00000000
,
00000000
00000000
00000000
00000000
00001000
00000000
00000000
10000000
00000000
00000000
00000000
00000000
00000000
00000000
00000000
00000000
00100000
00000000
00000000
00000010
00000000
00000000
00000000
00000000
00000000
00000000
00000000
00000000
00010000
00000000
00000000
00000001
00000000
00000000
00000000
00000000
00000000
00000000
00000000
00000000
00010000
00000000
00000000
00001000
00000000
00000000
00000000
00000000
,
00000000
00000000
00000000
00000000
00100000
00000000
00000000
01000000
00000000
00000000
00000000
00000000
00000000
00000000
00000000
00000000
11000000
00000000
00000000
00000000
00000000
00000000
01100000
00000000
00000000
00000000
00000000
00000000
00110000
00000000
00000000
00000000
00000000
00000000
00011000
00000000
00000000
00000000
00000000
00000000
00000010
00000000
00000000
00100000
00000000
00000000
00000000
00000000
,
00000000
00000000
00000000
00000000
00001000
00000000
00000000
10000000
00000000
00000000
00000000
00000000
00000000
00000000
00000000
00000000
00010000
00000000
00000000
00000001
00000000
00000000
00000000
00000000
00000000
00000000
00000000
00000000
00000100
00000000
00000000
01000000
00000000
00000000
00000000
00000000
00000000
00000000
00000000
00000000
00100000
00000000
00000000
01000000
00000000
00000000
00000000
00000000
,
00000000
00000000
00000000
00000000
00001000
00000000
00000000
00010000
00000000
00000000
00000000
00000000
00000000
00000000
00000000
00000000
00011000
00000000
00000000
00000000
00000000
00000000
00001100
00000000
00000000
00000000
00000000
00000000
00000110
00000000
00000000
00000000
00000000
00000000
00000011
00000000
00000000
00000000
00000000
00000000
00000000
00000000
00001000
00000000
00000000
00000000
00000000
00000000
,
00000100
00010000
00001000
00000010
00000100
00000010
00001000
00000100
,
00000010
00000001
00010000
00001000
00100000
01000000
10000000
00001000
,
00010000
00000100
01000000
00100000
01000000
00010000
00100000
00001000
,
00000010
00000100
00001000
00000001
00000010
00010000
00001000
00100000
,
22000000
00000000
00000000
00000000
,
00000000
00000000
33000000
00002000
,
00000000
00000000
00000000
00000000
00000000
00000000
00000000
00000000
00000000
00000000
00000000
00000000
01003000
01000000
00000000
00000000
,
00100000
00100000
00000000
00000000
10000000
10000000
00000000
00000000
00001000
00001000
00000000
00000000
00000010
00000010
00000000
00000000
,
00000001
00000001
00000000
00000000
00000100
00000010
00001000
00000000
00000100
00000010
00000001
00000000
00001000
00001000
00000000
00000000
,
00000100
00000100
00000000
00000000
00010000
00010000
00000000
00000000
01000000
01000000
00000000
00000000
00100000
00100000
00000000
00000000
,
00001000
00001000
00000000
00000000
10000000
00010000
00100000
00000000
00010000
10000000
02000000
00000000
00000000
00000000
00000000
00000000
,
03100000
00101000
00001000
00011000
,
00010000
00010100
00000100
01000100
,
00010000
11000000
00100000
01100000
,
01000000
01001000
00010000
00001100
,
00000001
00001010
00100000
00011000
,
01000000
10010000
00100000
11000000
,
00001000
10010000
01000000
00101000
,
00001000
01001000
00001000
00010010
,
00000100
00010100
00000001
00000110
,
00001000
01100000
01000000
10010000
,
00022000
00000000
00000000
00033000
,
00100000
00010000
01000000
00100000
10000000
00010000
00100000
00010000
,
00000010
00010000
00001000
00000100
00000010
00000001
00000100
00010000
,
00100000
01000000
01000000
00100000
00001000
00000100
00000010
00000001
,
00010000
00100000
01000000
00000100
00001000
00010000
01000000
00100000
,
00010000
00001000
00000010
00010000
00001000
00000100
00000010
00000001
,
00010000
00001000
01000000
10000000
00100000
01000000
00010000
01000000
,
00010000
00001000
00000010
00000100
00000001
00000000
00000000
00000010
,
00000000
00000000
00000100
00000000
00000000
00001000
00000000
00000000
,
00010000
00000000
00000000
00100000
00000000
00000000
01000000
00000000
,
00000000
10000000
00000000
00000000
01000000
00000000
00000000
00100000
,
00000000
00000000
00010000
00000000
00000000
00001000
00000000
00000000
,
00000100
00000000
00000000
00000010
00000000
00000000
00000001
00000000
,
00000000
00000010
00000000
00000000
00000100
00000000
00000000
00001000
,
00000000
00000000
00010000
00000000
00000000
00100000
00000000
00000000
,
01000000
00000000
00000000
10000000
00000000
00000000
01000000
00000000
,
00000000
00100000
00000000
00000000
00010000
00000000
00000000
00001000
,
00000000
00000000
00000100
00000000
00000000
00000010
00000000
00000000
,
00000001
00000000
00000000
00000010
00000000
00000000
00000100
00000000
,
00000000
00001000
00000000
00000000
00010000
00000000
00000000
00100000
,
00000000
00000000
01000000
00000000
00000000
10000000
00000000
00000000
,
01000000
00000000
00000000
00100000
00000000
00000000
00010000
00000000
,
00000000
00001000
00000000
00000110
00000000
00000000
00011000
00000000
,
00000000
00000000
01000000
00010000
01000000
00000000
00100000
10000000
00100000
00000000
00001000
01000000
00001000
00000000
00010000
00100000
,
00010000
00000000
00000010
00000100
00000010
00000000
00001000
00000001
00001000
00000000
00000000
00000000
00010000
00001000
00010000
00001000
,
01000000
00100000
01000000
00000000
00100000
10000000
00100000
00000000
01000000
00001000
01000000
00000000
00010000
00100000
00010000
00000000
,
10000000
01000000
10000000
00000000
00001000
00010000
00001000
00000000
00000010
00000100
00000010
00000000
00000001
00000100
00000010
00001000
,
00000100
00022000
00000000
00000000
00000000
00000000
00000000
00000000
,
00000000
00000000
00000000
00000000
,
00000000
00000000
00000000
00033000
,
00000000
12000000
00000000
10000000
00000000
00000000
10000000
00000000
00000000
13000000
00000000
00000000
;

//---------------dance-double - ----------------
#NOTEDATA:;
#CHARTNAME:;
#STEPSTYPE:dance-double;
#DESCRIPTION:;
#CHARTSTYLE:;
#DIFFICULTY:Hard;
#METER:18;
#RADARVALUES:0.822057,1.027111,0.099932,0.141570,1.457337,691.000000,679.000000,12.000000,17.000000,0.000000,0.000000,0.000000,0.000000,0.000000,0.822057,1.027111,0.099932,0.141570,1.457337,691.000000,679.000000,12.000000,17.000000,0.000000,0.000000,0.000000,0.000000,0.000000;
#CREDIT:;
#DISPLAYBPM:1.000000:999.000000;
#NOTES:
00000000
00000000
00000000
00000000
,
00022000
00000000
00000000
00000000
,
00000000
00030000
00000020
00000000
,
00000000
00000000
00000000
00003000
,
00000031
00000011
00001000
00001010
,
00010000
01010000
10000000
11000000
,
00100000
10000000
00100000
10000000
01000000
10000000
01000000
10000000
00100000
01000000
00100000
01000000
00001000
00010000
00001000
00010000
,
00000010
00010000
00000010
00010000
00000100
00010000
00000100
00010000
00000010
00000000
00000010
00000000
00000100
00000000
00000100
00000000
,
00000001
00000010
00000001
00000010
00000001
00000100
00000001
00000100
00000010
00001000
00000010
00001000
01000000
00001000
01000000
00001000
,
00000001
00000000
00000000
00001000
00000000
00000000
00000001
00000000
00000000
00001000
00000000
00000000
00100000
00000000
00000000
01000000
00000000
00000000
00100000
00000000
00000000
01000000
00000000
00000000
20000000
00000000
00000000
00000000
00000000
00000000
30200000
00000000
00000000
00000000
00000000
00000000
02300000
00000000
00000000
00000000
00000000
00000000
00000000
00000000
03001000
00000000
00000000
00100000
,
00000000
00000000
00001000
00000000
00000000
00100000
00000000
00000000
00010000
00000000
00000000
01000000
00000000
00000000
00010000
00000000
00000000
01000000
00000000
00000000
00001000
00000000
00000000
00000100
00000000
00000000
00001000
00000000
00000000
00000100
00000000
00000000
00000001
00000000
00000000
00000010
00000000
00000000
00000001
00000000
00000000
00000010
00000000
00000000
00010000
00000000
00000000
10000000
,
00000000
00000000
00010000
00000000
00000000
10000000
00000000
00000000
00100000
00000000
00000000
01000000
00000000
00000000
00100000
00000000
00000000
01000000
00000000
00000000
00001000
00000000
00000000
00000000
00000000
00000000
00001000
00000000
00000000
00000000
00000000
00000000
00010000
00000000
00000000
00000000
00000000
00000000
00010000
00000000
00000000
00000000
00000000
00000000
00000010
00000000
00000000
00010000
,
00000000
00000000
00000010
00000000
00000000
00010000
00000000
00000000
00000001
00000000
00000000
00000100
00000000
00000000
00000001
00000000
00000000
00000100
00000000
00000000
00000010
00000000
00000000
00001000
00000000
00000000
00000010
00000000
00000000
00001000
00000000
00000000
10000000
00000000
00000000
01000000
00000000
00000000
10000000
00000000
00000000
01000000
00000000
00000000
00100000
00000000
00000000
01000000
,
00000000
00000000
00100000
00000000
00000000
01000000
00000000
00000000
10000000
00000000
00000000
00010000
00000000
00000000
10000000
00000000
00000000
00010000
00000000
00000000
00100000
00000000
00000000
10000000
00000000
00000000
00100000
00000000
00000000
01000000
00000000
00000000
00100000
00000000
00000000
00010000
00000000
00000000
00100000
00000000
00000000
00000000
00000000
00000000
00022000
00000000
00000000
00000000
,
00000000
00000000
00000000
00000000
00000000
00000000
00000000
00000000
00000000
00000000
00000000
00000000
00000000
00000000
00000000
00000000
00000000
00000000
00000000
00000000
00000000
00000000
00000000
00000000
00000000
00000000
00000000
00000000
00000000
00000000
00000000
00000000
00030000
00000000
00000000
00000000
00000000
00000000
00000000
00000000
00000000
00000000
00000000
00000000
00003100
00000000
00000000
00000010
,
00000000
00000000
00000001
00000000
00000000
00000100
00000000
00000000
00000010
00000000
00000000
00010000
00000000
00000000
00001000
00000000
00000000
01000000
00000000
00000000
00000100
00000000
00000000
00000010
00000000
00000000
00000001
00000000
00000000
00001000
00000000
00000000
00100000
00000000
00000000
00000010
00000000
00000000
00000001
00000000
00000000
00000100
00000000
00000000
00000010
00000000
00000000
00001000
,
00000000
00000000
01000000
00000000
00000000
00100000
00000000
00000000
00010000
00000000
00000000
00100000
00000000
00000000
00001000
00000000
00000000
01000000
00000000
00000000
00100000
00000000
00000000
10000000
00000000
00000000
00100000
00000000
00000000
00000000
00000000
00000000
00010000
00000000
00000000
00000100
00000000
00000000
00010000
00000000
00000000
00000000
00000000
00000000
00000001
00000000
00000000
00001000
,
00000000
00000000
00000010
00000000
00000000
00000100
00000000
00000000
00000010
00000000
00000000
00010000
00000000
00000000
00000100
00000000
00000000
00000010
00000000
00000000
00000001
00000000
00000000
00001000
00000000
00000000
00000010
00000000
00000000
00100000
00000000
00000000
00001000
00000000
00000000
01000000
00000000
00000000
00001000
00000000
00000000
00010000
00000000
00000000
00000010
00000000
00000000
00001000
,
00000000
00000000
00000100
00000000
00000000
00000010
00000000
00000000
00000001
00000000
00000000
00010000
00000000
00000000
00000010
00000000
00000000
00001000
00000000
00000000
01000000
00000000
00000000
00010000
00000000
00000000
01000000
00000000
00000000
00001000
00000000
00000000
00000100
00000000
00000000
00000000
00000000
00000000
00000000
00000000
00000010
00000000
00000000
00000001
00000000
00000000
00000100
00000000
,
00000000
00000010
00000000
00000000
00010000
00000000
00000000
00000100
00000000
00000000
00000010
00000000
00000000
00001000
00000000
00000000
00000010
00000000
00000000
00000001
00000000
00000000
00010000
00000000
00000000
01000000
00000000
00000000
10000000
00000000
00000000
00001000
00000000
00000000
00100000
00000000
00000000
01000000
00000000
00000000
00100000
00000000
00000000
00010000
00000000
00000000
01000000
00000000
,
00000000
00100000
00000000
00000000
10000000
00000000
00000000
00010000
00000000
00000000
00001000
00000000
00000000
01000000
00000000
00000000
00000100
00000000
00000000
00000010
00000000
00000000
00000100
00000000
00000000
00000000
00000000
00000000
00010000
00000000
00000000
00001000
00000000
00000000
00010000
00000000
00000000
00000000
00000000
00000000
00000010
00000000
00000000
00001000
00000000
00000000
00000001
00000000
,
00000000
00000010
00000000
00000000
00000100
00000000
00000000
01000000
00000000
00000000
00000001
00000000
00000000
00010000
00000000
00000000
00001000
00000000
00000000
00000100
00000000
00000000
00000010
00000000
00000000
00100000
00000000
00000000
00010000
00000000
00000000
01000000
00000000
00000000
00001000
00000000
00000000
00010000
00000000
00000000
00000100
00000000
00000000
01000000
00000000
00000000
00010000
00000000
,
00000000
10000000
00000000
00000000
01000000
00000000
00000000
00100000
00000000
00000000
00001000
00000000
00000000
10000000
00000000
00000000
00100000
00000000
00000000
00010000
00000000
00000000
00100000
00000000
00000000
01000000
00000000
00000000
00100000
00000000
00000000
10000000
00000000
00000000
00100000
00000000
00000000
00000000
00000000
00000000
00000000
00000000
00001000
00000000
00000000
00000000
00010000
00000000
,
00000000
00000100
00000000
00000010
00000000
00000001
00000000
00000100
00000000
00000010
00000000
00010000
00000000
00001000
00000000
00010000
00000000
00000100
00000000
00000010
00000000
00000001
00000000
00000100
,
00000000
00000010
00000000
00001000
00000000
00000100
00000000
01000000
00000000
00010000
00000000
00100000
00000000
00001000
00000000
01000000
00000000
00100000
00000000
10000000
00000000
01000000
00000000
00100000
,
00000000
00000010
00000000
00010000
00000000
00000100
00000000
00000001
00000000
00000010
00000000
00000100
00000000
00001000
00000000
00000010
00000000
00000100
00000000
00000010
00000000
00010000
00000000
01000000
,
00000000
10000000
00000000
00100000
00000000
01000000
00000000
00010000
00000000
00001000
00000000
00010000
00000000
10000000
00000000
00100000
00000000
01000000
00000000
00001000
00000000
00000000
00000000
00000000
,
00022000
00000000
00000000
00000000
,
00000000
00000000
00003000
02000000
,
00000000
00000000
00000000
00000000
00000000
00000000
00000000
00000000
00030000
00000000
00000000
00000000
13000000
01000000
00100000
00010000
,
00001000
00000100
00000010
00000001
00000100
00000010
00001000
00000001
00000100
00010000
00001000
00100000
00010000
01000000
00100000
10000000
,
00010000
00100000
00001000
01000000
00100000
00100000
00100000
00000000
10000000
10000000
10000000
00000000
00001000
00010000
00000010
00000100
,
00000001
00000010
00000100
00001000
00000100
00010000
00001000
00000010
00000100
00001000
00000001
00000010
00000001
00001000
01000000
00100000
,
10000000
01000000
00100000
00010000
00001000
00001000
00001000
00000000
00010000
00010000
00020000
00000000
00000000
00000000
00000000
00000000
,
00030010
00000100
00000010
00001000
00000100
00000010
00000001
00001000
,
00000100
00010000
01000000
00100000
00010000
01000000
10000000
00100000
,
00100000
00010000
00001000
00000010
00001000
00000010
00000001
00000100
,
00010000
01000000
10000000
00010000
00001000
01000000
00100000
10000000
,
01000000
00100000
00000010
00001000
00010000
00000100
00000001
00000010
,
00001000
01000000
00010000
00100000
00001000
00100000
10000000
01000000
,
00001000
00000001
00010000
00000100
01000000
00001000
00000010
00000001
,
00000100
00000010
00001000
00010000
01000000
10000000
00100000
01000000
,
00010000
00001000
00000100
00000001
00000010
00000100
00001000
00100000
,
00010000
01000000
00001000
00010000
01000000
10000000
00010000
00000100
,
00022000
00000000
00000000
00030000
,
00003010
00000001
00001000
00010000
00100000
01000000
00100000
10000000
00100000
00001000
01000000
00100000
00010000
01000000
00100000
01000000
,
00001000
00000100
00010000
00000010
00000001
00000100
00000010
00001000
00000100
00010000
00001000
00000100
00000001
00010000
00001000
00000100
,
00000010
00100000
00010000
01000000
00001000
00010000
00001000
01000000
00100000
10000000
01000000
00000100
00100000
10000000
01000000
00001000
,
00010000
01000000
00001000
00100000
01000000
00100000
10000000
00001000
00000100
00000010
00000001
00000100
00000010
00001000
00100000
00010000
,
01000000
00100000
01000000
00001000
00000100
00000010
00000001
00000100
01000000
00001000
00001000
00100000
10000000
01000000
00100000
00001000
,
00000001
00000100
00100000
00001000
00000100
00000001
00000010
00010000
00100000
00000100
10000000
00100000
00001000
00010000
00000100
00000001
,
00000100
00001000
01000000
00010000
00001000
00000010
00001000
00000100
00000001
00000000
00000000
00000000
00000010
00000000
00000000
00000000
,
00000100
00001000
00010000
00100000
,
01000000
10000000
01000000
00100000
,
00010000
00001000
00000100
00000010
,
00000001
00000010
00000100
00001000
,
00010000
00100000
01000000
10000000
,
01000000
00100000
00010000
00001000
,
00000100
00000010
00000001
00000010
,
00000100
00001000
00010000
00100000
,
01000000
10000000
01000000
00100000
,
00010000
00001000
00000100
00000010
,
00000001
00000010
00000100
00001000
,
00010000
00100000
01000000
10000000
,
01000000
00100000
00010000
00001000
,
00000100
00000010
00000001
00000010
,
00000100
00001000
00011000
01100000
,
00000000
00000000
10000000
10000000
10000000
10000000
00100000
00100000
00100000
00100000
01000000
01000000
01000000
01000000
00001000
00001000
,
00001000
00001000
00000010
00000010
00000010
00000010
00000001
00000001
00000001
00000001
00000100
00000100
00000010
00000010
00010000
00010000
,
00001000
00001000
00000100
00000100
00000100
00000100
00001000
00001000
00001000
00001000
00000010
00000010
00000010
00000010
00010000
00010000
,
00010000
00010000
01000000
01000000
01000000
01000000
00010000
00010000
00010000
00010000
00000010
00000001
00000010
00000100
00000010
00001000
,
00000010
00022000
00000000
00000000
00000000
00000000
00030000
00000000
,
01003000
00100000
01000000
00100000
,
10000000
00010000
10000000
00010000
,
00000000
00000120
00000000
00000100
00000000
00000100
00000000
00000100
00000000
00000130
00000000
00000000
;

//---------------dance-double - ----------------
#NOTEDATA:;
#CHARTNAME:;
#STEPSTYPE:dance-double;
#DESCRIPTION:;
#CHARTSTYLE:;
#DIFFICULTY:Challenge;
#METER:20;
#RADARVALUES:1.153973,1.525104,0.358089,0.108259,2.127713,970.000000,927.000000,43.000000,13.000000,0.000000,0.000000,0.000000,0.000000,0.000000,1.153973,1.525104,0.358089,0.108259,2.127713,970.000000,927.000000,43.000000,13.000000,0.000000,0.000000,0.000000,0.000000,0.000000;
#CREDIT:;
#DISPLAYBPM:1.000000:999.000000;
#NOTES:
// measure 0
00000000
00000000
00000000
00000000
,  // measure 1
00022000
00000000
00000000
00000000
,  // measure 2
00000000
00003000
00000020
00000000
,  // measure 3
00000000
00000000
00000000
00030000
,  // measure 4
00000031
00000011
00001000
00001010
,  // measure 5
00010000
01010000
10000000
11000000
,  // measure 6
00001000
01000000
00001000
01000000
00000000
00000000
00010000
00100000
00010000
00100000
00000000
00000000
00000010
00001000
00000010
00001000
00000000
00000000
00000100
00000001
00000100
00000001
00000000
00000000
,  // measure 7
00010000
00001000
00010000
00001000
00000000
00000000
01000000
00100000
01000000
00100000
00000000
00000000
10010000
00000000
00000000
00011000
00000000
00000000
00001001
00000000
00000000
00000110
00000000
00000000
,  // measure 8
00010000
00000100
00010000
00000100
00000000
00000000
00000010
00000001
00000010
00000001
00000000
00000000
00001000
00000100
00001000
00000100
00000000
00000000
00100000
00001000
00100000
00001000
00000000
00000000
,  // measure 9
10000000
00010000
10000000
00010000
00000000
00000000
00000100
00000010
00000100
00000010
00000000
00000000
00000101
00000000
00000000
00001100
00000000
00000000
01010000
00000000
00000000
00000000
10000000
00100000
,  // measure 10
10000000
00100000
00000000
00000000
00000010
00010000
00000010
00010000
00000000
00000000
01000000
10000000
01000000
10000000
00000000
00000000
00010000
01000000
00010000
01000000
00000000
00000000
00000100
00000010
,  // measure 11
00000100
00000010
00000000
00000000
00000001
00001000
00000001
00001000
00000000
00000000
00000011
00000000
00000000
00001100
00000000
00000000
00010010
00000000
00000000
01001000
00000000
00000000
00100000
00010000
,  // measure 12
00100000
00010000
00000000
00000000
00000001
00000100
00000001
00000100
00000000
00000000
01000000
00001000
01000000
00001000
00000000
00000000
00100000
10000000
00100000
10000000
00000000
00000000
00001000
00010000
,  // measure 13
00001000
00000000
00010000
00000000
00000000
00000000
00000000
00000000
00100000
00000000
01000000
00000000
00100000
00000000
01000000
00000000
00000000
00000000
00000000
00000000
10000000
00000000
00000000
00010000
00000000
00000000
00100000
00000000
00000000
00001000
00000000
00000000
00000010
00000000
00000000
00010000
00000000
00000000
01000000
00000000
00000000
20000000
00000000
00000000
00020000
00000000
00000000
00000000
,  // measure 14
00000000
00000000
00000000
00000000
00000000
00000000
00000000
00000000
00000000
00000000
00000000
00000000
00000000
00000000
00000000
00000000
30000000
00000000
00000000
00000000
00000000
00000000
00030010
00000001
,  // measure 15
00001000
00000100
00000000
00000000
00000010
00000100
00010000
00001000
00000000
00000000
00100000
10000000
01000000
00010000
00000000
00000000
00100000
01000000
00001000
00010000
00000000
00000000
00000010
00010000
,  // measure 16
01000000
00000000
10000000
00000000
00000000
00000000
00000000
00000000
00100000
00000000
10000000
00000000
00010000
00000000
01000000
00000000
00000000
00000000
00000000
00000000
01010000
00000000
00000000
00010000
00000000
00000000
00110000
00000000
00000000
00000000
00000000
00000000
01001000
00000000
00000000
00001000
00000000
00000000
00011000
00000000
00000000
00000000
00000000
00000000
00000001
00000000
00000100
00000000
,  // measure 17
00000010
00001000
00000000
00000000
00010000
00100000
01000000
10000000
00000000
00000000
00010000
00001000
01000000
00100000
00000000
00000000
00010000
00001000
00000010
00000100
00000000
00000000
00000001
00000010
,  // measure 18
00001000
00000000
00000100
00000000
00000000
00000000
00000000
00000000
00010000
00000000
00000100
00000000
00001000
00000000
00000010
00000000
00000000
00000000
00000000
00000000
00000110
00000000
00000000
00000010
00000000
00000000
00001010
00000000
00000000
00001000
00000000
00000000
00001001
00000000
00000000
00000000
00000000
00000000
00000000
00000000
01000000
00000000
00001000
00000000
00100000
00000000
00010000
00000000
,  // measure 19
00000000
00000000
01000000
00100000
10000000
00010000
00000000
00000000
00000100
00010000
00100000
00001000
00000000
00000000
00000100
00000010
00000001
00001000
00000000
00000000
00000100
00010000
00001000
00100000
,  // measure 20
00000000
00000000
00000000
00000000
01000000
00000000
10000000
00000000
00010000
00000000
00100000
00000000
00000000
00000000
00000000
00000000
10010000
00000000
00000000
10000000
00000000
00000000
10001000
00000000
00000000
00000000
00000000
00000000
00010010
00000000
00000000
00000010
00000000
00000000
00000110
00000000
00000000
00000000
00000000
00000000
00001000
00000000
01000000
00000000
00010000
00000000
00100000
00000000
,  // measure 21
00000000
00000000
00001000
00000001
00000100
00000010
00000000
00000000
00001000
00100000
00010000
01000000
00000000
00000000
10000000
00100000
01000000
00010000
00000000
00000000
10000000
00010000
00100000
01000000
,  // measure 22
00000000
00000000
00000000
00000000
00001000
00000000
00000100
00000000
00000010
00000000
00000001
00000000
00000000
00000000
00000000
00000000
00000011
00000000
00000000
00000001
00000000
00000000
00001001
00000000
00000000
00001000
00000000
00000000
01001000
00000000
00000000
01000000
00000000
00000000
01100000
00000000
00000000
00000000
00000000
00000000
00000000
00000000
00001000
00000000
00000000
00010000
00000000
00000000
,  // measure 23
00001000
00010000
00001000
00010000
00001000
00010000
00001000
00010000
00001000
00010000
00001000
00010000
00001000
00010000
00001000
00010000
,  // measure 24
00001000
00010000
00001000
00010000
00001000
00010000
00001000
00010000
00001000
00010000
00001000
00010000
00001000
00010000
00001000
00010000
,  // measure 25
00001000
00010000
00001000
00010000
00001000
00010000
00001000
00010000
00001000
00010000
00001000
00010000
00001000
00010000
00001000
00010000
,  // measure 26
00001000
00010000
00001000
00010000
00001000
00010000
00001000
00010000
00001000
00010000
00001000
00010000
00001000
00010000
00001000
00010000
,  // measure 27
00022000
00000000
00000000
00000000
,  // measure 28
00000000
00000000
00003000
00000020
,  // measure 29
00000000
00000000
00000000
00000000
00000000
00000000
00000000
00000000
00000000
00000000
00000000
00000000
00030000
00000000
00000000
00000000
00000000
00000000
00000031
00000001
00000001
00000001
00000000
00000000
,  // measure 30
00001000
00001000
00001000
00001000
00000000
00000000
00100000
00100000
00100000
00100000
00000000
00000000
01000000
01000000
01000000
01000000
00000000
00000000
10000000
10000000
10000000
10000000
00000000
00000000
,  // measure 31
00010000
00000000
00010000
00000000
00010000
00000000
00010000
00000000
00000000
00000000
00000000
00000000
01000000
00000000
00000000
01000000
00000000
00000000
00001000
00000000
00000000
00001000
00000000
00000000
00000010
00000000
00000000
00000010
00000000
00000000
00000001
00000000
00000000
00000001
00000000
00000000
00010000
00000000
00010000
00000000
00010000
00000000
00010000
00000000
00000000
00000000
00000000
00000000
,  // measure 32
00000010
00000010
00000010
00000010
00000000
00000000
00001000
00001000
00001000
00001000
00000000
00000000
00000100
00000100
00000100
00000100
00000000
00000000
01000000
01000000
01000000
00000000
00000000
00000000
,  // measure 33
00100000
00000000
00100000
00000000
00100000
00000000
00100000
00000000
00000000
00000000
00000000
00000000
01100000
00000000
00000000
00100000
00000000
00000000
10100000
00000000
00000000
10000000
00000000
00000000
11000000
00000000
00000000
01000000
00000000
00000000
01000200
00000000
00000000
00000000
00000000
00000000
00000000
00000000
00000000
00000000
00000000
00000000
00000000
00000000
00000000
00000000
00000000
00000000
,  // measure 34
00010300
00100000
00001000
01000000
00100000
10000000
00100000
00010000
00001000
00000010
00000100
00000001
00000100
00010000
00100000
00001000
,  // measure 35
00000010
00000001
00000100
00100000
00010000
00000010
01000000
00010000
10000000
00100000
01000000
00000100
00001000
01000000
00000001
00000010
,  // measure 36
00001000
00000100
00010000
00000010
00000001
00001000
01000000
10000000
00010000
00001000
01000000
10000000
00100000
00000010
00000100
00001000
,  // measure 37
00010000
01000000
10000000
00010000
00001000
01000000
00000001
01000000
10000000
00010000
00000100
00000010
00000001
00010000
00100000
10000000
,  // measure 38
00000100
01000000
00010000
10000000
00010000
00000010
00100000
10000000
00100000
00001000
00000010
00000001
00000100
00001000
10000000
00010000
,  // measure 39
01000000
00100000
00000010
10000000
01000000
00100000
00001000
00000100
00000001
01000000
00100000
00001000
00100000
10000000
00000010
01000000
,  // measure 40
00010000
01000000
00000010
00000100
00001000
00100000
01000000
10000000
00001000
00100000
00000001
01000000
10000000
00010000
00001000
00000100
,  // measure 41
01000000
00000100
00000001
01000000
00010000
00100000
00001000
00000010
01000000
00100000
00001000
10000000
00001000
01000000
00010000
00100000
,  // measure 42
00000100
01000000
00100000
01000000
00001000
00000100
00000001
00000010
00010000
01000000
10000000
00010000
00100000
00000100
01000000
00001000
,  // measure 43
00010000
00100000
10000000
00001000
00000010
00000001
00000100
00010000
01000000
00000100
00000010
00000001
00010000
00000010
00100000
00001000
,  // measure 44
00022000
00000000
00000000
00030000
,  // measure 45
01003000
00000000
00000000
00000000
00000000
00000000
00000000
00000000
00000000
00000000
00000000
00000000
00000000
00000000
00000000
00000000
00000000
00000000
00000000
00000000
00000000
00000000
00000000
00010000
00000000
00000000
00000000
00000000
00000000
00000000
00000000
00000010
00000000
00010000
00000000
00000000
00000000
00000000
00000000
00000000
00000000
00000000
00000000
00000000
10000000
00000000
00000000
00000000
00000000
00000000
00000000
00000000
01000000
00000000
00000000
00000000
00000000
00000000
00000000
00000000
00000000
00000000
00000000
00000000
00000000
00000000
00000000
00010000
00000000
00100000
00000000
00000000
00000000
00000000
00000000
00000000
00000000
00000000
00000000
00000000
00000000
00000000
00000000
00000000
00000000
00000000
00000000
00000000
00000000
00000001
00000000
00000000
00000000
00000000
00000000
00000000
00000000
00000000
00000000
00000000
10000000
00000000
00000000
00000000
00000000
00000000
00000000
00010000
00000000
00000000
00000000
00000000
00000000
00000000
00000000
00000000
00000000
00000100
00000000
00000000
00000010
00000000
00000000
00000000
00000000
00000000
00000000
00000000
00000000
00000000
00000000
00000000
00000000
01000000
00000000
00000000
00000000
00000000
00000000
00000000
00000000
00000000
00000000
00000000
00000000
00000000
00000000
00000000
00000000
00000000
00000000
00000000
00000000
00000000
00000000
00000000
00000000
00001000
00000000
00000000
00000000
00000000
00000000
00000000
00010000
00000000
00000000
00000000
00000000
00000000
00000000
00000000
00000000
00000000
00000010
00000000
00000000
00000000
00000000
00000000
00000000
00000000
10000000
00000000
00000000
00000000
00000000
00000000
00000000
00000000
00000000
00000000
,  // measure 46
01000000
00000000
00000000
00000000
00000000
00000000
00000000
00100000
00000000
00000000
00000000
00000000
10000000
00000000
00000000
00000000
00010000
00000000
00000000
00000000
00000000
00000000
00000000
00000010
00000000
00000000
00000000
00000000
00000000
01000000
00000000
00000000
00000000
00100000
00000000
00000000
00000000
00000000
00000000
00000000
00000000
00000000
00000000
00000000
00000000
10000000
00000000
00000000
00000000
00000000
00000000
00000000
00000000
00000000
00000000
00000000
00000100
00000000
00000000
00000000
00000000
00000000
00000000
00000000
00000000
00000000
00000000
00000000
00000000
00000000
00000000
00000000
00000000
00100000
00000000
00000000
00000000
00000000
00000000
00000000
00000000
00000000
01000000
00000000
00100000
00000000
00000000
00000000
00000010
00000000
00000000
00000000
00000000
00001000
00000000
00000000
00000000
00000000
00000100
00000000
00000000
00000000
00000000
00000000
00000000
00000000
00000000
00000000
00000000
00000000
00000000
00000000
00000000
00000000
00000000
00000000
00000000
10000000
00000000
00000000
00000000
00000000
00000000
01000000
00000000
00000000
00000000
00000000
00000000
00000010
00000000
00000000
00000000
00000000
00100000
00000000
00000000
00000000
00000000
00001000
00000000
00000000
00000000
00000000
00000001
00000000
00000000
00000000
00000000
00000000
00000000
00000000
00000000
00000000
00000010
00000000
00000000
00000000
01000000
00000000
00000000
00001000
00000000
00000000
00000000
00000000
00000000
00000000
00000000
00000000
00010000
00000000
00000000
00000000
00000000
00000000
00000000
00001000
00000000
00000000
00000010
00000000
00000000
00000000
00000000
00000000
00000000
00000000
00000000
00000100
00000000
00000000
,  // measure 47
00000000
00000000
00000000
00000000
00000000
00000000
00000000
00000000
00000000
00000000
00000000
00000000
00000000
00000000
00000000
00000000
00000001
00000000
00000000
00000000
00000000
00000000
00000000
00000000
10000000
00000000
00000000
00000000
00000000
00000000
00100000
00000000
00000000
00000000
00000000
00000000
00000000
00000100
00000000
00000000
00000000
00000000
00000000
00000000
00000000
00000000
00000000
00000000
00000000
00000000
00000000
00000000
00000000
00000000
00000000
00000000
00000000
00000000
00000000
00000000
01000000
00000000
00000000
00000000
00000000
00010000
00000000
00000000
00000000
00000000
00000000
00000000
00000001
00000000
00000000
00000000
00000000
00000000
00000000
00000000
00000000
00000000
00000000
00000000
00000000
00000000
00000000
00000000
00000000
01000000
00000000
00000000
00000010
00000000
00000000
00000000
00000000
00000000
00000000
00000000
00000000
00001000
00000000
00000000
00000000
00000000
00000000
00000000
00000000
00000000
00000000
10000000
00000000
00000000
00000000
00000000
00000000
00000000
00000000
00000000
00000000
00000000
00100000
00000000
00000000
00000000
00000000
00000000
00000000
00000000
00000000
00000000
00000000
00000000
00000000
00000000
00000000
00000000
00000000
00000000
00000000
00000000
00000000
00000000
00000000
00000000
00000000
00000000
00000000
00000000
00000000
00000000
00000000
00000001
00000000
00000000
00000000
00000000
00000000
00000000
00000001
00000000
00000000
00000000
00000000
00000000
00000000
00000000
00100000
00000000
00000000
00000000
00000010
00000000
00000000
00000000
00010000
00000000
00000000
00000000
00000000
00000000
00000000
10000000
00000000
00000000
00000000
00000000
00000000
00000000
00000000
00000000
,  // measure 48
00000000
00000000
00000000
10000000
00000000
00001000
00000000
00000000
00000000
00000000
00000000
00000000
00000000
00000000
00000000
00000000
01000000
00000000
00000000
00000000
00000000
00000000
00000000
00000000
00000000
00000000
00000000
00000000
00000000
00000000
00000000
00000100
00000000
00000000
00000000
00000000
00010000
00000000
00000000
00000000
00000000
00000000
00000000
00000000
00000000
00000000
00000000
00000000
00000000
00000000
00000000
00000010
00000000
00000000
00000000
00000000
00000000
00000000
00000000
00000000
00000000
00000000
00000000
00000000
00000000
00000000
10000000
00000000
00000000
00000000
00000000
00000000
00000000
00000000
00000000
00000000
00000000
00000000
00000000
00000000
00000000
00100000
00000000
00000000
00000000
00000000
00000000
00000000
00010000
00000000
00000000
00000000
10000000
00000000
00000000
00000000
00000010
00000000
00000000
00000000
00000000
00000000
00000000
00000000
00000000
00000000
00000000
00000000
00000000
00000000
00000000
00000100
00000000
00000000
00000000
00000000
00000000
00000000
00000000
00000000
00000000
00000000
00000000
00000000
00000000
00000000
00000000
00000000
00000000
00000000
10000000
00000000
00000000
00000000
00000000
00000000
00000000
00000000
00000000
00000000
00000000
00000000
00000000
00000000
00000000
00000000
00000000
00000000
00000001
00000000
00000000
00000000
01000000
00000000
00000000
00000000
00000000
00001000
00000000
00000000
00000000
00010000
00000000
00000000
00000000
00000000
00000000
00000001
00000000
00000000
00000000
00000000
00000000
00000000
00000000
00000000
00000000
00000000
00000000
00000000
00001000
00000000
00000000
00000000
00000000
00000000
00000000
00000000
00000000
00000000
00000000
00000000
,  // measure 49
00000000
00000000
00000000
00000000
00000000
00000000
00000000
00000000
00000000
00000000
01000000
00000000
00000000
00000000
00000000
00000000
00000000
00000000
00000000
00000000
00000000
00000000
00000000
00000000
00000000
00000000
00000000
00000000
00000000
00000000
00000000
00000000
00000000
00000000
00000000
00000000
00000000
00000000
00000000
00000000
00000000
00100000
00000000
00000000
00000000
00000000
00000000
00000000
00000000
10000000
00000000
00000000
00000000
00000010
00000000
00000000
00000000
00000000
00000000
00000000
00000000
00000000
00000000
00000000
00000000
00000000
00000000
00000000
00000000
00000000
01000000
00000000
00000000
00000000
00000000
00000000
00000000
00000000
00000000
00000000
00000000
00000000
00000000
00000000
00000000
00000000
00000000
00000000
00000000
00000000
00000000
00001000
00000000
00000000
00000000
00000000
00000000
00000000
00000000
00000000
00000000
00000000
00000000
00000000
00000000
00000000
00000000
00000000
00000000
00000000
00000000
00000000
00000000
00000000
00000000
00000000
00000001
00000000
00000000
00000000
00000000
00000000
00000100
00000000
00000000
00000000
00000000
00000000
00000000
00000000
00000000
10000000
00000000
00000000
00010000
00000000
00000000
00000000
00100000
00000000
00000000
00000000
00001000
00000000
00000000
00000000
00000000
00000000
00000000
00000000
00000000
00000000
00000000
00000000
00000000
00000000
00000000
00000000
00000000
00000000
01000000
00000000
00000000
00000000
00000000
10000000
00000000
00000000
00100000
00000000
00000000
00000000
00000000
00000000
00000100
00000000
00000000
00000000
00000000
00000001
00000000
00000000
00000000
00000000
00000000
00000000
00100000
00000000
00000000
00000000
00000000
00000000
,  // measure 50
00000000
00000000
00000000
00000000
00000000
00000000
00000000
00000000
00000000
00000000
00000000
00000000
00000000
00000000
00000000
00000000
00000000
00000000
00000000
00000000
00000000
00000000
00000010
00000000
00000000
00000000
00000000
00000000
00000000
00000000
00000000
00000000
00000001
00000000
00000000
01000000
00000000
00000000
00000000
00000010
00000000
00000000
00000000
10000000
00000000
00000000
01000000
00000000
00000000
00000100
00000000
00000000
00000000
00000000
00000000
00000000
00000000
00000000
00000000
00000000
00000000
00000000
00000000
00000000
00000000
00000000
00000000
00000000
00000000
00000000
00000000
00000000
00000000
00000000
00000000
00010000
00000000
00000000
00001000
00000000
00000000
00000000
00000000
00000000
00000000
00000000
00000000
00000000
00000000
00000000
00000000
00000000
00000000
00000000
00000000
00000000
00000000
00000000
00000000
00001000
00000000
00000000
00000000
00000000
00000000
00000000
00000000
00000000
00000000
00000000
00000000
00000000
00000000
00000000
00000000
00000000
00000000
00000000
00000000
01000000
00000000
00000000
00000000
00000000
00000000
00000000
00000000
00000000
00000000
00000000
00000000
00000000
00000000
00000000
00000000
00000000
00000000
00000000
00000000
00000000
00000000
00000000
00000000
00000000
00000000
00000000
00000000
00000000
00000000
00000000
00000000
00000001
00000000
00000000
00000000
00000000
00000000
00000000
00000000
00000000
00000000
00000000
00000000
00100000
00000000
00000000
00000000
00000000
00000000
00000000
00000000
00000000
00000000
00010000
00000000
00000000
01000000
00000000
00000000
00000000
00000000
00000000
00000000
00000000
00000000
00000000
00000010
00000000
00000000
00000000
00000000
00000000
,  // measure 51
00000000
00000000
00000000
00000000
00000000
00000000
10000000
00000000
00000000
00000000
00000000
00000000
00000000
00000000
00000000
00000000
00000000
00000000
00000000
00000000
00000001
00000000
00000000
00000000
00100000
00000000
00000000
00000000
00000000
00000000
00000010
00000000
00000000
00000000
00000000
00000000
00000000
00000000
00000000
00000000
00000000
00000000
00000000
00000000
00000000
00000000
00000000
00000000
00000000
00000000
00000000
00000000
00000000
00000000
00000000
00000000
00000000
00000000
10000000
00000000
00000000
00000000
00000000
00000000
00000000
00000000
00000000
00000000
00000000
00000000
00000000
00000000
00000010
00000000
00000000
00000000
00000100
00000000
00000000
00000000
00000000
00000000
00000000
00000000
01000000
00000000
00000000
00000000
00000000
00000000
00000000
00000000
00000000
00000000
00000000
00000000
00000001
00000000
00000000
00000000
00000000
00000000
00000000
00000000
00000000
00000000
00000000
00000000
00000000
00000000
00000000
00000000
00000000
00000000
00000000
00000000
00000000
00000000
00000000
00000000
00000010
00000000
00000000
00000000
00000000
00000000
00000000
00000000
00000000
00000000
00000000
00000000
00000000
00000000
00000000
00000000
00000000
00000000
00000000
00000000
00000000
00000000
00000000
00000000
00000100
00000000
00000000
00000000
00000000
00000000
00000000
00000000
00000000
00000000
00000000
00000000
00000000
00000000
00000000
00000000
00000000
00000000
00000000
00000000
00000000
00000000
00000000
00000000
00001000
00000000
00000000
00000000
00000000
00000000
00000000
00000000
00000000
00000000
00000000
00000000
00000000
00000000
00000000
00000000
00000000
00000000
00000000
00000000
00000000
00000000
00000000
00000000
,  // measure 52
00010000
00100000
01000000
10000000
01000000
00100000
00010000
00001000
,  // measure 53
00000100
00000010
00000001
00000010
00000100
00001000
00010000
00100000
,  // measure 54
01000000
10000000
01000000
00100000
00010000
00001000
00000100
00000010
,  // measure 55
00000001
00000010
00000100
00001000
00010000
00100000
01000000
10000000
,  // measure 56
01000000
00100000
00010000
00001000
00000100
00000010
00000001
00000010
,  // measure 57
00000100
00001000
00010000
00100000
01000000
10000000
01000000
00100000
,  // measure 58
00010000
00001000
00000100
00000010
00000001
00000010
00000100
00001000
,  // measure 59
00010000
00100000
01000000
10000000
01000000
00100000
00010000
00001000
,  // measure 60
00000100
00000010
00000001
00000010
00000100
00001000
00010000
00100000
,  // measure 61
01000000
10000000
01000000
00100000
00010000
00001000
00000100
00000010
,  // measure 62
00000001
00000010
00000100
00001000
00010000
00100000
01000000
10000000
,  // measure 63
01000000
00100000
00010000
00001000
00000100
00000010
00000001
00000010
,  // measure 64
00000100
00001000
00010000
00100000
01000000
10000000
01000000
00100000
,  // measure 65
00010000
00001000
00000100
00000010
00000001
00000010
00000100
00001000
,  // measure 66
00010000
00100000
01000000
10000000
11000000
00110000
00001100
00000011
,  // measure 67
00000000
00000000
00000000
00000001
00100000
00001000
00100000
10000000
01000000
00010000
00010000
00000100
00000100
00010000
01000000
00010000
00001000
00000010
00000001
00000100
10000000
00000100
00100000
01000000
,  // measure 68
01000000
00010000
00001000
00000010
00000001
00010000
01000000
10000000
00010000
00000100
01000000
00100000
00010000
00000100
00000001
00000010
10000000
00001000
01000000
00010000
00000100
00000001
00100000
01000000
,  // measure 69
10000000
00001000
00000100
00000010
00100000
01000000
00010000
00001000
00100000
00001000
00000010
00000001
00001000
01000000
10000000
01000000
00001000
10000000
00000001
01000000
00001000
00000100
00000010
00000000
,  // measure 70
10000000
00000001
00001000
01000000
00000100
01000000
00000010
00100000
00001000
00010000
00000001
00000010
10000000
00000000
00000100
00100000
10000000
00100000
00000100
00000001
00001000
00010000
01000000
00000100
,  // measure 71
00001000
10000000
00010000
00012000
00000000
00000000
00010000
00000000
00000000
00010000
00000000
00000000
00010000
00000000
00000000
00010000
00000000
00000000
00013000
00000000
00000000
00000000
00000000
00000000
,  // measure 72
10000000
01000000
10000000
01000000
10000000
01000000
10000000
01000000
10000000
01000000
10000000
01000000
10000000
01000000
10000000
01000000
,  // measure 73
10000000
01000000
10000000
01000000
10000000
01000000
10000000
01000000
10000000
01000000
10000000
01000000
10000000
01000000
10000000
01000000
,  // measure 74
00000000
00021000
00001000
00001000
00001000
00001000
00001000
00001000
00001000
00031000
00000000
00000000
;
